  0
SECTION
  2
HEADER
  9
$ACADVER
  1
AC1015
  9
$ACADMAINTVER
 70
    10
  9
$DWGCODEPAGE
  3
ANSI_932
  9
$INSBASE
 10
0.0
 20
0.0
 30
0.0
  9
$EXTMIN
 10
-271.7811184218575
 20
-109.9927964534875
 30
0.0
  9
$EXTMAX
 10
254.0588815789028
 20
273.0472035775856
 30
0.0
  9
$LIMMIN
 10
-210.0
 20
-148.5
  9
$LIMMAX
 10
210.0
 20
148.5
  9
$ORTHOMODE
 70
     1
  9
$REGENMODE
 70
     1
  9
$FILLMODE
 70
     1
  9
$QTEXTMODE
 70
     0
  9
$MIRRTEXT
 70
     1
  9
$LTSCALE
 40
2.0
  9
$ATTMODE
 70
     2
  9
$TEXTSIZE
 40
3.5
  9
$TRACEWID
 40
0.05
  9
$TEXTSTYLE
  7
STANDARD
  9
$CLAYER
  8
最小図面
  9
$CELTYPE
  6
CONTINUOUS
  9
$CECOLOR
 62
   256
  9
$CELTSCALE
 40
1.0
  9
$DISPSILH
 70
     0
  9
$DIMSCALE
 40
2.0
  9
$DIMASZ
 40
3.0
  9
$DIMEXO
 40
1.0
  9
$DIMDLI
 40
10.0
  9
$DIMRND
 40
0.0
  9
$DIMDLE
 40
0.0
  9
$DIMEXE
 40
1.0
  9
$DIMTP
 40
0.1
  9
$DIMTM
 40
0.1
  9
$DIMTXT
 40
3.5
  9
$DIMCEN
 40
0.0
  9
$DIMTSZ
 40
0.0
  9
$DIMTOL
 70
     0
  9
$DIMLIM
 70
     0
  9
$DIMTIH
 70
     0
  9
$DIMTOH
 70
     0
  9
$DIMSE1
 70
     0
  9
$DIMSE2
 70
     0
  9
$DIMTAD
 70
     1
  9
$DIMZIN
 70
     8
  9
$DIMBLK
  1
OPEN
  9
$DIMASO
 70
     1
  9
$DIMSHO
 70
     1
  9
$DIMPOST
  1
<>
  9
$DIMAPOST
  1
"
  9
$DIMALT
 70
     0
  9
$DIMALTD
 70
     2
  9
$DIMALTF
 40
0.0393701
  9
$DIMLFAC
 40
1.0
  9
$DIMTOFL
 70
     1
  9
$DIMTVP
 40
0.0
  9
$DIMTIX
 70
     0
  9
$DIMSOXD
 70
     0
  9
$DIMSAH
 70
     1
  9
$DIMBLK1
  1

  9
$DIMBLK2
  1

  9
$DIMSTYLE
  2
GEN-ISO
  9
$DIMCLRD
 70
   256
  9
$DIMCLRE
 70
   256
  9
$DIMCLRT
 70
   256
  9
$DIMTFAC
 40
0.71
  9
$DIMGAP
 40
1.5
  9
$DIMJUST
 70
     0
  9
$DIMSD1
 70
     0
  9
$DIMSD2
 70
     0
  9
$DIMTOLJ
 70
     0
  9
$DIMTZIN
 70
     8
  9
$DIMALTZ
 70
     0
  9
$DIMALTTZ
 70
     0
  9
$DIMUPT
 70
     0
  9
$DIMDEC
 70
     2
  9
$DIMTDEC
 70
     3
  9
$DIMALTU
 70
     2
  9
$DIMALTTD
 70
     4
  9
$DIMTXSTY
  7
STANDARD
  9
$DIMAUNIT
 70
     0
  9
$DIMADEC
 70
     0
  9
$DIMALTRND
 40
0.0
  9
$DIMAZIN
 70
     0
  9
$DIMDSEP
 70
    46
  9
$DIMATFIT
 70
     3
  9
$DIMFRAC
 70
     0
  9
$DIMLDRBLK
  1
OPEN
  9
$DIMLUNIT
 70
     2
  9
$DIMLWD
 70
    -2
  9
$DIMLWE
 70
    -2
  9
$DIMTMOVE
 70
     0
  9
$LUNITS
 70
     2
  9
$LUPREC
 70
     4
  9
$SKETCHINC
 40
0.1
  9
$FILLETRAD
 40
0.0
  9
$AUNITS
 70
     0
  9
$AUPREC
 70
     0
  9
$MENU
  1
.
  9
$ELEVATION
 40
0.0
  9
$PELEVATION
 40
0.0
  9
$THICKNESS
 40
0.0
  9
$LIMCHECK
 70
     0
  9
$CHAMFERA
 40
0.0
  9
$CHAMFERB
 40
0.0
  9
$CHAMFERC
 40
0.0
  9
$CHAMFERD
 40
0.0
  9
$SKPOLY
 70
     0
  9
$TDCREATE
 40
2451332.598188681
  9
$TDUCREATE
 40
2451332.223188680
  9
$TDUPDATE
 40
2459565.364540370
  9
$TDUUPDATE
 40
2459564.989540370
  9
$TDINDWG
 40
0.3259689583
  9
$TDUSRTIMER
 40
0.3259684144
  9
$USRTIMER
 70
     1
  9
$ANGBASE
 50
0.0
  9
$ANGDIR
 70
     0
  9
$PDMODE
 70
     0
  9
$PDSIZE
 40
0.0
  9
$PLINEWID
 40
0.0
  9
$SPLFRAME
 70
     0
  9
$SPLINETYPE
 70
     6
  9
$SPLINESEGS
 70
     8
  9
$HANDSEED
  5
3888
  9
$SURFTAB1
 70
     6
  9
$SURFTAB2
 70
     6
  9
$SURFTYPE
 70
     6
  9
$SURFU
 70
     6
  9
$SURFV
 70
     6
  9
$UCSBASE
  2

  9
$UCSNAME
  2

  9
$UCSORG
 10
0.0
 20
0.0
 30
0.0
  9
$UCSXDIR
 10
1.0
 20
0.0
 30
0.0
  9
$UCSYDIR
 10
0.0
 20
1.0
 30
0.0
  9
$UCSORTHOREF
  2

  9
$UCSORTHOVIEW
 70
     0
  9
$UCSORGTOP
 10
0.0
 20
0.0
 30
0.0
  9
$UCSORGBOTTOM
 10
0.0
 20
0.0
 30
0.0
  9
$UCSORGLEFT
 10
0.0
 20
0.0
 30
0.0
  9
$UCSORGRIGHT
 10
0.0
 20
0.0
 30
0.0
  9
$UCSORGFRONT
 10
0.0
 20
0.0
 30
0.0
  9
$UCSORGBACK
 10
0.0
 20
0.0
 30
0.0
  9
$PUCSBASE
  2

  9
$PUCSNAME
  2

  9
$PUCSORG
 10
0.0
 20
0.0
 30
0.0
  9
$PUCSXDIR
 10
1.0
 20
0.0
 30
0.0
  9
$PUCSYDIR
 10
0.0
 20
1.0
 30
0.0
  9
$PUCSORTHOREF
  2

  9
$PUCSORTHOVIEW
 70
     0
  9
$PUCSORGTOP
 10
0.0
 20
0.0
 30
0.0
  9
$PUCSORGBOTTOM
 10
0.0
 20
0.0
 30
0.0
  9
$PUCSORGLEFT
 10
0.0
 20
0.0
 30
0.0
  9
$PUCSORGRIGHT
 10
0.0
 20
0.0
 30
0.0
  9
$PUCSORGFRONT
 10
0.0
 20
0.0
 30
0.0
  9
$PUCSORGBACK
 10
0.0
 20
0.0
 30
0.0
  9
$USERI1
 70
     0
  9
$USERI2
 70
     0
  9
$USERI3
 70
     0
  9
$USERI4
 70
     0
  9
$USERI5
 70
     0
  9
$USERR1
 40
0.0
  9
$USERR2
 40
0.0
  9
$USERR3
 40
0.0
  9
$USERR4
 40
0.0
  9
$USERR5
 40
0.0
  9
$WORLDVIEW
 70
     1
  9
$SHADEDGE
 70
     3
  9
$SHADEDIF
 70
    70
  9
$TILEMODE
 70
     1
  9
$MAXACTVP
 70
    48
  9
$PINSBASE
 10
0.0
 20
0.0
 30
0.0
  9
$PLIMCHECK
 70
     0
  9
$PEXTMIN
 10
1.000000000000000E+20
 20
1.000000000000000E+20
 30
1.000000000000000E+20
  9
$PEXTMAX
 10
-1.000000000000000E+20
 20
-1.000000000000000E+20
 30
-1.000000000000000E+20
  9
$PLIMMIN
 10
0.0
 20
0.0
  9
$PLIMMAX
 10
12.0
 20
9.0
  9
$UNITMODE
 70
     0
  9
$VISRETAIN
 70
     1
  9
$PLINEGEN
 70
     0
  9
$PSLTSCALE
 70
     1
  9
$TREEDEPTH
 70
  3020
  9
$CMLSTYLE
  2
STANDARD
  9
$CMLJUST
 70
     0
  9
$CMLSCALE
 40
1.0
  9
$PROXYGRAPHICS
 70
     1
  9
$MEASUREMENT
 70
     1
  9
$CELWEIGHT
370
    -1
  9
$ENDCAPS
280
     0
  9
$JOINSTYLE
280
     0
  9
$LWDISPLAY
290
     0
  9
$INSUNITS
 70
     0
  9
$HYPERLINKBASE
  1

  9
$STYLESHEET
  1
ACAD.CTB
  9
$XEDIT
290
     1
  9
$CEPSNTYPE
380
     0
  9
$PSTYLEMODE
290
     1
  9
$FINGERPRINTGUID
  2
{935A57F6-5EC8-447F-B215-0075650EC403}
  9
$VERSIONGUID
  2
{432520FA-6968-41DE-8C5D-D407393FD715}
  9
$EXTNAMES
290
     1
  9
$PSVPSCALE
 40
0.0
  9
$OLESTARTUP
290
     0
  0
ENDSEC
  0
SECTION
  2
CLASSES
  0
CLASS
  1
LWPOLYLINE
  2
AcDbPolyline
  3
AutoCAD 2000
 90
    32768
280
     0
281
     1
  0
CLASS
  1
ACDBDICTIONARYWDFLT
  2
AcDbDictionaryWithDefault
  3
AutoCAD 2000
 90
        0
280
     0
281
     0
  0
CLASS
  1
ACDBPLACEHOLDER
  2
AcDbPlaceHolder
  3
AutoCAD 2000
 90
        0
280
     0
281
     0
  0
CLASS
  1
LAYOUT
  2
AcDbLayout
  3
AutoCAD 2000
 90
        0
280
     0
281
     0
  0
CLASS
  1
ACME_DOCUMENT
  2
AcMeDbDoc
  3
AcMeServices
 90
    32768
280
     0
281
     0
  0
CLASS
  1
ACMESCOPE
  2
AcMeScope
  3
AcMeServices
 90
        0
280
     0
281
     0
  0
CLASS
  1
ACMECOMMANDHISTORY
  2
AcMeCommandHistory
  3
AcMeServices
 90
        0
280
     0
281
     0
  0
CLASS
  1
DICTIONARYVAR
  2
AcDbDictionaryVar
  3
AutoCAD 2000
 90
        0
280
     0
281
     0
  0
CLASS
  1
ACIMSYSVARMAN
  2
AcImSysVarManager
  3
AcMeServices
 90
        0
280
     0
281
     0
  0
CLASS
  1
ACIMREALSYSVAR
  2
AcImRealSysVar
  3
AcMeServices
 90
        0
280
     0
281
     0
  0
CLASS
  1
ACIMINTSYSVAR
  2
AcImIntSysVar
  3
AcMeServices
 90
        0
280
     0
281
     0
  0
CLASS
  1
ACMEDRAWINGMAN
  2
AcMeDrawingMan
  3
AcMeServices
 90
        0
280
     0
281
     0
  0
CLASS
  1
ACMEVIEW
  2
AcMeView
  3
AcMeServices
 90
        0
280
     0
281
     0
  0
CLASS
  1
ACDBENTITYCACHE
  2
AcMeEntityCache
  3
AcMeServices
 90
    32768
280
     0
281
     0
  0
CLASS
  1
GSMANAGER
  2
AcMeGSManager
  3
AcMeServices
 90
    32768
280
     0
281
     0
  0
CLASS
  1
AMDTINTERNALREACTOR
  2
AmdtInternalReactor
  3
AcMeServices
 90
    32768
280
     0
281
     0
  0
CLASS
  1
ACMESTATEMGR
  2
AcMeStateMgr
  3
AcMeServices
 90
        0
280
     0
281
     0
  0
CLASS
  1
ACGREFMASTER
  2
AcGrefMaster
  3
AcAttribServices
 90
        0
280
     0
281
     0
  0
CLASS
  1
ACME_DATABASE
  2
AcMeDbDatabase
  3
AcMeServices
 90
    32768
280
     0
281
     0
  0
CLASS
  1
ACRFINSADJUSTERMGR
  2
AcRfInsAdjusterMgr
  3
AcMeServices
 90
    32768
280
     0
281
     0
  0
CLASS
  1
ACGREFMASTER
  2
AcGrefacadMaster
  3
AcGrefServices
 90
        0
280
     0
281
     0
  0
CLASS
  1
AMIMASTER
  2
AmiMaster
  3
AmiServices
 90
        0
280
     0
281
     0
  0
CLASS
  1
AMGSETTINGSOBJ
  2
AmgSettingsObj
  3
"AcadM|Product Description: AutoCAD Mechanical 2000|Company: Autodesk"
 90
        0
280
     0
281
     0
  0
CLASS
  1
ACMDATADICTIONARY
  2
AcmDataDictionary
  3
"AcmSymBB|Product Description: AutoCAD Mechanical 2000|Company: Autodesk"
 90
        0
280
     0
281
     0
  0
CLASS
  1
ACMDATAENTRYBLOCK
  2
AcmDataEntryBlock
  3
"AcmSymBB|Product Description: AutoCAD Mechanical 2000|Company: Autodesk"
 90
        0
280
     0
281
     0
  0
CLASS
  1
ACIMSTRSYSVAR
  2
AcImStrSysVar
  3
AcMeServices
 90
        0
280
     0
281
     0
  0
CLASS
  1
ACMSTANDARDISO
  2
AcmStandardISO
  3
"Amdt_StdImp|Product Description: AutoCAD Mechanical 2000|Company: Autodesk"
 90
        0
280
     0
281
     0
  0
CLASS
  1
AMGOBJPROPCFG
  2
AmgObjPropCfg
  3
"AmgLay|Product Description: AutoCAD Mechanical 2000|Company: Autodesk"
 90
        1
280
     0
281
     0
  0
CLASS
  1
AMDTEDGESTANDARDISO
  2
AmdtEdgeStdISO
  3
"Amdt_StdImp|Product Description: AutoCAD Mechanical 2000|Company: Autodesk"
 90
        0
280
     0
281
     0
  0
CLASS
  1
ACMSURFSTANDARDISO
  2
AcmSurfTextStdISO
  3
"Amdt_StdImp|Product Description: AutoCAD Mechanical 2000|Company: Autodesk"
 90
        0
280
     0
281
     0
  0
CLASS
  1
ACMFCFSTANDARDISO
  2
AcmFCFStdISO
  3
"Amdt_StdImp|Product Description: AutoCAD Mechanical 2000|Company: Autodesk"
 90
        0
280
     0
281
     0
  0
CLASS
  1
ACMWELDSTANDARDISO
  2
AcmWeldingStdISO
  3
"Amdt_StdImp|Product Description: AutoCAD Mechanical 2000|Company: Autodesk"
 90
        0
280
     0
281
     0
  0
CLASS
  1
ACMIDSTANDARDISO
  2
AcmIdStdISO
  3
"Amdt_StdImp|Product Description: AutoCAD Mechanical 2000|Company: Autodesk"
 90
        0
280
     0
281
     0
  0
CLASS
  1
ACMDATUMSTANDARDISO
  2
AcmDatumStdISO
  3
"Amdt_StdImp|Product Description: AutoCAD Mechanical 2000|Company: Autodesk"
 90
        0
280
     0
281
     0
  0
CLASS
  1
ACMBOMSTANDARDISO
  2
AcmBOMStdISO
  3
"Amdt_StdImp|Product Description: AutoCAD Mechanical 2000|Company: Autodesk"
 90
        0
280
     0
281
     0
  0
CLASS
  1
ACMDETAILSTANDARDISO
  2
AmdtDetailSymStdISO
  3
"Amdt_StdImp|Product Description: AutoCAD Mechanical 2000|Company: Autodesk"
 90
        0
280
     0
281
     0
  0
CLASS
  1
ACMSECTIONSTANDARDISO
  2
AmdtSectionSymStdISO
  3
"Amdt_StdImp|Product Description: AutoCAD Mechanical 2000|Company: Autodesk"
 90
        0
280
     0
281
     0
  0
CLASS
  1
ACMCENTERLINESTANDARDISO
  2
AmdtCenterLineStdISO
  3
"Amdt_StdImp|Product Description: AutoCAD Mechanical 2000|Company: Autodesk"
 90
        0
280
     0
281
     0
  0
CLASS
  1
"AcAmgLayStd"
  2
AcAmgLayStd
  3
"AcAmgLayStd|Product Description: AutoCAD Mechanical 2000|Company: Autodesk"
 90
        0
280
     0
281
     0
  0
CLASS
  1
"AcAmgDimStd"
  2
AcAmgDimStd
  3
"AcAmgDimStd|Product Description: AutoCAD Mechanical 2000|Company: Autodesk"
 90
        0
280
     0
281
     0
  0
CLASS
  1
AcAmgTitleStd
  2
AcAmgTitleStd
  3
"TITLEAPP"
 90
        0
280
     0
281
     0
  0
CLASS
  1
ACAMGFILTERDAT
  2
AcAmgFilterDat
  3
"AcadM|Product Description: AutoCAD Mechanical 2000|Company: Autodesk"
 90
        0
280
     0
281
     0
  0
CLASS
  1
LAYER_INDEX
  2
AcDbLayerIndex
  3
AutoCAD 2000
 90
        0
280
     0
281
     0
  0
CLASS
  1
IDBUFFER
  2
AcDbIdBuffer
  3
AutoCAD 2000
 90
        0
280
     0
281
     0
  0
CLASS
  1
AMDTFORMULAUPDATEDISPATCHER
  2
AmdtFormulaUpdateDispatcher
  3
AcMeServices
 90
    32768
280
     0
281
     0
  0
CLASS
  1
AMDTNOTE
  2
AmdtNote
  3
"AcmSymBB|Product Description: AutoCAD Mechanical 2000|Company: Autodesk"
 90
    33791
280
     0
281
     1
  0
CLASS
  1
ACDBLINERES
  2
AcDbLineRes
  3
AcGrefServices
 90
        0
280
     0
281
     0
  0
CLASS
  1
AM_DRAWING_MGR
  2
AcDmDwgMgr
  3
AcMechDwgViewMgmt
 90
        0
280
     0
281
     0
  0
CLASS
  1
AM_DWG_DOCUMENT
  2
AcDmDwgDocument
  3
AcMechDwgViewMgmt
 90
        0
280
     0
281
     0
  0
CLASS
  1
AM_DWG_SHEET
  2
AcDmSheet
  3
AcMechDwgViewMgmt
 90
        0
280
     0
281
     0
  0
CLASS
  1
AM_VIEWDIMPARMAP
  2
AcDmViewDimParMap
  3
AcMechDwgViewMgmt
 90
        0
280
     0
281
     0
  0
CLASS
  1
AM_DWGMGR_NAME
  2
AcDmDwgMgrName
  3
AcMechDwgViewMgmt
 90
        0
280
     0
281
     0
  0
CLASS
  1
AMDTMENUSTATEMGR
  2
AmdtMenuStateMgr
  3
McadcomServices
 90
    32768
280
     0
281
     0
  0
CLASS
  1
AMDTMCOMMENUSTATE
  2
AmdtMcomMenuState
  3
McadcomServices
 90
    32768
280
     0
281
     0
  0
CLASS
  1
ASAPP
  2
AcAsAppObject
  3
AutoSurfServices
 90
        0
280
     0
281
     0
  0
CLASS
  1
IM_STATIC_MAN
  2
AcImStaticVarManager
  3
AcMeServices
 90
        0
280
     0
281
     0
  0
CLASS
  1
ACIMDBLSTATICVAR
  2
AcImDblStaticVar
  3
AcMeServices
 90
        0
280
     0
281
     0
  0
CLASS
  1
ACIMSTRSTATICVAR
  2
AcImStrStaticVar
  3
AcMeServices
 90
        0
280
     0
281
     0
  0
CLASS
  1
ACIMINTSTATICVAR
  2
AcImIntStaticVar
  3
AcMeServices
 90
        0
280
     0
281
     0
  0
CLASS
  1
ACASGREFMASTER
  2
AcAsGrefMaster
  3
AutoSurfResolverServices
 90
        0
280
     0
281
     0
  0
CLASS
  1
ACADGREFMODULE
  2
AcAdGrefModule
  3
AdGrefServices
 90
        0
280
     0
281
     0
  0
CLASS
  1
AMDTMAPISURFMOUDULE
  2
AmdtMApiSurfModule
  3
MApiSurfServices
 90
        0
280
     0
281
     0
  0
CLASS
  1
MAPIAMMOUDLE
  2
MApiAmModule
  3
MApiAmServices
 90
        0
280
     0
281
     0
  0
CLASS
  1
AMDTADMENUSTATE
  2
AmdtAdMenuState
  3
DesignerServices
 90
    32768
280
     0
281
     0
  0
CLASS
  1
ADAPPL
  2
AcAdAppl
  3
DesignerServices
 90
        0
280
     0
281
     0
  0
CLASS
  1
DEPMGR
  2
AcAdDepMgr
  3
DesignerServices
 90
        0
280
     0
281
     0
  0
CLASS
  1
PARAMMGR
  2
AcAdParamMgr
  3
DesignerServices
 90
        0
280
     0
281
     0
  0
CLASS
  1
PARAMSCOPE
  2
AcAdParamScope
  3
DesignerServices
 90
        0
280
     0
281
     0
  0
CLASS
  1
NAMEDAPPL
  2
AcAdNamedAppl
  3
DesignerServices
 90
        0
280
     0
281
     0
  0
CLASS
  1
ADHNTMPLT
  2
AdHoleNoteTemplateMgr
  3
DesignerServices
 90
        0
280
     0
281
     0
  0
CLASS
  1
AM_HNTEMPLATE_MGR_NAME
  2
AdHoleNoteTemplateMgrName
  3
DesignerServices
 90
        0
280
     0
281
     0
  0
CLASS
  1
AMDTDMMENUSTATE
  2
AmdtDmMenuState
  3
AcMechDwgViewMgmt
 90
    32768
280
     0
281
     0
  0
CLASS
  1
MAPIADMODULE
  2
MApiAdModule
  3
MApiAdServices
 90
        0
280
     0
281
     0
  0
CLASS
  1
AMDTAMMENUSTATE
  2
AmdtAmMenuState
  3
DesignerAssemblies
 90
    32768
280
     0
281
     0
  0
CLASS
  1
ACAMPROJECT
  2
AcAmProject
  3
DesignerAssemblies
 90
        0
280
     0
281
     0
  0
CLASS
  1
ACAMGRCOMPDEF
  2
AcAmGrCompDef
  3
DesignerAssemblies
 90
        0
280
     0
281
     0
  0
CLASS
  1
ACCMCONTEXT
  2
AcCmContext
  3
DesignerAssemblies
 90
        0
280
     0
281
     0
  0
CLASS
  1
ACAMCOMPDEF
  2
AcAmCompDef
  3
DesignerAssemblies
 90
        0
280
     0
281
     0
  0
CLASS
  1
ACAMCOMPDEFMGR
  2
AcAmCompDefMgr
  3
DesignerAssemblies
 90
        0
280
     0
281
     0
  0
CLASS
  1
AMCONTEXTMGR
  2
AcAmContextMgr
  3
DesignerAssemblies
 90
        0
280
     0
281
     0
  0
CLASS
  1
ACAMCONTEXTMODELER
  2
AcAmContextModeler
  3
DesignerAssemblies
 90
        0
280
     0
281
     0
  0
CLASS
  1
CATALOGSTATE
  2
AcAmCatalogState
  3
DesignerAssemblies
 90
        0
280
     0
281
     0
  0
CLASS
  1
ACAMGRCOMPDEFSET
  2
AcAmGrCompDefSet
  3
DesignerAssemblies
 90
    32768
280
     0
281
     0
  0
CLASS
  1
AMDTBROWSERDBTAB
  2
AmdtBrowserDbTab
  3
McadcomServices
 90
    32768
280
     0
281
     0
  0
CLASS
  1
CBROWSERAPPOBJECT
  2
CBrowserAppObject
  3
McadcomServices
 90
    32768
280
     0
281
     0
  0
CLASS
  1
DM_PLACEHOLDER
  2
AcDmSelsetPlaceholder
  3
AcMechDwgViewMgmt
 90
    32768
280
     0
281
     0
  0
ENDSEC
  0
SECTION
  2
TABLES
  0
TABLE
  2
VPORT
  5
8
330
0
100
AcDbSymbolTable
 70
     2
  0
VPORT
  5
3887
330
8
100
AcDbSymbolTableRecord
100
AcDbViewportTableRecord
  2
*Active
 70
     0
 10
0.0
 20
0.0
 11
1.0
 21
1.0
 12
104.7831679400055
 22
-55.70743300927154
 13
0.0
 23
0.0
 14
5.0
 24
5.0
 15
20.0
 25
20.0
 16
0.0
 26
0.0
 36
1.0
 17
34.33836441321044
 27
114.5970017702228
 37
0.0
 40
819.1987021843797
 41
1.487989886219974
 42
50.0
 43
0.0
 44
0.0
 50
0.0
 51
0.0
 71
     0
 72
   100
 73
     1
 74
     1
 75
     0
 76
     0
 77
     0
 78
     0
281
     0
 65
     0
110
0.0
120
0.0
130
0.0
111
1.0
121
0.0
131
0.0
112
0.0
122
1.0
132
0.0
 79
     0
146
0.0
  0
ENDTAB
  0
TABLE
  2
LTYPE
  5
5
330
0
100
AcDbSymbolTable
 70
    23
  0
LTYPE
  5
12
330
5
100
AcDbSymbolTableRecord
100
AcDbLinetypeTableRecord
  2
BYBLOCK
 70
     0
  3

 72
    65
 73
     0
 40
0.0
  0
LTYPE
  5
13
330
5
100
AcDbSymbolTableRecord
100
AcDbLinetypeTableRecord
  2
BYLAYER
 70
     0
  3

 72
    65
 73
     0
 40
0.0
  0
LTYPE
  5
14
330
5
100
AcDbSymbolTableRecord
100
AcDbLinetypeTableRecord
  2
CONTINUOUS
 70
     0
  3
実線
 72
    65
 73
     0
 40
0.0
  0
LTYPE
  5
20
330
5
100
AcDbSymbolTableRecord
100
AcDbLinetypeTableRecord
  2
HIDDEN
 70
     0
  3
_ _ _ _ _ _ _ _ _ _ _ _ _ _ _ _ _ _ _ _ _ _ _
 72
    65
 73
     2
 40
0.375
 49
0.25
 74
     0
 49
-0.125
 74
     0
  0
LTYPE
  5
22
330
5
100
AcDbSymbolTableRecord
100
AcDbLinetypeTableRecord
  2
CENTER
 70
     0
  3
____ _ ____ _ ____ _ ____ _ ____ _ ____ _ ____
 72
    65
 73
     4
 40
2.0
 49
1.25
 74
     0
 49
-0.25
 74
     0
 49
0.25
 74
     0
 49
-0.25
 74
     0
  0
LTYPE
  5
120B
330
5
100
AcDbSymbolTableRecord
100
AcDbLinetypeTableRecord
  2
GEN7
 70
     0
  3
____ . ____ . ____ . ____ . ____ . ____ . ____
 72
    65
 73
     4
 40
13.75
 49
9.75
 74
     0
 49
-1.5
 74
     0
 49
1.0
 74
     0
 49
-1.5
 74
     0
  0
LTYPE
  5
1672
330
5
100
AcDbSymbolTableRecord
100
AcDbLinetypeTableRecord
  2
GEN7A
 70
     0
  3
__ . __ . __
 72
    65
 73
     4
 40
6.875
 49
4.75
 74
     0
 49
-0.875
 74
     0
 49
0.375
 74
     0
 49
-0.875
 74
     0
  0
LTYPE
  5
2759
330
5
100
AcDbSymbolTableRecord
100
AcDbLinetypeTableRecord
  2
AM_ISO02W050
 70
     0
  3
__ __ __ __ __ __ __ __ __ __ __ __ __ __ __
 72
    65
 73
     2
 40
7.5
 49
6.0
 74
     0
 49
-1.5
 74
     0
  0
LTYPE
  5
276E
330
5
100
AcDbSymbolTableRecord
100
AcDbLinetypeTableRecord
  2
ACISOWELD
 70
     0
  3
_ _ _ _ _
 72
    65
 73
     2
 40
2.0
 49
2.0
 74
     0
 49
-1.0
 74
     0
  0
LTYPE
  5
276F
330
5
100
AcDbSymbolTableRecord
100
AcDbLinetypeTableRecord
  2
ACISOTGB
 70
     0
  3
__ . . __ . .
 72
    65
 73
     6
 40
9.0
 49
4.0
 74
     0
 49
-1.0
 74
     0
 49
1.0
 74
     0
 49
-1.0
 74
     0
 49
1.0
 74
     0
 49
-1.0
 74
     0
  0
LTYPE
  5
2770
330
5
100
AcDbSymbolTableRecord
100
AcDbLinetypeTableRecord
  2
ACISOTGL
 70
     0
  3
_ _ _ _ _
 72
    65
 73
     2
 40
3.0
 49
2.0
 74
     0
 49
-1.0
 74
     0
  0
LTYPE
  5
2784
330
5
100
AcDbSymbolTableRecord
100
AcDbLinetypeTableRecord
  2
gen3
 70
     0
  3
-- -- -- -- -- -- -- -- -- -- -- -- -- -- --
 72
    65
 73
     2
 40
6.25
 49
4.75
 74
     0
 49
-1.5
 74
     0
  0
LTYPE
  5
2785
330
5
100
AcDbSymbolTableRecord
100
AcDbLinetypeTableRecord
  2
gen3a
 70
     0
  3
 - - - - -
 72
    65
 73
     2
 40
3.125
 49
2.25
 74
     0
 49
-0.875
 74
     0
  0
LTYPE
  5
2786
330
5
100
AcDbSymbolTableRecord
100
AcDbLinetypeTableRecord
  2
gen4a
 70
     0
  3
_____ . . _____ . . _____ . . ____ .. ____
 72
    65
 73
     6
 40
16.25
 49
9.75
 74
     0
 49
-1.5
 74
     0
 49
1.0
 74
     0
 49
-1.5
 74
     0
 49
1.0
 74
     0
 49
-1.5
 74
     0
  0
LTYPE
  5
2789
330
5
100
AcDbSymbolTableRecord
100
AcDbLinetypeTableRecord
  2
genzigzag
 70
     0
  3
/\/-/\/-/\/-/\/-/\/-/\/
 72
    65
 73
     2
 40
12.0001
 49
0.0001
 74
     4
 75
   135
340
2788
 46
2.0
 50
0.0
 44
0.0
 45
0.0
 49
-12.0
 74
     0
  0
LTYPE
  5
2FAF
330
5
100
AcDbSymbolTableRecord
100
AcDbLinetypeTableRecord
  2
PHANTOM2
 70
     0
  3
Phantom (.5x) ___ _ _ ___ _ _ ___ _ _ ___ _ _
 72
    65
 73
     6
 40
31.75
 49
15.875
 74
     0
 49
-3.174999999999998
 74
     0
 49
3.174999999999998
 74
     0
 49
-3.174999999999998
 74
     0
 49
3.174999999999998
 74
     0
 49
-3.174999999999998
 74
     0
  0
LTYPE
  5
3245
330
5
100
AcDbSymbolTableRecord
100
AcDbLinetypeTableRecord
  2
ASULTYPE
 70
     0
  3
実線
 72
    65
 73
     2
 40
3.0
 49
2.5
 74
     0
 49
0.5
 74
     0
  0
LTYPE
  5
3246
330
5
100
AcDbSymbolTableRecord
100
AcDbLinetypeTableRecord
  2
ASVLTYPE
 70
     0
  3
__ __ __ __ __ __ __ __ __ __ __ __ __ __ __ __ __ __ __ __ __
 72
    65
 73
     2
 40
0.75
 49
0.5
 74
     0
 49
-0.25
 74
     0
  0
LTYPE
  5
3399
330
5
100
AcDbSymbolTableRecord
100
AcDbLinetypeTableRecord
  2
DASHED2
 70
     0
  3
CADPAC LINETYPE
 72
    65
 73
     2
 40
3.517105263157845
 49
2.344736842105249
 74
     0
 49
-1.172368421052594
 74
     0
  0
LTYPE
  5
339A
330
5
100
AcDbSymbolTableRecord
100
AcDbLinetypeTableRecord
  2
AM_ISO08W050
 70
     0
  3
____ . ____ . ____ . ____ . ____ . ____ . ____
 72
    65
 73
     4
 40
18.0
 49
12.0
 74
     0
 49
-1.5
 74
     0
 49
3.0
 74
     0
 49
-1.5
 74
     0
  0
LTYPE
  5
339B
330
5
100
AcDbSymbolTableRecord
100
AcDbLinetypeTableRecord
  2
AM_ISO09W050
 70
     0
  3
_____ . . _____ . . _____ . . ____ .. ____
 72
    65
 73
     6
 40
22.5
 49
12.0
 74
     0
 49
-1.5
 74
     0
 49
3.0
 74
     0
 49
-1.5
 74
     0
 49
3.0
 74
     0
 49
-1.5
 74
     0
  0
LTYPE
  5
339C
330
5
100
AcDbSymbolTableRecord
100
AcDbLinetypeTableRecord
  2
Amconstr
 70
     0
  3
_______________________
 72
    65
 73
     2
 40
9999.0
 49
9999.0
 74
     0
 49
0.0
 74
     0
  0
LTYPE
  5
339D
330
5
100
AcDbSymbolTableRecord
100
AcDbLinetypeTableRecord
  2
AM_ISO08W050x2
 70
     0
  3
__ . __ . __ . __ . __ . __
 72
    65
 73
     4
 40
9.0
 49
6.0
 74
     0
 49
-0.75
 74
     0
 49
1.5
 74
     0
 49
-0.75
 74
     0
  0
LTYPE
  5
339E
330
5
100
AcDbSymbolTableRecord
100
AcDbLinetypeTableRecord
  2
AM_ISO02W050x2
 70
     0
  3
 _ _ _ _ _ _ _ _ _ _ _ _
 72
    65
 73
     2
 40
3.75
 49
3.0
 74
     0
 49
-0.75
 74
     0
  0
LTYPE
  5
339F
330
5
100
AcDbSymbolTableRecord
100
AcDbLinetypeTableRecord
  2
Amzigzag
 70
     0
  3
/\/-/\/-/\/-/\/-/\/-/\/
 72
    65
 73
     2
 40
11.00009999999999
 49
0.0001
 74
     4
 75
   135
340
33A3
 46
0.04
 50
0.0
 44
0.0
 45
0.0
 49
-11.0
 74
     0
  0
ENDTAB
  0
TABLE
  2
LAYER
  5
2
330
0
100
AcDbSymbolTable
 70
     9
  0
LAYER
  5
E
330
2
100
AcDbSymbolTableRecord
100
AcDbLayerTableRecord
  2
0
 70
     0
 62
     7
  6
CONTINUOUS
370
    -3
390
272A
  0
LAYER
  5
525
330
2
100
AcDbSymbolTableRecord
100
AcDbLayerTableRecord
  2
最小図面
 70
     0
 62
     7
  6
CONTINUOUS
370
    -3
390
272A
  0
LAYER
  5
529
330
2
100
AcDbSymbolTableRecord
100
AcDbLayerTableRecord
  2
文字
 70
     0
 62
    70
  6
CONTINUOUS
370
    -3
390
272A
  0
LAYER
  5
52A
330
2
100
AcDbSymbolTableRecord
100
AcDbLayerTableRecord
  2
補助線
 70
     0
 62
  -111
  6
CONTINUOUS
370
    -3
390
272A
  0
LAYER
  5
52B
330
2
100
AcDbSymbolTableRecord
100
AcDbLayerTableRecord
  2
枠
 70
     0
 62
     5
  6
CONTINUOUS
370
    -3
390
272A
  0
LAYER
  5
537
330
2
100
AcDbSymbolTableRecord
100
AcDbLayerTableRecord
  2
DEFPOINTS
 70
     0
 62
     7
  6
CONTINUOUS
290
     0
370
    -3
390
272A
  0
LAYER
  5
A3D
330
2
100
AcDbSymbolTableRecord
100
AcDbLayerTableRecord
  2
5
 70
     0
 62
     3
  6
CONTINUOUS
370
    13
390
272A
  0
LAYER
  5
33A0
330
2
100
AcDbSymbolTableRecord
100
AcDbLayerTableRecord
  2
LAYER0014
 70
     0
 62
     7
  6
CONTINUOUS
370
    -3
390
272A
  0
LAYER
  5
33A1
330
2
100
AcDbSymbolTableRecord
100
AcDbLayerTableRecord
  2
LAYER0016
 70
     0
 62
     7
  6
CONTINUOUS
370
    -3
390
272A
  0
ENDTAB
  0
TABLE
  2
STYLE
  5
3
330
0
100
AcDbSymbolTable
 70
     6
  0
STYLE
  5
F
330
3
100
AcDbSymbolTableRecord
100
AcDbTextStyleTableRecord
  2
STANDARD
 70
     0
 40
0.0
 41
1.0
 50
0.0
 71
     0
 42
3.5
  3
ISOCP.SHX
  4
extfont.shx
  0
STYLE
  5
2762
330
3
100
AcDbSymbolTableRecord
100
AcDbTextStyleTableRecord
  2
ACISOTS
 70
     0
 40
1.0
 41
1.0
 50
0.0
 71
     0
 42
3.5
  3
isocp.shx
  4
extfont.shx
  0
STYLE
  5
276D
330
3
100
AcDbSymbolTableRecord
100
AcDbTextStyleTableRecord
  2
ACISOGDT
 70
     0
 40
0.0
 41
1.0
 50
0.0
 71
     0
 42
3.5
  3
amgdt.shx
  4

  0
STYLE
  5
2788
330
3
100
AcDbSymbolTableRecord
100
AcDbTextStyleTableRecord
  2

 70
     1
 40
0.0
 41
1.0
 50
0.0
 71
     0
 42
3.5
  3
genltshp.shx
  4

  0
STYLE
  5
33A2
330
3
100
AcDbSymbolTableRecord
100
AcDbTextStyleTableRecord
  2
FDASTYLE0
 70
     0
 40
3.0
 41
0.6666666666666604
 50
0.0
 71
     0
 42
0.2
  3
txt.shx
  4
bigfont
  0
STYLE
  5
33A3
330
3
100
AcDbSymbolTableRecord
100
AcDbTextStyleTableRecord
  2

 70
     1
 40
0.0
 41
1.0
 50
0.0
 71
     0
 42
0.2
  3
ltypeshp.shx
  4

  0
ENDTAB
  0
TABLE
  2
VIEW
  5
6
330
0
100
AcDbSymbolTable
 70
     0
  0
ENDTAB
  0
TABLE
  2
UCS
  5
7
330
0
100
AcDbSymbolTable
 70
     0
  0
ENDTAB
  0
TABLE
  2
APPID
  5
9
330
0
100
AcDbSymbolTable
 70
    37
  0
APPID
  5
10
330
9
100
AcDbSymbolTableRecord
100
AcDbRegAppTableRecord
  2
ACAD
 70
     0
  0
APPID
  5
11E4
330
9
100
AcDbSymbolTableRecord
100
AcDbRegAppTableRecord
  2
GENIUS_GENOENT_13
 70
     0
  0
APPID
  5
123A
330
9
100
AcDbSymbolTableRecord
100
AcDbRegAppTableRecord
  2
GEV_VCCNULL_SWITCH_OFF
 70
     0
  0
APPID
  5
1246
330
9
100
AcDbSymbolTableRecord
100
AcDbRegAppTableRecord
  2
GENIUS_GENDTOL_13
 70
     0
  0
APPID
  5
1341
330
9
100
AcDbSymbolTableRecord
100
AcDbRegAppTableRecord
  2
GENIUS_GENHINW_13
 70
     0
  0
APPID
  5
1342
330
9
100
AcDbSymbolTableRecord
100
AcDbRegAppTableRecord
  2
GENIUS_FIRSTVISTXT_14
 70
     0
  0
APPID
  5
1344
330
9
100
AcDbSymbolTableRecord
100
AcDbRegAppTableRecord
  2
GENIUS_GENODEF_13
 70
     0
  0
APPID
  5
1345
330
9
100
AcDbSymbolTableRecord
100
AcDbRegAppTableRecord
  2
GENIUS_GENOBJ-N-LEADER_13
 70
     0
  0
APPID
  5
1346
330
9
100
AcDbSymbolTableRecord
100
AcDbRegAppTableRecord
  2
GENIUS_GENOREF_13
 70
     0
  0
APPID
  5
1347
330
9
100
AcDbSymbolTableRecord
100
AcDbRegAppTableRecord
  2
GENIUS_GENOLIS_13
 70
     0
  0
APPID
  5
1504
330
9
100
AcDbSymbolTableRecord
100
AcDbRegAppTableRecord
  2
GENIUS_GENDREL_13
 70
     0
  0
APPID
  5
1599
330
9
100
AcDbSymbolTableRecord
100
AcDbRegAppTableRecord
  2
GENIUS_SECONDVISTXT_14
 70
     0
  0
APPID
  5
15BB
330
9
100
AcDbSymbolTableRecord
100
AcDbRegAppTableRecord
  2
GENIUS_GENTRA_14
 70
     0
  0
APPID
  5
15DD
330
9
100
AcDbSymbolTableRecord
100
AcDbRegAppTableRecord
  2
GENIUS_GENOBJ-N-HINW_13
 70
     0
  0
APPID
  5
164A
330
9
100
AcDbSymbolTableRecord
100
AcDbRegAppTableRecord
  2
GENIUS_GENCFG_13
 70
     0
1001
GENIUS_GENCFG0_13
1000
GEN@INFO_POS@XLATE
1001
GENIUS_GENCFG1_13
1000
GEN@INFO_POS
1001
GENIUS_GENCFG2_13
1000
GEN@LAYER@DEFS
1001
GENIUS_GENCFG3_13
1000
GEN@LAYER@ENTSORT
1001
GENIUS_GENCFG4_13
1000
GEN
1001
GENIUS_GEVCFG0_13
1000
GEV
1001
GENIUS_GEFCFG0_13
1000
GEF
  0
APPID
  5
164B
330
9
100
AcDbSymbolTableRecord
100
AcDbRegAppTableRecord
  2
GENIUS_GENCFG0_13
 70
     0
1001
GENIUS_GENCFG_13
1071
938725396
1000
164B
1000
GEN@INFO_POS@XLATE
1070
     7
1000
GenCfgObject
1000
GenCfgShort
1000
GenCfgReal
1000
GenCfgBool
1000
GenCfgString
1000
GenCfgDim
1000
GenCfgAttrInf
1000
ACADM_BOM
1070
     0
1002
{
1000
ACADM_BOM1
1070
     0
1002
{
1000
ITEM
1070
     4
1000
1
1002
{
1002
}
1000
QTY
1070
     4
1000
2
1002
{
1002
}
1000
PALINAME
1070
     4
1000
3
1002
{
1002
}
1000
DESCR
1070
     4
1000
5
1002
{
1002
}
1000
STANDARD
1070
     4
1000
7
1002
{
1002
}
1000
MATERIAL
1070
     4
1000
9
1002
{
1002
}
1000
MASS
1070
     4
1000
12
1002
{
1002
}
1000
NOTE
1070
     4
1000
24
1002
{
1002
}
1000
VENDOR
1070
     4
1000
25
1002
{
1002
}
1000
NAME
1070
     4
1000
28
1002
{
1002
}
1002
}
1002
}
1000
INFOPOINTS
1070
     0
1002
{
1000
GENINF14
1070
     0
1002
{
1000
2GENINF
1070
     4
1000
2
1002
{
1002
}
1000
3GENINF
1070
     4
1000
3
1002
{
1002
}
1000
4GENINF
1070
     4
1000
4
1002
{
1002
}
1000
5GENINF
1070
     4
1000
5
1002
{
1002
}
1000
6GENINF
1070
     4
1000
6
1002
{
1002
}
1000
7GENINF
1070
     4
1000
7
1002
{
1002
}
1000
8GENINF
1070
     4
1000
8
1002
{
1002
}
1000
9GENINF
1070
     4
1000
9
1002
{
1002
}
1000
10GENINF
1070
     4
1000
10
1002
{
1002
}
1000
11GENINF
1070
     4
1000
11
1002
{
1002
}
1000
12GENINF
1070
     4
1000
12
1002
{
1002
}
1000
13GENINF
1070
     4
1000
13
1002
{
1002
}
1000
14GENINF
1070
     4
1000
14
1002
{
1002
}
1000
15GENINF
1070
     4
1000
15
1002
{
1002
}
1000
16GENINF
1070
     4
1000
16
1002
{
1002
}
1000
17GENINF
1070
     4
1000
17
1002
{
1002
}
1000
18GENINF
1070
     4
1000
18
1002
{
1002
}
1000
19GENINF
1070
     4
1000
19
1002
{
1002
}
1000
20GENINF
1070
     4
1000
20
1002
{
1002
}
1000
21GENINF
1070
     4
1000
21
1002
{
1002
}
1000
22GENINF
1070
     4
1000
22
1002
{
1002
}
1000
23GENINF
1070
     4
1000
23
1002
{
1002
}
1000
24GENINF
1070
     4
1000
24
1002
{
1002
}
1000
25GENINF
1070
     4
1000
25
1002
{
1002
}
1000
26GENINF
1070
     4
1000
26
1002
{
1002
}
1000
27GENINF
1070
     4
1000
27
1002
{
1002
}
1000
0GENINF
1070
     4
1000
0
1002
{
1002
}
1002
}
1000
GENINF13
1070
     0
1002
{
1000
2GENINF
1070
     4
1000
2
1002
{
1002
}
1000
3GENINF
1070
     4
1000
3
1002
{
1002
}
1000
4GENINF
1070
     4
1000
4
1002
{
1002
}
1000
5GENINF
1070
     4
1000
5
1002
{
1002
}
1000
6GENINF
1070
     4
1000
6
1002
{
1002
}
1000
7GENINF
1070
     4
1000
7
1002
{
1002
}
1000
8GENINF
1070
     4
1000
8
1002
{
1002
}
1000
9GENINF
1070
     4
1000
9
1002
{
1002
}
1000
10GENINF
1070
     4
1000
10
1002
{
1002
}
1000
11GENINF
1070
     4
1000
11
1002
{
1002
}
1000
12GENINF
1070
     4
1000
12
1002
{
1002
}
1000
13GENINF
1070
     4
1000
13
1002
{
1002
}
1000
14GENINF
1070
     4
1000
14
1002
{
1002
}
1000
15GENINF
1070
     4
1000
15
1002
{
1002
}
1000
16GENINF
1070
     4
1000
16
1002
{
1002
}
1000
17GENINF
1070
     4
1000
17
1002
{
1002
}
1000
18GENINF
1070
     4
1000
18
1002
{
1002
}
1000
19GENINF
1070
     4
1000
19
1002
{
1002
}
1000
20GENINF
1070
     4
1000
20
1002
{
1002
}
1000
21GENINF
1070
     4
1000
21
1002
{
1002
}
1000
22GENINF
1070
     4
1000
22
1002
{
1002
}
1000
23GENINF
1070
     4
1000
23
1002
{
1002
}
1000
24GENINF
1070
     4
1000
24
1002
{
1002
}
1000
0GENINF
1070
     4
1000
0
1002
{
1002
}
1002
}
1000
GENINFO
1070
     0
1002
{
1000
3GENINF
1070
     4
1000
3
1002
{
1002
}
1000
4GENINF
1070
     4
1000
4
1002
{
1002
}
1000
5GENINF
1070
     4
1000
5
1002
{
1002
}
1000
6GENINF
1070
     4
1000
6
1002
{
1002
}
1000
7GENINF
1070
     4
1000
7
1002
{
1002
}
1000
8GENINF
1070
     4
1000
8
1002
{
1002
}
1000
9GENINF
1070
     4
1000
9
1002
{
1002
}
1000
10GENINF
1070
     4
1000
10
1002
{
1002
}
1000
11GENINF
1070
     4
1000
11
1002
{
1002
}
1000
12GENINF
1070
     4
1000
12
1002
{
1002
}
1000
13GENINF
1070
     4
1000
13
1002
{
1002
}
1000
14GENINF
1070
     4
1000
14
1002
{
1002
}
1000
15GENINF
1070
     4
1000
15
1002
{
1002
}
1000
16GENINF
1070
     4
1000
16
1002
{
1002
}
1000
17GENINF
1070
     4
1000
17
1002
{
1002
}
1000
18GENINF
1070
     4
1000
18
1002
{
1002
}
1000
19GENINF
1070
     4
1000
19
1002
{
1002
}
1000
20GENINF
1070
     4
1000
20
1002
{
1002
}
1000
21GENINF
1070
     4
1000
21
1002
{
1002
}
1000
22GENINF
1070
     4
1000
22
1002
{
1002
}
1002
}
1000
DININFO
1070
     0
1002
{
1000
ST-NAME1
1070
     4
1000
5
1002
{
1002
}
1000
ST-NAME2
1070
     4
1000
6
1002
{
1002
}
1000
ST-NORM1
1070
     4
1000
7
1002
{
1002
}
1000
ST-NORM2
1070
     4
1000
8
1002
{
1002
}
1000
ST-MAT1
1070
     4
1000
9
1002
{
1002
}
1000
ST-MAT2
1070
     4
1000
10
1002
{
1002
}
1002
}
1002
}
1000
POS_NUMBERS
1070
     0
1002
{
1000
GENPOS14
1070
     0
1002
{
1000
1GENPOS
1070
     4
1000
1
1002
{
1002
}
1000
2GENPOS
1070
     4
1000
2
1002
{
1002
}
1000
3GENPOS
1070
     4
1000
3
1002
{
1002
}
1000
4GENPOS
1070
     4
1000
4
1002
{
1002
}
1000
5GENPOS
1070
     4
1000
5
1002
{
1002
}
1000
6GENPOS
1070
     4
1000
6
1002
{
1002
}
1000
7GENPOS
1070
     4
1000
7
1002
{
1002
}
1000
8GENPOS
1070
     4
1000
8
1002
{
1002
}
1000
9GENPOS
1070
     4
1000
9
1002
{
1002
}
1000
10GENPOS
1070
     4
1000
10
1002
{
1002
}
1000
11GENPOS
1070
     4
1000
11
1002
{
1002
}
1000
12GENPOS
1070
     4
1000
12
1002
{
1002
}
1000
13GENPOS
1070
     4
1000
13
1002
{
1002
}
1000
14GENPOS
1070
     4
1000
14
1002
{
1002
}
1000
15GENPOS
1070
     4
1000
15
1002
{
1002
}
1000
16GENPOS
1070
     4
1000
16
1002
{
1002
}
1000
17GENPOS
1070
     4
1000
17
1002
{
1002
}
1000
18GENPOS
1070
     4
1000
18
1002
{
1002
}
1000
19GENPOS
1070
     4
1000
19
1002
{
1002
}
1000
20GENPOS
1070
     4
1000
20
1002
{
1002
}
1000
21GENPOS
1070
     4
1000
21
1002
{
1002
}
1000
22GENPOS
1070
     4
1000
22
1002
{
1002
}
1000
23GENPOS
1070
     4
1000
23
1002
{
1002
}
1000
24GENPOS
1070
     4
1000
24
1002
{
1002
}
1000
25GENPOS
1070
     4
1000
25
1002
{
1002
}
1000
26GENPOS
1070
     4
1000
26
1002
{
1002
}
1000
27GENPOS
1070
     4
1000
27
1002
{
1002
}
1000
0GENPOS
1070
     4
1000
0
1002
{
1002
}
1002
}
1000
GENPOS13
1070
     0
1002
{
1000
1GENPOS
1070
     4
1000
1
1002
{
1002
}
1000
2GENPOS
1070
     4
1000
2
1002
{
1002
}
1000
3GENPOS
1070
     4
1000
3
1002
{
1002
}
1000
4GENPOS
1070
     4
1000
4
1002
{
1002
}
1000
5GENPOS
1070
     4
1000
5
1002
{
1002
}
1000
6GENPOS
1070
     4
1000
6
1002
{
1002
}
1000
7GENPOS
1070
     4
1000
7
1002
{
1002
}
1000
8GENPOS
1070
     4
1000
8
1002
{
1002
}
1000
9GENPOS
1070
     4
1000
9
1002
{
1002
}
1000
10GENPOS
1070
     4
1000
10
1002
{
1002
}
1000
11GENPOS
1070
     4
1000
11
1002
{
1002
}
1000
12GENPOS
1070
     4
1000
12
1002
{
1002
}
1000
13GENPOS
1070
     4
1000
13
1002
{
1002
}
1000
14GENPOS
1070
     4
1000
14
1002
{
1002
}
1000
15GENPOS
1070
     4
1000
15
1002
{
1002
}
1000
16GENPOS
1070
     4
1000
16
1002
{
1002
}
1000
17GENPOS
1070
     4
1000
17
1002
{
1002
}
1000
18GENPOS
1070
     4
1000
18
1002
{
1002
}
1000
19GENPOS
1070
     4
1000
19
1002
{
1002
}
1000
20GENPOS
1070
     4
1000
20
1002
{
1002
}
1000
21GENPOS
1070
     4
1000
21
1002
{
1002
}
1000
22GENPOS
1070
     4
1000
22
1002
{
1002
}
1000
23GENPOS
1070
     4
1000
23
1002
{
1002
}
1000
24GENPOS
1070
     4
1000
24
1002
{
1002
}
1000
0GENPOS
1070
     4
1000
0
1002
{
1002
}
1002
}
1000
GENPOS
1070
     0
1002
{
1000
1GENPOS
1070
     4
1000
1
1002
{
1002
}
1000
2GENPOS
1070
     4
1000
2
1002
{
1002
}
1000
3GENPOS
1070
     4
1000
3
1002
{
1002
}
1000
4GENPOS
1070
     4
1000
4
1002
{
1002
}
1000
5GENPOS
1070
     4
1000
5
1002
{
1002
}
1000
6GENPOS
1070
     4
1000
6
1002
{
1002
}
1000
7GENPOS
1070
     4
1000
7
1002
{
1002
}
1000
8GENPOS
1070
     4
1000
8
1002
{
1002
}
1000
9GENPOS
1070
     4
1000
9
1002
{
1002
}
1000
10GENPOS
1070
     4
1000
10
1002
{
1002
}
1000
11GENPOS
1070
     4
1000
11
1002
{
1002
}
1000
12GENPOS
1070
     4
1000
12
1002
{
1002
}
1000
13GENPOS
1070
     4
1000
13
1002
{
1002
}
1000
14GENPOS
1070
     4
1000
14
1002
{
1002
}
1000
15GENPOS
1070
     4
1000
15
1002
{
1002
}
1000
16GENPOS
1070
     4
1000
16
1002
{
1002
}
1000
17GENPOS
1070
     4
1000
17
1002
{
1002
}
1000
18GENPOS
1070
     4
1000
18
1002
{
1002
}
1000
19GENPOS
1070
     4
1000
19
1002
{
1002
}
1000
20GENPOS
1070
     4
1000
20
1002
{
1002
}
1000
21GENPOS
1070
     4
1000
21
1002
{
1002
}
1000
22GENPOS
1070
     4
1000
22
1002
{
1002
}
1000
23GENPOS
1070
     4
1000
23
1002
{
1002
}
1002
}
1000
DIN985
1070
     0
1002
{
1000
POSITION
1070
     4
1000
1
1002
{
1002
}
1000
MENGE
1070
     4
1000
2
1002
{
1002
}
1000
BLATT
1070
     4
1000
3
1002
{
1002
}
1000
BENENN
1070
     4
1000
5
1002
{
1002
}
1000
BENENN2
1070
     4
1000
6
1002
{
1002
}
1000
NORM
1070
     4
1000
7
1002
{
1002
}
1000
NORM2
1070
     4
1000
8
1002
{
1002
}
1000
WERKSTOFF
1070
     4
1000
9
1002
{
1002
}
1000
WERKSTOFF2
1070
     4
1000
10
1002
{
1002
}
1002
}
1000
DIN986
1070
     0
1002
{
1000
POSITION
1070
     4
1000
1
1002
{
1002
}
1000
MENGE
1070
     4
1000
2
1002
{
1002
}
1000
BLATT
1070
     4
1000
3
1002
{
1002
}
1000
BENENN
1070
     4
1000
5
1002
{
1002
}
1000
BENENN2
1070
     4
1000
6
1002
{
1002
}
1000
NORM
1070
     4
1000
7
1002
{
1002
}
1000
NORM2
1070
     4
1000
8
1002
{
1002
}
1000
WERKSTOFF
1070
     4
1000
9
1002
{
1002
}
1000
WERKSTOFF2
1070
     4
1000
10
1002
{
1002
}
1002
}
1000
DIN987
1070
     0
1002
{
1000
POSITION
1070
     4
1000
1
1002
{
1002
}
1000
MENGE
1070
     4
1000
2
1002
{
1002
}
1000
BLATT
1070
     4
1000
3
1002
{
1002
}
1000
BENENN
1070
     4
1000
5
1002
{
1002
}
1000
BENENN2
1070
     4
1000
6
1002
{
1002
}
1000
NORM
1070
     4
1000
7
1002
{
1002
}
1000
NORM2
1070
     4
1000
8
1002
{
1002
}
1000
WERKSTOFF
1070
     4
1000
9
1002
{
1002
}
1000
WERKSTOFF2
1070
     4
1000
10
1002
{
1002
}
1002
}
1002
}
  0
APPID
  5
164C
330
9
100
AcDbSymbolTableRecord
100
AcDbRegAppTableRecord
  2
GENIUS_GENCFG1_13
 70
     0
1001
GENIUS_GENCFG_13
1071
938725396
1000
164C
1000
GEN@INFO_POS
1070
     7
1000
GenCfgObject
1000
GenCfgShort
1000
GenCfgReal
1000
GenCfgBool
1000
GenCfgString
1000
GenCfgDim
1000
GenCfgAttrInf
1000
DescrText
1070
     4
1000
5, ,6, ,7, ,8
1002
{
1002
}
1000
DescrText2
1070
     4
1000
26
1002
{
1002
}
1000
VisibleAttr1
1070
     4
1000
1
1002
{
1002
}
1000
VisibleAttr2
1070
     4
1000
26
1002
{
1002
}
1000
UpdateBlock
1070
     3
1070
     1
1002
{
1002
}
1000
UsedAcadMBom
1070
     4
1000
ACADM_BOM1
1002
{
1002
}
1000
AutoUpdAcadMBom
1070
     3
1070
     1
1002
{
1002
}
1000
Attrib
1070
     0
1002
{
1000
0
1070
     6
1002
{
1000
Prompt
1070
     4
1000
(genmsg gendwg 103)
1002
{
1002
}
1000
Value
1070
     4
1000

1002
{
1002
}
1000
EditFlag
1070
     1
1070
     0
1002
{
1002
}
1000
PosInDDATTE
1070
     1
1070
    27
1002
{
1002
}
1000
FieldLen
1070
     1
1070
    -1
1002
{
1002
}
1002
}
1000
1
1070
     6
1002
{
1000
Prompt
1070
     4
1000
(genmsg gendwg 31)
1002
{
1002
}
1000
Value
1070
     4
1000
1
1002
{
1002
}
1000
EditFlag
1070
     1
1070
     1
1002
{
1002
}
1000
PosInDDATTE
1070
     1
1070
     1
1002
{
1002
}
1000
FieldLen
1070
     1
1070
    -1
1002
{
1002
}
1002
}
1000
2
1070
     6
1002
{
1000
Prompt
1070
     4
1000
(genmsg gendwg 32)
1002
{
1002
}
1000
Value
1070
     4
1000
1
1002
{
1002
}
1000
EditFlag
1070
     1
1070
     1
1002
{
1002
}
1000
PosInDDATTE
1070
     1
1070
     2
1002
{
1002
}
1000
FieldLen
1070
     1
1070
    -1
1002
{
1002
}
1002
}
1000
3
1070
     6
1002
{
1000
Prompt
1070
     4
1000
(genmsg gendwg 33)
1002
{
1002
}
1000
Value
1070
     4
1000

1002
{
1002
}
1000
EditFlag
1070
     1
1070
     1
1002
{
1002
}
1000
PosInDDATTE
1070
     1
1070
     3
1002
{
1002
}
1000
FieldLen
1070
     1
1070
    -1
1002
{
1002
}
1002
}
1000
4
1070
     6
1002
{
1000
Prompt
1070
     4
1000
(genmsg gendwg 34)
1002
{
1002
}
1000
Value
1070
     4
1000

1002
{
1002
}
1000
EditFlag
1070
     1
1070
     1
1002
{
1002
}
1000
PosInDDATTE
1070
     1
1070
     4
1002
{
1002
}
1000
FieldLen
1070
     1
1070
    -1
1002
{
1002
}
1002
}
1000
5
1070
     6
1002
{
1000
Prompt
1070
     4
1000
(genmsg gendwg 35)
1002
{
1002
}
1000
Value
1070
     4
1000

1002
{
1002
}
1000
EditFlag
1070
     1
1070
     1
1002
{
1002
}
1000
PosInDDATTE
1070
     1
1070
     5
1002
{
1002
}
1000
FieldLen
1070
     1
1070
    -1
1002
{
1002
}
1002
}
1000
6
1070
     6
1002
{
1000
Prompt
1070
     4
1000
(genmsg gendwg 36)
1002
{
1002
}
1000
Value
1070
     4
1000

1002
{
1002
}
1000
EditFlag
1070
     1
1070
     1
1002
{
1002
}
1000
PosInDDATTE
1070
     1
1070
     6
1002
{
1002
}
1000
FieldLen
1070
     1
1070
    -1
1002
{
1002
}
1002
}
1000
7
1070
     6
1002
{
1000
Prompt
1070
     4
1000
(genmsg gendwg 37)
1002
{
1002
}
1000
Value
1070
     4
1000

1002
{
1002
}
1000
EditFlag
1070
     1
1070
     1
1002
{
1002
}
1000
PosInDDATTE
1070
     1
1070
     7
1002
{
1002
}
1000
FieldLen
1070
     1
1070
    -1
1002
{
1002
}
1002
}
1000
8
1070
     6
1002
{
1000
Prompt
1070
     4
1000
(genmsg gendwg 38)
1002
{
1002
}
1000
Value
1070
     4
1000

1002
{
1002
}
1000
EditFlag
1070
     1
1070
     1
1002
{
1002
}
1000
PosInDDATTE
1070
     1
1070
     8
1002
{
1002
}
1000
FieldLen
1070
     1
1070
    -1
1002
{
1002
}
1002
}
1000
9
1070
     6
1002
{
1000
Prompt
1070
     4
1000
(genmsg gendwg 39)
1002
{
1002
}
1000
Value
1070
     4
1000

1002
{
1002
}
1000
EditFlag
1070
     1
1070
     1
1002
{
1002
}
1000
PosInDDATTE
1070
     1
1070
     9
1002
{
1002
}
1000
FieldLen
1070
     1
1070
    -1
1002
{
1002
}
1002
}
1000
10
1070
     6
1002
{
1000
Prompt
1070
     4
1000
(genmsg gendwg 40)
1002
{
1002
}
1000
Value
1070
     4
1000

1002
{
1002
}
1000
EditFlag
1070
     1
1070
     1
1002
{
1002
}
1000
PosInDDATTE
1070
     1
1070
    10
1002
{
1002
}
1000
FieldLen
1070
     1
1070
    -1
1002
{
1002
}
1002
}
1000
11
1070
     6
1002
{
1000
Prompt
1070
     4
1000
(genmsg gendwg 41)
1002
{
1002
}
1000
Value
1070
     4
1000

1002
{
1002
}
1000
EditFlag
1070
     1
1070
     1
1002
{
1002
}
1000
PosInDDATTE
1070
     1
1070
    11
1002
{
1002
}
1000
FieldLen
1070
     1
1070
    -1
1002
{
1002
}
1002
}
1000
12
1070
     6
1002
{
1000
Prompt
1070
     4
1000
(genmsg gendwg 42)
1002
{
1002
}
1000
Value
1070
     4
1000

1002
{
1002
}
1000
EditFlag
1070
     1
1070
     1
1002
{
1002
}
1000
PosInDDATTE
1070
     1
1070
    12
1002
{
1002
}
1000
FieldLen
1070
     1
1070
    -1
1002
{
1002
}
1002
}
1000
13
1070
     6
1002
{
1000
Prompt
1070
     4
1000
(genmsg gendwg 43)
1002
{
1002
}
1000
Value
1070
     4
1000

1002
{
1002
}
1000
EditFlag
1070
     1
1070
     1
1002
{
1002
}
1000
PosInDDATTE
1070
     1
1070
    13
1002
{
1002
}
1000
FieldLen
1070
     1
1070
    -1
1002
{
1002
}
1002
}
1000
14
1070
     6
1002
{
1000
Prompt
1070
     4
1000
(genmsg gendwg 44)
1002
{
1002
}
1000
Value
1070
     4
1000

1002
{
1002
}
1000
EditFlag
1070
     1
1070
     1
1002
{
1002
}
1000
PosInDDATTE
1070
     1
1070
    14
1002
{
1002
}
1000
FieldLen
1070
     1
1070
    -1
1002
{
1002
}
1002
}
1000
15
1070
     6
1002
{
1000
Prompt
1070
     4
1000
(genmsg gendwg 45)
1002
{
1002
}
1000
Value
1070
     4
1000

1002
{
1002
}
1000
EditFlag
1070
     1
1070
     1
1002
{
1002
}
1000
PosInDDATTE
1070
     1
1070
    15
1002
{
1002
}
1000
FieldLen
1070
     1
1070
    -1
1002
{
1002
}
1002
}
1000
16
1070
     6
1002
{
1000
Prompt
1070
     4
1000
(genmsg gendwg 46)
1002
{
1002
}
1000
Value
1070
     4
1000

1002
{
1002
}
1000
EditFlag
1070
     1
1070
     1
1002
{
1002
}
1000
PosInDDATTE
1070
     1
1070
    16
1002
{
1002
}
1000
FieldLen
1070
     1
1070
    -1
1002
{
1002
}
1002
}
1000
17
1070
     6
1002
{
1000
Prompt
1070
     4
1000
(genmsg gendwg 47)
1002
{
1002
}
1000
Value
1070
     4
1000

1002
{
1002
}
1000
EditFlag
1070
     1
1070
     1
1002
{
1002
}
1000
PosInDDATTE
1070
     1
1070
    17
1002
{
1002
}
1000
FieldLen
1070
     1
1070
    -1
1002
{
1002
}
1002
}
1000
18
1070
     6
1002
{
1000
Prompt
1070
     4
1000
(genmsg gendwg 48)
1002
{
1002
}
1000
Value
1070
     4
1000

1002
{
1002
}
1000
EditFlag
1070
     1
1070
     1
1002
{
1002
}
1000
PosInDDATTE
1070
     1
1070
    18
1002
{
1002
}
1000
FieldLen
1070
     1
1070
    -1
1002
{
1002
}
1002
}
1000
19
1070
     6
1002
{
1000
Prompt
1070
     4
1000
(genmsg gendwg 99)
1002
{
1002
}
1000
Value
1070
     4
1000

1002
{
1002
}
1000
EditFlag
1070
     1
1070
     1
1002
{
1002
}
1000
PosInDDATTE
1070
     1
1070
    19
1002
{
1002
}
1000
FieldLen
1070
     1
1070
    -1
1002
{
1002
}
1002
}
1000
20
1070
     6
1002
{
1000
Prompt
1070
     4
1000
(genmsg gendwg 100)
1002
{
1002
}
1000
Value
1070
     4
1000

1002
{
1002
}
1000
EditFlag
1070
     1
1070
     1
1002
{
1002
}
1000
PosInDDATTE
1070
     1
1070
    20
1002
{
1002
}
1000
FieldLen
1070
     1
1070
    -1
1002
{
1002
}
1002
}
1000
21
1070
     6
1002
{
1000
Prompt
1070
     4
1000
(genmsg gendwg 101)
1002
{
1002
}
1000
Value
1070
     4
1000

1002
{
1002
}
1000
EditFlag
1070
     1
1070
     1
1002
{
1002
}
1000
PosInDDATTE
1070
     1
1070
    21
1002
{
1002
}
1000
FieldLen
1070
     1
1070
    -1
1002
{
1002
}
1002
}
1000
22
1070
     6
1002
{
1000
Prompt
1070
     4
1000
(genmsg gendwg 102)
1002
{
1002
}
1000
Value
1070
     4
1000

1002
{
1002
}
1000
EditFlag
1070
     1
1070
     1
1002
{
1002
}
1000
PosInDDATTE
1070
     1
1070
    22
1002
{
1002
}
1000
FieldLen
1070
     1
1070
    -1
1002
{
1002
}
1002
}
1000
23
1070
     6
1002
{
1000
Prompt
1070
     4
1000
(genmsg gendwg 30)
1002
{
1002
}
1000
Value
1070
     4
1000

1002
{
1002
}
1000
EditFlag
1070
     1
1070
     1
1002
{
1002
}
1000
PosInDDATTE
1070
     1
1070
    23
1002
{
1002
}
1000
FieldLen
1070
     1
1070
    -1
1002
{
1002
}
1002
}
1000
24
1070
     6
1002
{
1000
Prompt
1070
     4
1000
(genmsg gendwg 104)
1002
{
1002
}
1000
Value
1070
     4
1000

1002
{
1002
}
1000
EditFlag
1070
     1
1070
     1
1002
{
1002
}
1000
PosInDDATTE
1070
     1
1070
    24
1002
{
1002
}
1000
FieldLen
1070
     1
1070
    -1
1002
{
1002
}
1002
}
1000
25
1070
     6
1002
{
1000
Prompt
1070
     4
1000
(genmsg gendwg 105)
1002
{
1002
}
1000
Value
1070
     4
1000

1002
{
1002
}
1000
EditFlag
1070
     1
1070
     1
1002
{
1002
}
1000
PosInDDATTE
1070
     1
1070
    25
1002
{
1002
}
1000
FieldLen
1070
     1
1070
    -1
1002
{
1002
}
1002
}
1000
26
1070
     6
1002
{
1000
Prompt
1070
     4
1000
(genmsg gendwg 106)
1002
{
1002
}
1000
Value
1070
     4
1000

1002
{
1002
}
1000
EditFlag
1070
     1
1070
     1
1002
{
1002
}
1000
PosInDDATTE
1070
     1
1070
    26
1002
{
1002
}
1000
FieldLen
1070
     1
1070
    -1
1002
{
1002
}
1002
}
1000
27
1070
     6
1002
{
1000
Prompt
1070
     4
1000
(genmsg gendwg 109)
1002
{
1002
}
1000
Value
1070
     4
1000

1002
{
1002
}
1000
EditFlag
1070
     1
1070
     2
1002
{
1002
}
1000
PosInDDATTE
1070
     1
1070
    27
1002
{
1002
}
1000
FieldLen
1070
     1
1070
    -1
1002
{
1002
}
1002
}
1000
28
1070
     6
1002
{
1000
Prompt
1070
     4
1000
(genmsg gendwg 110)
1002
{
1002
}
1000
Value
1070
     4
1000

1002
{
1002
}
1000
EditFlag
1070
     1
1070
     1
1002
{
1002
}
1000
PosInDDATTE
1070
     1
1070
    28
1002
{
1002
}
1000
FieldLen
1070
     1
1070
    -1
1002
{
1002
}
1002
}
1002
}
1000
Xlate
1070
     0
1002
{
1000
>
1002
}
  0
APPID
  5
164D
330
9
100
AcDbSymbolTableRecord
100
AcDbRegAppTableRecord
  2
GENIUS_GENCFG2_13
 70
     0
1001
GENIUS_GENCFG_13
1071
938725396
1000
164D
1000
GEN@LAYER@DEFS
1070
     9
1000
GenCfgObject
1000
GenCfgShort
1000
GenCfgReal
1000
GenCfgBool
1000
GenCfgString
1000
GenCfgDim
1000
GenCfgAttrInf
1000
GenCfgLaySection
1000
GenCfgLayer
1000
Basic
1070
     0
1002
{
1000
0
1070
     8
1000
0
1002
{
1000
Color
1070
     1
1070
     7
1002
{
1002
}
1000
LType
1070
     4
1000
CONTINUOUS
1002
{
1002
}
1000
Base
1070
     3
1070
     0
1002
{
1002
}
1002
}
1000
1
1070
     8
1000
1
1002
{
1000
Color
1070
     1
1070
    14
1002
{
1002
}
1000
LType
1070
     4
1000
CONTINUOUS
1002
{
1002
}
1000
Base
1070
     3
1070
     0
1002
{
1002
}
1002
}
1000
2
1070
     8
1000
2
1002
{
1000
Color
1070
     1
1070
     5
1002
{
1002
}
1000
LType
1070
     4
1000
CONTINUOUS
1002
{
1002
}
1000
Base
1070
     3
1070
     0
1002
{
1002
}
1002
}
1000
3
1070
     8
1000
3
1002
{
1000
Color
1070
     1
1070
     6
1002
{
1002
}
1000
LType
1070
     4
1000
GEN3
1002
{
1002
}
1000
Base
1070
     3
1070
     0
1002
{
1002
}
1002
}
1000
4
1070
     8
1000
4
1002
{
1000
Color
1070
     1
1070
     3
1002
{
1002
}
1000
LType
1070
     4
1000
CONTINUOUS
1002
{
1002
}
1000
Base
1070
     3
1070
     0
1002
{
1002
}
1002
}
1000
5
1070
     8
1000
5
1002
{
1000
Color
1070
     1
1070
     3
1002
{
1002
}
1000
LType
1070
     4
1000
CONTINUOUS
1002
{
1002
}
1000
Base
1070
     3
1070
     0
1002
{
1002
}
1002
}
1000
6
1070
     8
1000
6
1002
{
1000
Color
1070
     1
1070
     2
1002
{
1002
}
1000
LType
1070
     4
1000
CONTINUOUS
1002
{
1002
}
1000
Base
1070
     3
1070
     0
1002
{
1002
}
1002
}
1000
7
1070
     8
1000
7
1002
{
1000
Color
1070
     1
1070
     4
1002
{
1002
}
1000
LType
1070
     4
1000
GEN7
1002
{
1002
}
1000
Base
1070
     3
1070
     0
1002
{
1002
}
1002
}
1000
8
1070
     8
1000
8
1002
{
1000
Color
1070
     1
1070
     1
1002
{
1002
}
1000
LType
1070
     4
1000
CONTINUOUS
1002
{
1002
}
1000
Base
1070
     3
1070
     0
1002
{
1002
}
1002
}
1000
3A
1070
     8
1000
3A
1002
{
1000
Color
1070
     1
1070
     6
1002
{
1002
}
1000
LType
1070
     4
1000
GEN3A
1002
{
1002
}
1000
Base
1070
     3
1070
     0
1002
{
1002
}
1002
}
1000
7A
1070
     8
1000
7A
1002
{
1000
Color
1070
     1
1070
     4
1002
{
1002
}
1000
LType
1070
     4
1000
GEN7A
1002
{
1002
}
1000
Base
1070
     3
1070
     0
1002
{
1002
}
1002
}
1000
2A
1070
     8
1000
2A
1002
{
1000
Color
1070
     1
1070
     7
1002
{
1002
}
1000
LType
1070
     4
1000
GEN7
1002
{
1002
}
1000
Base
1070
     3
1070
     0
1002
{
1002
}
1002
}
1000
4A
1070
     8
1000
4A
1002
{
1000
Color
1070
     1
1070
     3
1002
{
1002
}
1000
LType
1070
     4
1000
GEN4A
1002
{
1002
}
1000
Base
1070
     3
1070
     0
1002
{
1002
}
1002
}
1000
9
1070
     8
1000
9
1002
{
1000
Color
1070
     1
1070
   253
1002
{
1002
}
1000
LType
1070
     4
1000
CONTINUOUS
1002
{
1002
}
1000
Base
1070
     3
1070
     0
1002
{
1002
}
1002
}
1000
IP
1070
     8
1000
IP
1002
{
1000
Color
1070
     1
1070
     7
1002
{
1002
}
1000
LType
1070
     4
1000
CONTINUOUS
1002
{
1002
}
1000
Base
1070
     3
1070
     0
1002
{
1002
}
1002
}
1002
}
1000
Standard
1070
     0
1002
{
1000
0N
1070
     8
1000
0N
1002
{
1000
Color
1070
     1
1070
     7
1002
{
1002
}
1000
LType
1070
     4
1000
CONTINUOUS
1002
{
1002
}
1000
Base
1070
     3
1070
     0
1002
{
1002
}
1002
}
1000
1N
1070
     8
1000
1N
1002
{
1000
Color
1070
     1
1070
    14
1002
{
1002
}
1000
LType
1070
     4
1000
CONTINUOUS
1002
{
1002
}
1000
Base
1070
     3
1070
     0
1002
{
1002
}
1002
}
1000
2N
1070
     8
1000
2N
1002
{
1000
Color
1070
     1
1070
     5
1002
{
1002
}
1000
LType
1070
     4
1000
CONTINUOUS
1002
{
1002
}
1000
Base
1070
     3
1070
     0
1002
{
1002
}
1002
}
1000
3N
1070
     8
1000
3N
1002
{
1000
Color
1070
     1
1070
     6
1002
{
1002
}
1000
LType
1070
     4
1000
GEN3
1002
{
1002
}
1000
Base
1070
     3
1070
     0
1002
{
1002
}
1002
}
1000
4N
1070
     8
1000
4N
1002
{
1000
Color
1070
     1
1070
     3
1002
{
1002
}
1000
LType
1070
     4
1000
CONTINUOUS
1002
{
1002
}
1000
Base
1070
     3
1070
     0
1002
{
1002
}
1002
}
1000
5N
1070
     8
1000
5N
1002
{
1000
Color
1070
     1
1070
     3
1002
{
1002
}
1000
LType
1070
     4
1000
CONTINUOUS
1002
{
1002
}
1000
Base
1070
     3
1070
     0
1002
{
1002
}
1002
}
1000
6N
1070
     8
1000
6N
1002
{
1000
Color
1070
     1
1070
     2
1002
{
1002
}
1000
LType
1070
     4
1000
CONTINUOUS
1002
{
1002
}
1000
Base
1070
     3
1070
     0
1002
{
1002
}
1002
}
1000
7N
1070
     8
1000
7N
1002
{
1000
Color
1070
     1
1070
     4
1002
{
1002
}
1000
LType
1070
     4
1000
GEN7
1002
{
1002
}
1000
Base
1070
     3
1070
     0
1002
{
1002
}
1002
}
1000
8N
1070
     8
1000
8N
1002
{
1000
Color
1070
     1
1070
     1
1002
{
1002
}
1000
LType
1070
     4
1000
CONTINUOUS
1002
{
1002
}
1000
Base
1070
     3
1070
     0
1002
{
1002
}
1002
}
1000
3AN
1070
     8
1000
3AN
1002
{
1000
Color
1070
     1
1070
     6
1002
{
1002
}
1000
LType
1070
     4
1000
GEN3A
1002
{
1002
}
1000
Base
1070
     3
1070
     0
1002
{
1002
}
1002
}
1000
7AN
1070
     8
1000
7AN
1002
{
1000
Color
1070
     1
1070
     4
1002
{
1002
}
1000
LType
1070
     4
1000
GEN7A
1002
{
1002
}
1000
Base
1070
     3
1070
     0
1002
{
1002
}
1002
}
1000
2AN
1070
     8
1000
2AN
1002
{
1000
Color
1070
     1
1070
     7
1002
{
1002
}
1000
LType
1070
     4
1000
GEN7
1002
{
1002
}
1000
Base
1070
     3
1070
     0
1002
{
1002
}
1002
}
1000
4AN
1070
     8
1000
4AN
1002
{
1000
Color
1070
     1
1070
     3
1002
{
1002
}
1000
LType
1070
     4
1000
GEN4A
1002
{
1002
}
1000
Base
1070
     3
1070
     0
1002
{
1002
}
1002
}
1000
9N
1070
     8
1000
9N
1002
{
1000
Color
1070
     1
1070
   253
1002
{
1002
}
1000
LType
1070
     4
1000
CONTINUOUS
1002
{
1002
}
1000
Base
1070
     3
1070
     0
1002
{
1002
}
1002
}
1000
IPN
1070
     8
1000
IPN
1002
{
1000
Color
1070
     1
1070
     7
1002
{
1002
}
1000
LType
1070
     4
1000
CONTINUOUS
1002
{
1002
}
1000
Base
1070
     3
1070
     0
1002
{
1002
}
1002
}
1002
}
1000
Extra
1070
     0
1002
{
1000
Klin
1070
     8
1000
KLIN
1002
{
1000
Color
1070
     1
1070
     1
1002
{
1002
}
1000
LType
1070
     4
1000
CONTINUOUS
1002
{
1002
}
1000
Base
1070
     3
1070
     1
1002
{
1002
}
1002
}
1000
Info
1070
     8
1000
INFO
1002
{
1000
Color
1070
     1
1070
     4
1002
{
1002
}
1000
LType
1070
     4
1000
CONTINUOUS
1002
{
1002
}
1000
Base
1070
     3
1070
     1
1002
{
1002
}
1002
}
1000
Rahm2
1070
     8
1000
RAHM2
1002
{
1000
Color
1070
     1
1070
     1
1002
{
1002
}
1000
LType
1070
     4
1000
CONTINUOUS
1002
{
1002
}
1000
Base
1070
     3
1070
     1
1002
{
1002
}
1002
}
1000
Rahm3
1070
     8
1000
RAHM3
1002
{
1000
Color
1070
     1
1070
     2
1002
{
1002
}
1000
LType
1070
     4
1000
CONTINUOUS
1002
{
1002
}
1000
Base
1070
     3
1070
     1
1002
{
1002
}
1002
}
1000
Rahm5
1070
     8
1000
RAHM5
1002
{
1000
Color
1070
     1
1070
     7
1002
{
1002
}
1000
LType
1070
     4
1000
CONTINUOUS
1002
{
1002
}
1000
Base
1070
     3
1070
     1
1002
{
1002
}
1002
}
1000
View
1070
     8
1000
VIEW
1002
{
1000
Color
1070
     1
1070
     1
1002
{
1002
}
1000
LType
1070
     4
1000
CONTINUOUS
1002
{
1002
}
1000
Base
1070
     3
1070
     1
1002
{
1002
}
1002
}
1000
Behind
1070
     8
1000
BEHIND
1002
{
1000
Color
1070
     1
1070
   253
1002
{
1002
}
1000
LType
1070
     4
1000
CONTINUOUS
1002
{
1002
}
1000
Base
1070
     3
1070
     1
1002
{
1002
}
1002
}
1002
}
  0
APPID
  5
164E
330
9
100
AcDbSymbolTableRecord
100
AcDbRegAppTableRecord
  2
GENIUS_GENCFG3_13
 70
     0
1001
GENIUS_GENCFG_13
1071
938725396
1000
164E
1000
GEN@LAYER@ENTSORT
1070
    10
1000
GenCfgObject
1000
GenCfgShort
1000
GenCfgReal
1000
GenCfgBool
1000
GenCfgString
1000
GenCfgDim
1000
GenCfgAttrInf
1000
GenCfgLaySection
1000
GenCfgLayer
1000
GenCfgEntSort
1000
ADDL
1070
     9
1000
5
1002
{
1000
Class
1070
     4
1000
SYM
1002
{
1002
}
1000
Color
1070
     1
1070
     1
1002
{
1002
}
1000
LType
1070
     4
1000
BYLAYER
1002
{
1002
}
1002
}
1000
ALTR
1070
     9
1000
4
1002
{
1000
Class
1070
     4
1000

1002
{
1002
}
1000
Color
1070
     1
1070
     7
1002
{
1002
}
1000
LType
1070
     4
1000
GEN3A
1002
{
1002
}
1002
}
1000
BELI
1070
     9
1000
4
1002
{
1000
Class
1070
     4
1000

1002
{
1002
}
1000
Color
1070
     1
1070
   256
1002
{
1002
}
1000
LType
1070
     4
1000
BYLAYER
1002
{
1002
}
1002
}
1000
BHNV
1070
     9
1000
9
1002
{
1000
Class
1070
     4
1000
INV
1002
{
1002
}
1000
Color
1070
     1
1070
   256
1002
{
1002
}
1000
LType
1070
     4
1000
BYLAYER
1002
{
1002
}
1002
}
1000
BHNVS
1070
     9
1000
BEHIND
1002
{
1000
Class
1070
     4
1000
INV
1002
{
1002
}
1000
Color
1070
     1
1070
   256
1002
{
1002
}
1000
LType
1070
     4
1000
BYLAYER
1002
{
1002
}
1002
}
1000
BLID
1070
     9
1000
4A
1002
{
1000
Class
1070
     4
1000

1002
{
1002
}
1000
Color
1070
     1
1070
   256
1002
{
1002
}
1000
LType
1070
     4
1000
BYLAYER
1002
{
1002
}
1002
}
1000
BOAP
1070
     9
1000
4A
1002
{
1000
Class
1070
     4
1000

1002
{
1002
}
1000
Color
1070
     1
1070
   256
1002
{
1002
}
1000
LType
1070
     4
1000
BYLAYER
1002
{
1002
}
1002
}
1000
BOR2
1070
     9
1000
RAHM2
1002
{
1000
Class
1070
     4
1000
SPZ,SYM
1002
{
1002
}
1000
Color
1070
     1
1070
   256
1002
{
1002
}
1000
LType
1070
     4
1000
BYLAYER
1002
{
1002
}
1002
}
1000
BOR3
1070
     9
1000
RAHM3
1002
{
1000
Class
1070
     4
1000
SPZ,SYM
1002
{
1002
}
1000
Color
1070
     1
1070
   256
1002
{
1002
}
1000
LType
1070
     4
1000
BYLAYER
1002
{
1002
}
1002
}
1000
BOR5
1070
     9
1000
RAHM5
1002
{
1000
Class
1070
     4
1000
SPZ,SYM
1002
{
1002
}
1000
Color
1070
     1
1070
   256
1002
{
1002
}
1000
LType
1070
     4
1000
BYLAYER
1002
{
1002
}
1002
}
1000
BOR7
1070
     9
1000
RAHM5
1002
{
1000
Class
1070
     4
1000
SPZ,SYM
1002
{
1002
}
1000
Color
1070
     1
1070
     7
1002
{
1002
}
1000
LType
1070
     4
1000
CONTINUOUS
1002
{
1002
}
1002
}
1000
BPAP
1070
     9
1000
4A
1002
{
1000
Class
1070
     4
1000

1002
{
1002
}
1000
Color
1070
     1
1070
   256
1002
{
1002
}
1000
LType
1070
     4
1000
BYLAYER
1002
{
1002
}
1002
}
1000
BPEX
1070
     9
1000
4A
1002
{
1000
Class
1070
     4
1000

1002
{
1002
}
1000
Color
1070
     1
1070
   256
1002
{
1002
}
1000
LType
1070
     4
1000
BYLAYER
1002
{
1002
}
1002
}
1000
BTDI
1070
     9
1000
5
1002
{
1000
Class
1070
     4
1000
DIM,SYM
1002
{
1002
}
1000
Color
1070
     1
1070
   256
1002
{
1002
}
1000
LType
1070
     4
1000
BYLAYER
1002
{
1002
}
1002
}
1000
CAL2
1070
     9
1000
4
1002
{
1000
Class
1070
     4
1000
SYM
1002
{
1002
}
1000
Color
1070
     1
1070
   256
1002
{
1002
}
1000
LType
1070
     4
1000
BYLAYER
1002
{
1002
}
1002
}
1000
CAL3
1070
     9
1000
4
1002
{
1000
Class
1070
     4
1000
SYM
1002
{
1002
}
1000
Color
1070
     1
1070
     2
1002
{
1002
}
1000
LType
1070
     4
1000
BYLAYER
1002
{
1002
}
1002
}
1000
CAL5
1070
     9
1000
4
1002
{
1000
Class
1070
     4
1000
SYM
1002
{
1002
}
1000
Color
1070
     1
1070
     7
1002
{
1002
}
1000
LType
1070
     4
1000
BYLAYER
1002
{
1002
}
1002
}
1000
CAL7
1070
     9
1000
4
1002
{
1000
Class
1070
     4
1000
SYM
1002
{
1002
}
1000
Color
1070
     1
1070
     5
1002
{
1002
}
1000
LType
1070
     4
1000
BYLAYER
1002
{
1002
}
1002
}
1000
CENN
1070
     9
1000
7A
1002
{
1000
Class
1070
     4
1000
CEN
1002
{
1002
}
1000
Color
1070
     1
1070
   256
1002
{
1002
}
1000
LType
1070
     4
1000
BYLAYER
1002
{
1002
}
1002
}
1000
CENW
1070
     9
1000
7
1002
{
1000
Class
1070
     4
1000
CEN
1002
{
1002
}
1000
Color
1070
     1
1070
   256
1002
{
1002
}
1000
LType
1070
     4
1000
BYLAYER
1002
{
1002
}
1002
}
1000
CLIN
1070
     9
1000
KLIN
1002
{
1000
Class
1070
     4
1000
SPZ
1002
{
1002
}
1000
Color
1070
     1
1070
   256
1002
{
1002
}
1000
LType
1070
     4
1000
BYLAYER
1002
{
1002
}
1002
}
1000
CON1
1070
     9
1000
0
1002
{
1000
Class
1070
     4
1000
CON,BGD
1002
{
1002
}
1000
Color
1070
     1
1070
   256
1002
{
1002
}
1000
LType
1070
     4
1000
BYLAYER
1002
{
1002
}
1002
}
1000
CON2
1070
     9
1000
1
1002
{
1000
Class
1070
     4
1000
CON,BGD
1002
{
1002
}
1000
Color
1070
     1
1070
   256
1002
{
1002
}
1000
LType
1070
     4
1000
BYLAYER
1002
{
1002
}
1002
}
1000
CON3
1070
     9
1000
2
1002
{
1000
Class
1070
     4
1000
CON,BGD
1002
{
1002
}
1000
Color
1070
     1
1070
   256
1002
{
1002
}
1000
LType
1070
     4
1000
BYLAYER
1002
{
1002
}
1002
}
1000
CON4
1070
     9
1000
2
1002
{
1000
Class
1070
     4
1000
CON,BGD
1002
{
1002
}
1000
Color
1070
     1
1070
   256
1002
{
1002
}
1000
LType
1070
     4
1000
BYLAYER
1002
{
1002
}
1002
}
1000
DERP
1070
     9
1000
4
1002
{
1000
Class
1070
     4
1000

1002
{
1002
}
1000
Color
1070
     1
1070
   256
1002
{
1002
}
1000
LType
1070
     4
1000
BYLAYER
1002
{
1002
}
1002
}
1000
DETA
1070
     9
1000
4
1002
{
1000
Class
1070
     4
1000

1002
{
1002
}
1000
Color
1070
     1
1070
   256
1002
{
1002
}
1000
LType
1070
     4
1000
BYLAYER
1002
{
1002
}
1002
}
1000
DIAG
1070
     9
1000
5
1002
{
1000
Class
1070
     4
1000
SYM
1002
{
1002
}
1000
Color
1070
     1
1070
   256
1002
{
1002
}
1000
LType
1070
     4
1000
BYLAYER
1002
{
1002
}
1002
}
1000
DILI
1070
     9
1000
5
1002
{
1000
Class
1070
     4
1000
DIM,SYM
1002
{
1002
}
1000
Color
1070
     1
1070
   256
1002
{
1002
}
1000
LType
1070
     4
1000
BYLAYER
1002
{
1002
}
1002
}
1000
DITO2
1070
     9
1000
5
1002
{
1000
Class
1070
     4
1000
DIM,SYM
1002
{
1002
}
1000
Color
1070
     1
1070
     3
1002
{
1002
}
1000
LType
1070
     4
1000
BYLAYER
1002
{
1002
}
1002
}
1000
DITO3
1070
     9
1000
5
1002
{
1000
Class
1070
     4
1000
DIM,SYM
1002
{
1002
}
1000
Color
1070
     1
1070
     2
1002
{
1002
}
1000
LType
1070
     4
1000
BYLAYER
1002
{
1002
}
1002
}
1000
DITX
1070
     9
1000
5
1002
{
1000
Class
1070
     4
1000
DIM,SYM
1002
{
1002
}
1000
Color
1070
     1
1070
   256
1002
{
1002
}
1000
LType
1070
     4
1000
CONTINUOUS
1002
{
1002
}
1002
}
1000
DIXL
1070
     9
1000
5
1002
{
1000
Class
1070
     4
1000
DIM,SYM
1002
{
1002
}
1000
Color
1070
     1
1070
   256
1002
{
1002
}
1000
LType
1070
     4
1000
BYLAYER
1002
{
1002
}
1002
}
1000
EXMP
1070
     9
1000
4A
1002
{
1000
Class
1070
     4
1000

1002
{
1002
}
1000
Color
1070
     1
1070
   256
1002
{
1002
}
1000
LType
1070
     4
1000
BYLAYER
1002
{
1002
}
1002
}
1000
FEMN
1070
     9
1000
8
1002
{
1000
Class
1070
     4
1000

1002
{
1002
}
1000
Color
1070
     1
1070
   256
1002
{
1002
}
1000
LType
1070
     4
1000
BYLAYER
1002
{
1002
}
1002
}
1000
FEMPN
1070
     9
1000
8
1002
{
1000
Class
1070
     4
1000
SYM
1002
{
1002
}
1000
Color
1070
     1
1070
     3
1002
{
1002
}
1000
LType
1070
     4
1000
BYLAYER
1002
{
1002
}
1002
}
1000
FEMSP
1070
     9
1000
4A
1002
{
1000
Class
1070
     4
1000

1002
{
1002
}
1000
Color
1070
     1
1070
   256
1002
{
1002
}
1000
LType
1070
     4
1000
CONTINUOUS
1002
{
1002
}
1002
}
1000
FEMST
1070
     9
1000
4A
1002
{
1000
Class
1070
     4
1000
SYM
1002
{
1002
}
1000
Color
1070
     1
1070
     3
1002
{
1002
}
1000
LType
1070
     4
1000
BYLAYER
1002
{
1002
}
1002
}
1000
FEMVN
1070
     9
1000
2
1002
{
1000
Class
1070
     4
1000
CON
1002
{
1002
}
1000
Color
1070
     1
1070
   256
1002
{
1002
}
1000
LType
1070
     4
1000
BYLAYER
1002
{
1002
}
1002
}
1000
FEMVT
1070
     9
1000
2
1002
{
1000
Class
1070
     4
1000
SYM
1002
{
1002
}
1000
Color
1070
     1
1070
     3
1002
{
1002
}
1000
LType
1070
     4
1000
BYLAYER
1002
{
1002
}
1002
}
1000
FLAT
1070
     9
1000
0
1002
{
1000
Class
1070
     4
1000

1002
{
1002
}
1000
Color
1070
     1
1070
   256
1002
{
1002
}
1000
LType
1070
     4
1000
BYLAYER
1002
{
1002
}
1002
}
1000
FRAR
1070
     9
1000
4A
1002
{
1000
Class
1070
     4
1000

1002
{
1002
}
1000
Color
1070
     1
1070
   256
1002
{
1002
}
1000
LType
1070
     4
1000
BYLAYER
1002
{
1002
}
1002
}
1000
GRLI
1070
     9
1000
5
1002
{
1000
Class
1070
     4
1000
SYM
1002
{
1002
}
1000
Color
1070
     1
1070
   256
1002
{
1002
}
1000
LType
1070
     4
1000
BYLAYER
1002
{
1002
}
1002
}
1000
GVLI
1070
     9
1000
4A
1002
{
1000
Class
1070
     4
1000

1002
{
1002
}
1000
Color
1070
     1
1070
   256
1002
{
1002
}
1000
LType
1070
     4
1000
BYLAYER
1002
{
1002
}
1002
}
1000
HATC
1070
     9
1000
8
1002
{
1000
Class
1070
     4
1000
HTC,BGD
1002
{
1002
}
1000
Color
1070
     1
1070
   256
1002
{
1002
}
1000
LType
1070
     4
1000
BYLAYER
1002
{
1002
}
1002
}
1000
HIDN
1070
     9
1000
3A
1002
{
1000
Class
1070
     4
1000
HID,BGD
1002
{
1002
}
1000
Color
1070
     1
1070
   256
1002
{
1002
}
1000
LType
1070
     4
1000
BYLAYER
1002
{
1002
}
1002
}
1000
HIDW
1070
     9
1000
3
1002
{
1000
Class
1070
     4
1000
HID,BGD
1002
{
1002
}
1000
Color
1070
     1
1070
   256
1002
{
1002
}
1000
LType
1070
     4
1000
BYLAYER
1002
{
1002
}
1002
}
1000
HLIN
1070
     9
1000
4
1002
{
1000
Class
1070
     4
1000
BGD
1002
{
1002
}
1000
Color
1070
     1
1070
   256
1002
{
1002
}
1000
LType
1070
     4
1000
BYLAYER
1002
{
1002
}
1002
}
1000
HOCN
1070
     9
1000
7A
1002
{
1000
Class
1070
     4
1000
CEN
1002
{
1002
}
1000
Color
1070
     1
1070
   256
1002
{
1002
}
1000
LType
1070
     4
1000
BYLAYER
1002
{
1002
}
1002
}
1000
HOCW
1070
     9
1000
7
1002
{
1000
Class
1070
     4
1000
CEN
1002
{
1002
}
1000
Color
1070
     1
1070
   256
1002
{
1002
}
1000
LType
1070
     4
1000
BYLAYER
1002
{
1002
}
1002
}
1000
INFO
1070
     9
1000
INFO
1002
{
1000
Class
1070
     4
1000
SPZ,SYM
1002
{
1002
}
1000
Color
1070
     1
1070
   256
1002
{
1002
}
1000
LType
1070
     4
1000
BYLAYER
1002
{
1002
}
1002
}
1000
LADI
1070
     9
1000
4
1002
{
1000
Class
1070
     4
1000
BGD
1002
{
1002
}
1000
Color
1070
     1
1070
   256
1002
{
1002
}
1000
LType
1070
     4
1000
BYLAYER
1002
{
1002
}
1002
}
1000
LEAD
1070
     9
1000
5
1002
{
1000
Class
1070
     4
1000
SYM
1002
{
1002
}
1000
Color
1070
     1
1070
   256
1002
{
1002
}
1000
LType
1070
     4
1000
BYLAYER
1002
{
1002
}
1002
}
1000
N_ADDL
1070
     9
1000
5N
1002
{
1000
Class
1070
     4
1000
SYM
1002
{
1002
}
1000
Color
1070
     1
1070
     1
1002
{
1002
}
1000
LType
1070
     4
1000
BYLAYER
1002
{
1002
}
1002
}
1000
N_BHNV
1070
     9
1000
9N
1002
{
1000
Class
1070
     4
1000
INV
1002
{
1002
}
1000
Color
1070
     1
1070
   256
1002
{
1002
}
1000
LType
1070
     4
1000
BYLAYER
1002
{
1002
}
1002
}
1000
N_CON1
1070
     9
1000
0N
1002
{
1000
Class
1070
     4
1000
CON,BGD
1002
{
1002
}
1000
Color
1070
     1
1070
   256
1002
{
1002
}
1000
LType
1070
     4
1000
BYLAYER
1002
{
1002
}
1002
}
1000
N_CON2
1070
     9
1000
1N
1002
{
1000
Class
1070
     4
1000
CON,BGD
1002
{
1002
}
1000
Color
1070
     1
1070
   256
1002
{
1002
}
1000
LType
1070
     4
1000
BYLAYER
1002
{
1002
}
1002
}
1000
N_CON3
1070
     9
1000
2N
1002
{
1000
Class
1070
     4
1000
CON,BGD
1002
{
1002
}
1000
Color
1070
     1
1070
   256
1002
{
1002
}
1000
LType
1070
     4
1000
BYLAYER
1002
{
1002
}
1002
}
1000
N_CON4
1070
     9
1000
2N
1002
{
1000
Class
1070
     4
1000
CON,BGD
1002
{
1002
}
1000
Color
1070
     1
1070
   256
1002
{
1002
}
1000
LType
1070
     4
1000
BYLAYER
1002
{
1002
}
1002
}
1000
N_CENN
1070
     9
1000
7AN
1002
{
1000
Class
1070
     4
1000
CEN
1002
{
1002
}
1000
Color
1070
     1
1070
   256
1002
{
1002
}
1000
LType
1070
     4
1000
BYLAYER
1002
{
1002
}
1002
}
1000
N_CENW
1070
     9
1000
7N
1002
{
1000
Class
1070
     4
1000
CEN
1002
{
1002
}
1000
Color
1070
     1
1070
   256
1002
{
1002
}
1000
LType
1070
     4
1000
BYLAYER
1002
{
1002
}
1002
}
1000
N_DILI
1070
     9
1000
5N
1002
{
1000
Class
1070
     4
1000
DIM,SYM
1002
{
1002
}
1000
Color
1070
     1
1070
   256
1002
{
1002
}
1000
LType
1070
     4
1000
BYLAYER
1002
{
1002
}
1002
}
1000
N_DITX
1070
     9
1000
5N
1002
{
1000
Class
1070
     4
1000
DIM,SYM
1002
{
1002
}
1000
Color
1070
     1
1070
     2
1002
{
1002
}
1000
LType
1070
     4
1000
CONTINUOUS
1002
{
1002
}
1002
}
1000
N_DIXL
1070
     9
1000
5N
1002
{
1000
Class
1070
     4
1000
DIM,SYM
1002
{
1002
}
1000
Color
1070
     1
1070
   256
1002
{
1002
}
1000
LType
1070
     4
1000
BYLAYER
1002
{
1002
}
1002
}
1000
N_HATC
1070
     9
1000
8N
1002
{
1000
Class
1070
     4
1000
HTC,BGD
1002
{
1002
}
1000
Color
1070
     1
1070
   256
1002
{
1002
}
1000
LType
1070
     4
1000
BYLAYER
1002
{
1002
}
1002
}
1000
N_HIDN
1070
     9
1000
3AN
1002
{
1000
Class
1070
     4
1000
HID,BGD
1002
{
1002
}
1000
Color
1070
     1
1070
   256
1002
{
1002
}
1000
LType
1070
     4
1000
BYLAYER
1002
{
1002
}
1002
}
1000
N_HIDW
1070
     9
1000
3N
1002
{
1000
Class
1070
     4
1000
HID,BGD
1002
{
1002
}
1000
Color
1070
     1
1070
   256
1002
{
1002
}
1000
LType
1070
     4
1000
BYLAYER
1002
{
1002
}
1002
}
1000
N_NGIP
1070
     9
1000
IPN
1002
{
1000
Class
1070
     4
1000

1002
{
1002
}
1000
Color
1070
     1
1070
   256
1002
{
1002
}
1000
LType
1070
     4
1000
BYLAYER
1002
{
1002
}
1002
}
1000
N_PHAN
1070
     9
1000
4AN
1002
{
1000
Class
1070
     4
1000

1002
{
1002
}
1000
Color
1070
     1
1070
   256
1002
{
1002
}
1000
LType
1070
     4
1000
BYLAYER
1002
{
1002
}
1002
}
1000
N_POSL
1070
     9
1000
5N
1002
{
1000
Class
1070
     4
1000
SYM
1002
{
1002
}
1000
Color
1070
     1
1070
   256
1002
{
1002
}
1000
LType
1070
     4
1000
BYLAYER
1002
{
1002
}
1002
}
1000
N_TCON
1070
     9
1000
0N
1002
{
1000
Class
1070
     4
1000
CON,BGD
1002
{
1002
}
1000
Color
1070
     1
1070
   256
1002
{
1002
}
1000
LType
1070
     4
1000
BYLAYER
1002
{
1002
}
1002
}
1000
N_THLI
1070
     9
1000
4N
1002
{
1000
Class
1070
     4
1000
BGD
1002
{
1002
}
1000
Color
1070
     1
1070
   256
1002
{
1002
}
1000
LType
1070
     4
1000
BYLAYER
1002
{
1002
}
1002
}
1000
N_TLEN
1070
     9
1000
0N
1002
{
1000
Class
1070
     4
1000
CON,BGD
1002
{
1002
}
1000
Color
1070
     1
1070
   256
1002
{
1002
}
1000
LType
1070
     4
1000
BYLAYER
1002
{
1002
}
1002
}
1000
N_TXT3
1070
     9
1000
6N
1002
{
1000
Class
1070
     4
1000
SYM
1002
{
1002
}
1000
Color
1070
     1
1070
   256
1002
{
1002
}
1000
LType
1070
     4
1000
BYLAYER
1002
{
1002
}
1002
}
1000
N_VPLI
1070
     9
1000
2AN
1002
{
1000
Class
1070
     4
1000

1002
{
1002
}
1000
Color
1070
     1
1070
   256
1002
{
1002
}
1000
LType
1070
     4
1000
BYLAYER
1002
{
1002
}
1002
}
1000
NGIP
1070
     9
1000
IP
1002
{
1000
Class
1070
     4
1000

1002
{
1002
}
1000
Color
1070
     1
1070
   256
1002
{
1002
}
1000
LType
1070
     4
1000
BYLAYER
1002
{
1002
}
1002
}
1000
PAL2
1070
     9
1000
RAHM2
1002
{
1000
Class
1070
     4
1000
SPZ,SYM
1002
{
1002
}
1000
Color
1070
     1
1070
   256
1002
{
1002
}
1000
LType
1070
     4
1000
BYLAYER
1002
{
1002
}
1002
}
1000
PAL3
1070
     9
1000
RAHM3
1002
{
1000
Class
1070
     4
1000
SPZ,SYM
1002
{
1002
}
1000
Color
1070
     1
1070
   256
1002
{
1002
}
1000
LType
1070
     4
1000
BYLAYER
1002
{
1002
}
1002
}
1000
PAL5
1070
     9
1000
RAHM5
1002
{
1000
Class
1070
     4
1000
SPZ,SYM
1002
{
1002
}
1000
Color
1070
     1
1070
   256
1002
{
1002
}
1000
LType
1070
     4
1000
BYLAYER
1002
{
1002
}
1002
}
1000
PAL7
1070
     9
1000
RAHM5
1002
{
1000
Class
1070
     4
1000
SPZ,SYM
1002
{
1002
}
1000
Color
1070
     1
1070
     7
1002
{
1002
}
1000
LType
1070
     4
1000
CONTINUOUS
1002
{
1002
}
1002
}
1000
PHAN
1070
     9
1000
4A
1002
{
1000
Class
1070
     4
1000

1002
{
1002
}
1000
Color
1070
     1
1070
   256
1002
{
1002
}
1000
LType
1070
     4
1000
BYLAYER
1002
{
1002
}
1002
}
1000
POSL
1070
     9
1000
5
1002
{
1000
Class
1070
     4
1000
SYM
1002
{
1002
}
1000
Color
1070
     1
1070
   256
1002
{
1002
}
1000
LType
1070
     4
1000
BYLAYER
1002
{
1002
}
1002
}
1000
POSN
1070
     9
1000
6
1002
{
1000
Class
1070
     4
1000
SYM
1002
{
1002
}
1000
Color
1070
     1
1070
     7
1002
{
1002
}
1000
LType
1070
     4
1000
BYLAYER
1002
{
1002
}
1002
}
1000
POSREF
1070
     9
1000
6
1002
{
1000
Class
1070
     4
1000
SYM
1002
{
1002
}
1000
Color
1070
     1
1070
     5
1002
{
1002
}
1000
LType
1070
     4
1000
BYLAYER
1002
{
1002
}
1002
}
1000
POSX
1070
     9
1000
5
1002
{
1000
Class
1070
     4
1000
SYM
1002
{
1002
}
1000
Color
1070
     1
1070
     2
1002
{
1002
}
1000
LType
1070
     4
1000
CONTINUOUS
1002
{
1002
}
1002
}
1000
PSEC
1070
     9
1000
4A
1002
{
1000
Class
1070
     4
1000

1002
{
1002
}
1000
Color
1070
     1
1070
   256
1002
{
1002
}
1000
LType
1070
     4
1000
BYLAYER
1002
{
1002
}
1002
}
1000
RCGN
1070
     9
1000
7A
1002
{
1000
Class
1070
     4
1000
CEN
1002
{
1002
}
1000
Color
1070
     1
1070
   256
1002
{
1002
}
1000
LType
1070
     4
1000
BYLAYER
1002
{
1002
}
1002
}
1000
RCGW
1070
     9
1000
7
1002
{
1000
Class
1070
     4
1000
CEN
1002
{
1002
}
1000
Color
1070
     1
1070
   256
1002
{
1002
}
1000
LType
1070
     4
1000
BYLAYER
1002
{
1002
}
1002
}
1000
RFDI
1070
     9
1000
4
1002
{
1000
Class
1070
     4
1000
BGD
1002
{
1002
}
1000
Color
1070
     1
1070
   256
1002
{
1002
}
1000
LType
1070
     4
1000
BYLAYER
1002
{
1002
}
1002
}
1000
RQTR
1070
     9
1000
4
1002
{
1000
Class
1070
     4
1000

1002
{
1002
}
1000
Color
1070
     1
1070
     7
1002
{
1002
}
1000
LType
1070
     4
1000
GEN7A
1002
{
1002
}
1002
}
1000
RSBO
1070
     9
1000
4
1002
{
1000
Class
1070
     4
1000
BGD
1002
{
1002
}
1000
Color
1070
     1
1070
   256
1002
{
1002
}
1000
LType
1070
     4
1000
BYLAYER
1002
{
1002
}
1002
}
1000
SBRK
1070
     9
1000
4
1002
{
1000
Class
1070
     4
1000
BGD
1002
{
1002
}
1000
Color
1070
     1
1070
   256
1002
{
1002
}
1000
LType
1070
     4
1000
BYLAYER
1002
{
1002
}
1002
}
1000
SCEN
1070
     9
1000
7
1002
{
1000
Class
1070
     4
1000

1002
{
1002
}
1000
Color
1070
     1
1070
   256
1002
{
1002
}
1000
LType
1070
     4
1000
CONTINUOUS
1002
{
1002
}
1002
}
1000
SECT
1070
     9
1000
4
1002
{
1000
Class
1070
     4
1000
BGD
1002
{
1002
}
1000
Color
1070
     1
1070
   256
1002
{
1002
}
1000
LType
1070
     4
1000
BYLAYER
1002
{
1002
}
1002
}
1000
SELN
1070
     9
1000
7A
1002
{
1000
Class
1070
     4
1000

1002
{
1002
}
1000
Color
1070
     1
1070
   256
1002
{
1002
}
1000
LType
1070
     4
1000
BYLAYER
1002
{
1002
}
1002
}
1000
SELW
1070
     9
1000
7
1002
{
1000
Class
1070
     4
1000

1002
{
1002
}
1000
Color
1070
     1
1070
   256
1002
{
1002
}
1000
LType
1070
     4
1000
BYLAYER
1002
{
1002
}
1002
}
1000
SSYS
1070
     9
1000
0
1002
{
1000
Class
1070
     4
1000

1002
{
1002
}
1000
Color
1070
     1
1070
   256
1002
{
1002
}
1000
LType
1070
     4
1000
BYLAYER
1002
{
1002
}
1002
}
1000
STLI
1070
     9
1000
4
1002
{
1000
Class
1070
     4
1000

1002
{
1002
}
1000
Color
1070
     1
1070
     7
1002
{
1002
}
1000
LType
1070
     4
1000
GEN3A
1002
{
1002
}
1002
}
1000
SYB1
1070
     9
1000
5
1002
{
1000
Class
1070
     4
1000
SYM
1002
{
1002
}
1000
Color
1070
     1
1070
   256
1002
{
1002
}
1000
LType
1070
     4
1000
BYLAYER
1002
{
1002
}
1002
}
1000
SYB2
1070
     9
1000
5
1002
{
1000
Class
1070
     4
1000
SYM
1002
{
1002
}
1000
Color
1070
     1
1070
   256
1002
{
1002
}
1000
LType
1070
     4
1000
BYLAYER
1002
{
1002
}
1002
}
1000
SYB3
1070
     9
1000
6
1002
{
1000
Class
1070
     4
1000
SYM
1002
{
1002
}
1000
Color
1070
     1
1070
   256
1002
{
1002
}
1000
LType
1070
     4
1000
CONTINUOUS
1002
{
1002
}
1002
}
1000
SYB5
1070
     9
1000
5
1002
{
1000
Class
1070
     4
1000
SYM
1002
{
1002
}
1000
Color
1070
     1
1070
     7
1002
{
1002
}
1000
LType
1070
     4
1000
BYLAYER
1002
{
1002
}
1002
}
1000
SYMN
1070
     9
1000
7A
1002
{
1000
Class
1070
     4
1000
CEN
1002
{
1002
}
1000
Color
1070
     1
1070
   256
1002
{
1002
}
1000
LType
1070
     4
1000
BYLAYER
1002
{
1002
}
1002
}
1000
SYMW
1070
     9
1000
7
1002
{
1000
Class
1070
     4
1000
CEN
1002
{
1002
}
1000
Color
1070
     1
1070
   256
1002
{
1002
}
1000
LType
1070
     4
1000
BYLAYER
1002
{
1002
}
1002
}
1000
TCON
1070
     9
1000
0
1002
{
1000
Class
1070
     4
1000
CON,BGD
1002
{
1002
}
1000
Color
1070
     1
1070
   256
1002
{
1002
}
1000
LType
1070
     4
1000
BYLAYER
1002
{
1002
}
1002
}
1000
THLI
1070
     9
1000
4
1002
{
1000
Class
1070
     4
1000
BGD
1002
{
1002
}
1000
Color
1070
     1
1070
   256
1002
{
1002
}
1000
LType
1070
     4
1000
BYLAYER
1002
{
1002
}
1002
}
1000
TIT2
1070
     9
1000
RAHM2
1002
{
1000
Class
1070
     4
1000
SPZ,SYM
1002
{
1002
}
1000
Color
1070
     1
1070
   256
1002
{
1002
}
1000
LType
1070
     4
1000
BYLAYER
1002
{
1002
}
1002
}
1000
TIT3
1070
     9
1000
RAHM3
1002
{
1000
Class
1070
     4
1000
SPZ,SYM
1002
{
1002
}
1000
Color
1070
     1
1070
   256
1002
{
1002
}
1000
LType
1070
     4
1000
BYLAYER
1002
{
1002
}
1002
}
1000
TIT5
1070
     9
1000
RAHM5
1002
{
1000
Class
1070
     4
1000
SPZ,SYM
1002
{
1002
}
1000
Color
1070
     1
1070
   256
1002
{
1002
}
1000
LType
1070
     4
1000
BYLAYER
1002
{
1002
}
1002
}
1000
TIT7
1070
     9
1000
RAHM5
1002
{
1000
Class
1070
     4
1000
SPZ,SYM
1002
{
1002
}
1000
Color
1070
     1
1070
     7
1002
{
1002
}
1000
LType
1070
     4
1000
CONTINUOUS
1002
{
1002
}
1002
}
1000
TLEN
1070
     9
1000
0
1002
{
1000
Class
1070
     4
1000
CON,BGD
1002
{
1002
}
1000
Color
1070
     1
1070
   256
1002
{
1002
}
1000
LType
1070
     4
1000
BYLAYER
1002
{
1002
}
1002
}
1000
TRKN
1070
     9
1000
7A
1002
{
1000
Class
1070
     4
1000

1002
{
1002
}
1000
Color
1070
     1
1070
   256
1002
{
1002
}
1000
LType
1070
     4
1000
BYLAYER
1002
{
1002
}
1002
}
1000
TRKW
1070
     9
1000
7
1002
{
1000
Class
1070
     4
1000

1002
{
1002
}
1000
Color
1070
     1
1070
   256
1002
{
1002
}
1000
LType
1070
     4
1000
BYLAYER
1002
{
1002
}
1002
}
1000
TRLI
1070
     9
1000
4
1002
{
1000
Class
1070
     4
1000
BGD
1002
{
1002
}
1000
Color
1070
     1
1070
   256
1002
{
1002
}
1000
LType
1070
     4
1000
BYLAYER
1002
{
1002
}
1002
}
1000
TXT1
1070
     9
1000
6
1002
{
1000
Class
1070
     4
1000
SYM
1002
{
1002
}
1000
Color
1070
     1
1070
     2
1002
{
1002
}
1000
LType
1070
     4
1000
BYLAYER
1002
{
1002
}
1002
}
1000
TXT2
1070
     9
1000
6
1002
{
1000
Class
1070
     4
1000
SYM
1002
{
1002
}
1000
Color
1070
     1
1070
     2
1002
{
1002
}
1000
LType
1070
     4
1000
BYLAYER
1002
{
1002
}
1002
}
1000
TXT3
1070
     9
1000
6
1002
{
1000
Class
1070
     4
1000
SYM
1002
{
1002
}
1000
Color
1070
     1
1070
   256
1002
{
1002
}
1000
LType
1070
     4
1000
BYLAYER
1002
{
1002
}
1002
}
1000
TXT5
1070
     9
1000
6
1002
{
1000
Class
1070
     4
1000
SYM
1002
{
1002
}
1000
Color
1070
     1
1070
     7
1002
{
1002
}
1000
LType
1070
     4
1000
BYLAYER
1002
{
1002
}
1002
}
1000
TXT7
1070
     9
1000
6
1002
{
1000
Class
1070
     4
1000
SYM
1002
{
1002
}
1000
Color
1070
     1
1070
     7
1002
{
1002
}
1000
LType
1070
     4
1000
BYLAYER
1002
{
1002
}
1002
}
1000
VIEW
1070
     9
1000
VIEW
1002
{
1000
Class
1070
     4
1000
SPZ
1002
{
1002
}
1000
Color
1070
     1
1070
   256
1002
{
1002
}
1000
LType
1070
     4
1000
BYLAYER
1002
{
1002
}
1002
}
1000
VPLI
1070
     9
1000
2A
1002
{
1000
Class
1070
     4
1000

1002
{
1002
}
1000
Color
1070
     1
1070
   256
1002
{
1002
}
1000
LType
1070
     4
1000
BYLAYER
1002
{
1002
}
1002
}
1000
ZIZA
1070
     9
1000
4
1002
{
1000
Class
1070
     4
1000
BGD
1002
{
1002
}
1000
Color
1070
     1
1070
   256
1002
{
1002
}
1000
LType
1070
     4
1000
GENZIGZAG
1002
{
1002
}
1002
}
  0
APPID
  5
164F
330
9
100
AcDbSymbolTableRecord
100
AcDbRegAppTableRecord
  2
GENIUS_GENCFG4_13
 70
     0
1001
GENIUS_GENCFG_13
1071
938725495
1000
164F
1000
GEN
1070
     9
1000
GenCfgObject
1000
GenCfgShort
1000
GenCfgReal
1000
GenCfgBool
1000
GenCfgString
1000
GenCfgDim
1000
GenCfgLaySection
1000
GenCfgLType
1000
GenCfgFilter
1000
Balloon
1070
     0
1002
{
1000
GenIF
1070
     1
1070
     0
1002
{
1002
}
1000
GenPosInc
1070
     1
1070
     1
1002
{
1002
}
1000
GenPosBlk
1070
     1
1070
     3
1002
{
1002
}
1000
GenPosVar
1070
     1
1070
     3
1002
{
1002
}
1000
GenZiCir
1070
     2
1040
1.5
1002
{
1002
}
1000
MaxCharForCenteredText
1070
     1
1070
    30
1002
{
1002
}
1000
Snap
1070
     0
1002
{
1000
ActivationRadius
1070
     2
1040
1.0
1002
{
1002
}
1000
M
1070
     0
1002
{
1000
SnapStepX
1070
     2
1040
15.0
1002
{
1002
}
1000
SnapStepY
1070
     2
1040
15.0
1002
{
1002
}
1002
}
1000
I
1070
     0
1002
{
1000
SnapStepX
1070
     2
1040
1.0
1002
{
1002
}
1000
SnapStepY
1070
     2
1040
0.5
1002
{
1002
}
1002
}
1002
}
1002
}
1000
Centerline
1070
     0
1002
{
1000
ScaleNot
1070
     3
1070
     0
1002
{
1002
}
1000
M
1070
     0
1002
{
1000
GenCenAng
1070
     4
1000
45|90|135
1002
{
1002
}
1000
GenCenDia
1070
     2
1040
10.0
1002
{
1002
}
1000
GenCenDias
1070
     4
1000
10|20|30
1002
{
1002
}
1000
GenCenDist
1070
     2
1040
3.0
1002
{
1002
}
1000
GenCenLen
1070
     2
1040
10.0
1002
{
1002
}
1000
GenCenOff
1070
     2
1040
10.0
1002
{
1002
}
1000
GENCENOFF1
1070
     2
1040
10.0
1002
{
1002
}
1000
GENCENOFF2
1070
     2
1040
10.0
1002
{
1002
}
1002
}
1000
I
1070
     0
1002
{
1000
GenCenAng
1070
     4
1000
45|90|135
1002
{
1002
}
1000
GenCenDia
1070
     2
1040
0.5
1002
{
1002
}
1000
GenCenDias
1070
     4
1000
0.5|1.0|1.5
1002
{
1002
}
1000
GenCenDist
1070
     2
1040
0.125
1002
{
1002
}
1000
GenCenLen
1070
     2
1040
0.5
1002
{
1002
}
1000
GenCenOff
1070
     2
1040
0.5
1002
{
1002
}
1002
}
1002
}
1000
CLine
1070
     0
1002
{
1000
CAngArray
1070
     4
1000
30|45|60
1002
{
1002
}
1000
Typ
1070
     4
1000
XLINE
1002
{
1002
}
1000
M
1070
     0
1002
{
1000
CLinArray
1070
     4
1000
50
1002
{
1002
}
1002
}
1000
I
1070
     0
1002
{
1000
CLinArray
1070
     4
1000
0.125|0.25|0.5
1002
{
1002
}
1002
}
1002
}
1000
Detail
1070
     0
1002
{
1002
}
1000
Dimension
1070
     5
1002
{
1000
DIMALT
1070
     1
1070
     0
1002
{
1002
}
1000
DIMALTD
1070
     1
1070
     2
1002
{
1002
}
1000
DIMALTTD
1070
     1
1070
     4
1002
{
1002
}
1000
DIMALTTZ
1070
     1
1070
     0
1002
{
1002
}
1000
DIMALTU
1070
     1
1070
     2
1002
{
1002
}
1000
DIMALTZ
1070
     1
1070
     0
1002
{
1002
}
1000
DIMAUNIT
1070
     1
1070
     0
1002
{
1002
}
1000
DIMBLK
1070
     4
1000

1002
{
1002
}
1000
DIMBLK1
1070
     4
1000
_OPEN
1002
{
1002
}
1000
DIMBLK2
1070
     4
1000
_OPEN
1002
{
1002
}
1000
DIMCLRD
1070
     1
1070
   256
1002
{
1002
}
1000
DIMCLRE
1070
     1
1070
   256
1002
{
1002
}
1000
DIMCLRT
1070
     1
1070
   256
1002
{
1002
}
1000
DIMDLE
1070
     2
1040
0.0
1002
{
1002
}
1000
DIMFIT
1070
     1
1070
     3
1002
{
1002
}
1000
DIMJUST
1070
     1
1070
     0
1002
{
1002
}
1000
DIMLFAC
1070
     2
1040
1.0
1002
{
1002
}
1000
DIMLIM
1070
     1
1070
     0
1002
{
1002
}
1000
DIMPOST
1070
     4
1000
<>
1002
{
1002
}
1000
DIMRND
1070
     2
1040
0.0
1002
{
1002
}
1000
DIMSAH
1070
     1
1070
     1
1002
{
1002
}
1000
DIMSCALE
1070
     2
1040
10.0
1002
{
1002
}
1000
DIMSD1
1070
     1
1070
     0
1002
{
1002
}
1000
DIMSD2
1070
     1
1070
     0
1002
{
1002
}
1000
DIMSE1
1070
     1
1070
     0
1002
{
1002
}
1000
DIMSE2
1070
     1
1070
     0
1002
{
1002
}
1000
DIMSOXD
1070
     1
1070
     0
1002
{
1002
}
1000
DIMTAD
1070
     1
1070
     0
1002
{
1002
}
1000
DIMTFAC
1070
     2
1040
0.71
1002
{
1002
}
1000
DIMTIH
1070
     1
1070
     0
1002
{
1002
}
1000
DIMTIX
1070
     1
1070
     0
1002
{
1002
}
1000
DIMTM
1070
     2
1040
0.1
1002
{
1002
}
1000
DIMTOFL
1070
     1
1070
     0
1002
{
1002
}
1000
DIMTOH
1070
     1
1070
     0
1002
{
1002
}
1000
DIMTOL
1070
     1
1070
     0
1002
{
1002
}
1000
DIMTOLJ
1070
     1
1070
     1
1002
{
1002
}
1000
DIMTP
1070
     2
1040
0.1
1002
{
1002
}
1000
DIMTSZ
1070
     2
1040
0.0
1002
{
1002
}
1000
DIMTVP
1070
     2
1040
0.0
1002
{
1002
}
1000
DIMTXSTY
1070
     4
1000
STANDARD
1002
{
1002
}
1000
DIMTZIN
1070
     1
1070
     8
1002
{
1002
}
1000
DIMUNIT
1070
     1
1070
     2
1002
{
1002
}
1000
DIMUPT
1070
     1
1070
     0
1002
{
1002
}
1000
M
1070
     0
1002
{
1000
DIMALTF
1070
     2
1040
0.0393701
1002
{
1002
}
1000
DIMAPOST
1070
     4
1000
"
1002
{
1002
}
1000
DIMASZ
1070
     2
1040
3.0
1002
{
1002
}
1000
DIMCEN
1070
     2
1040
0.0
1002
{
1002
}
1000
DIMDEC
1070
     1
1070
     2
1002
{
1002
}
1000
DIMDLI
1070
     2
1040
10.0
1002
{
1002
}
1000
DIMEXE
1070
     2
1040
1.0
1002
{
1002
}
1000
DIMEXO
1070
     2
1040
1.0
1002
{
1002
}
1000
DIMGAP
1070
     2
1040
1.5
1002
{
1002
}
1000
DIMTDEC
1070
     1
1070
     3
1002
{
1002
}
1000
DIMTXT
1070
     2
1040
3.5
1002
{
1002
}
1000
DIMZIN
1070
     1
1070
     8
1002
{
1002
}
1002
}
1000
I
1070
     0
1002
{
1000
DIMALTF
1070
     2
1040
25.4
1002
{
1002
}
1000
DIMAPOST
1070
     4
1000
mm
1002
{
1002
}
1000
DIMASZ
1070
     2
1040
0.1
1002
{
1002
}
1000
DIMCEN
1070
     2
1040
0.0
1002
{
1002
}
1000
DIMDEC
1070
     1
1070
     4
1002
{
1002
}
1000
DIMDLI
1070
     2
1040
0.5
1002
{
1002
}
1000
DIMEXE
1070
     2
1040
0.1
1002
{
1002
}
1000
DIMEXO
1070
     2
1040
0.05
1002
{
1002
}
1000
DIMGAP
1070
     2
1040
0.06
1002
{
1002
}
1000
DIMTDEC
1070
     1
1070
     4
1002
{
1002
}
1000
DIMTXT
1070
     2
1040
0.12
1002
{
1002
}
1000
DIMZIN
1070
     1
1070
     7
1002
{
1002
}
1002
}
1000
GEN-ISO
1070
     5
1002
{
1000
NAME
1070
     4
1000
GEN-ISO
1002
{
1002
}
1000
DIMTAD
1070
     1
1070
     1
1002
{
1002
}
1000
DIMTOLJ
1070
     1
1070
     0
1002
{
1002
}
1000
DIMTOFL
1070
     1
1070
     1
1002
{
1002
}
1000
M
1070
     0
1002
{
1002
}
1000
I
1070
     0
1002
{
1002
}
1002
}
1000
GEN-ISO-POS
1070
     5
1002
{
1000
NAME
1070
     4
1000
GEN-ISO-POS
1002
{
1002
}
1000
DIMTOLJ
1070
     1
1070
     0
1002
{
1002
}
1000
DIMTXSTY
1070
     4
1000
STANDARD
1002
{
1002
}
1000
M
1070
     0
1002
{
1000
DIMASZ
1070
     2
1040
2.5
1002
{
1002
}
1000
DIMTXT
1070
     2
1040
5.0
1002
{
1002
}
1000
DIMGAP
1070
     2
1040
1.5
1002
{
1002
}
1002
}
1000
I
1070
     0
1002
{
1000
DIMASZ
1070
     2
1040
0.1
1002
{
1002
}
1000
DIMGAP
1070
     2
1040
0.06
1002
{
1002
}
1000
DIMTXT
1070
     2
1040
0.2
1002
{
1002
}
1002
}
1002
}
1000
GEN-ISO-CIR
1070
     5
1002
{
1000
NAME
1070
     4
1000
GEN-ISO$3
1002
{
1002
}
1000
DIMFIT
1070
     1
1070
     0
1002
{
1002
}
1000
DIMTAD
1070
     1
1070
     1
1002
{
1002
}
1000
DIMTIH
1070
     1
1070
     0
1002
{
1002
}
1000
DIMTIX
1070
     1
1070
     0
1002
{
1002
}
1000
DIMTOH
1070
     1
1070
     1
1002
{
1002
}
1000
DIMTOLJ
1070
     1
1070
     0
1002
{
1002
}
1000
DIMTOFL
1070
     1
1070
     0
1002
{
1002
}
1000
DIMUPT
1070
     1
1070
     1
1002
{
1002
}
1000
M
1070
     0
1002
{
1002
}
1000
I
1070
     0
1002
{
1002
}
1002
}
1000
GEN-ISO-RAD
1070
     5
1002
{
1000
NAME
1070
     4
1000
GEN-ISO$4
1002
{
1002
}
1000
DIMFIT
1070
     1
1070
     0
1002
{
1002
}
1000
DIMTAD
1070
     1
1070
     1
1002
{
1002
}
1000
DIMTIH
1070
     1
1070
     0
1002
{
1002
}
1000
DIMTIX
1070
     1
1070
     0
1002
{
1002
}
1000
DIMTOH
1070
     1
1070
     1
1002
{
1002
}
1000
DIMTOLJ
1070
     1
1070
     0
1002
{
1002
}
1000
DIMTOFL
1070
     1
1070
     0
1002
{
1002
}
1000
DIMUPT
1070
     1
1070
     1
1002
{
1002
}
1000
M
1070
     0
1002
{
1002
}
1000
I
1070
     0
1002
{
1002
}
1002
}
1000
GEN-ISO-ORD
1070
     5
1002
{
1000
NAME
1070
     4
1000
GEN-ISO$6
1002
{
1002
}
1000
DIMTOLJ
1070
     1
1070
     0
1002
{
1002
}
1000
M
1070
     0
1002
{
1000
DIMASZ
1070
     2
1040
3.0
1002
{
1002
}
1000
DIMGAP
1070
     2
1040
1.0
1002
{
1002
}
1000
DIMTXT
1070
     2
1040
3.0
1002
{
1002
}
1002
}
1000
I
1070
     0
1002
{
1002
}
1002
}
1000
GEN-ISO-AXE-F
1070
     5
1002
{
1000
NAME
1070
     4
1000
GEN-ISO-AXE-F
1002
{
1002
}
1000
DIMSE1
1070
     1
1070
     1
1002
{
1002
}
1000
DIMSE2
1070
     1
1070
     1
1002
{
1002
}
1000
DIMTAD
1070
     1
1070
     1
1002
{
1002
}
1000
DIMTOLJ
1070
     1
1070
     0
1002
{
1002
}
1000
DIMTOFL
1070
     1
1070
     1
1002
{
1002
}
1000
M
1070
     0
1002
{
1002
}
1000
I
1070
     0
1002
{
1002
}
1002
}
1000
GEN-ISO-AXE-H
1070
     5
1002
{
1000
NAME
1070
     4
1000
GEN-ISO-AXE-H
1002
{
1002
}
1000
DIMBLK1
1070
     4
1000
GENAXEH
1002
{
1002
}
1000
DIMLFAC
1070
     2
1040
2.0
1002
{
1002
}
1000
DIMSAH
1070
     1
1070
     1
1002
{
1002
}
1000
DIMSE1
1070
     1
1070
     1
1002
{
1002
}
1000
DIMSE2
1070
     1
1070
     1
1002
{
1002
}
1000
DIMTAD
1070
     1
1070
     1
1002
{
1002
}
1000
DIMTOLJ
1070
     1
1070
     0
1002
{
1002
}
1000
DIMTOFL
1070
     1
1070
     1
1002
{
1002
}
1000
M
1070
     0
1002
{
1002
}
1000
I
1070
     0
1002
{
1002
}
1002
}
1000
GEN-ANSI
1070
     5
1002
{
1000
NAME
1070
     4
1000
GEN-ANSI
1002
{
1002
}
1000
DIMTIH
1070
     1
1070
     1
1002
{
1002
}
1000
DIMTOH
1070
     1
1070
     1
1002
{
1002
}
1000
DIMTAD
1070
     1
1070
     0
1002
{
1002
}
1000
DIMTOLJ
1070
     1
1070
     1
1002
{
1002
}
1000
M
1070
     0
1002
{
1002
}
1000
I
1070
     0
1002
{
1002
}
1002
}
1000
GEN-ANSI-POS
1070
     5
1002
{
1000
NAME
1070
     4
1000
GEN-ANSI-POS
1002
{
1002
}
1000
DIMTOLJ
1070
     1
1070
     1
1002
{
1002
}
1000
DIMTXSTY
1070
     4
1000
STANDARD
1002
{
1002
}
1000
M
1070
     0
1002
{
1000
DIMASZ
1070
     2
1040
2.5
1002
{
1002
}
1000
DIMGAP
1070
     2
1040
1.5
1002
{
1002
}
1000
DIMTXT
1070
     2
1040
5.0
1002
{
1002
}
1002
}
1000
I
1070
     0
1002
{
1000
DIMASZ
1070
     2
1040
0.1
1002
{
1002
}
1000
DIMGAP
1070
     2
1040
0.06
1002
{
1002
}
1000
DIMTXT
1070
     2
1040
0.2
1002
{
1002
}
1002
}
1002
}
1000
GEN-ANSI-CIR
1070
     5
1002
{
1000
NAME
1070
     4
1000
GEN-ANSI$3
1002
{
1002
}
1000
DIMFIT
1070
     1
1070
     0
1002
{
1002
}
1000
DIMTAD
1070
     1
1070
     0
1002
{
1002
}
1000
DIMTIH
1070
     1
1070
     1
1002
{
1002
}
1000
DIMTIX
1070
     1
1070
     0
1002
{
1002
}
1000
DIMTOFL
1070
     1
1070
     0
1002
{
1002
}
1000
DIMTOH
1070
     1
1070
     1
1002
{
1002
}
1000
DIMTOLJ
1070
     1
1070
     1
1002
{
1002
}
1000
DIMUPT
1070
     1
1070
     1
1002
{
1002
}
1000
M
1070
     0
1002
{
1002
}
1000
I
1070
     0
1002
{
1002
}
1002
}
1000
GEN-ANSI-RAD
1070
     5
1002
{
1000
NAME
1070
     4
1000
GEN-ANSI$4
1002
{
1002
}
1000
DIMFIT
1070
     1
1070
     0
1002
{
1002
}
1000
DIMTAD
1070
     1
1070
     0
1002
{
1002
}
1000
DIMTIH
1070
     1
1070
     1
1002
{
1002
}
1000
DIMTIX
1070
     1
1070
     0
1002
{
1002
}
1000
DIMTOFL
1070
     1
1070
     0
1002
{
1002
}
1000
DIMTOH
1070
     1
1070
     1
1002
{
1002
}
1000
DIMTOLJ
1070
     1
1070
     1
1002
{
1002
}
1000
DIMUPT
1070
     1
1070
     1
1002
{
1002
}
1000
M
1070
     0
1002
{
1002
}
1000
I
1070
     0
1002
{
1002
}
1002
}
1000
GEN-ANSI-ORD
1070
     5
1002
{
1000
NAME
1070
     4
1000
GEN-ANSI$6
1002
{
1002
}
1000
DIMTAD
1070
     1
1070
     0
1002
{
1002
}
1000
DIMTIH
1070
     1
1070
     1
1002
{
1002
}
1000
DIMTOH
1070
     1
1070
     1
1002
{
1002
}
1000
DIMTOLJ
1070
     1
1070
     1
1002
{
1002
}
1000
M
1070
     0
1002
{
1002
}
1000
I
1070
     0
1002
{
1002
}
1002
}
1000
GEN-ANSI-AXE-F
1070
     5
1002
{
1000
NAME
1070
     4
1000
GEN-ANSI-AXE-F
1002
{
1002
}
1000
DIMBLK1
1070
     4
1000
GENAXEH
1002
{
1002
}
1000
DIMSAH
1070
     1
1070
     1
1002
{
1002
}
1000
DIMSE1
1070
     1
1070
     1
1002
{
1002
}
1000
DIMSE2
1070
     1
1070
     1
1002
{
1002
}
1000
DIMTAD
1070
     1
1070
     0
1002
{
1002
}
1000
DIMTIH
1070
     1
1070
     1
1002
{
1002
}
1000
DIMTOH
1070
     1
1070
     1
1002
{
1002
}
1000
DIMTOLJ
1070
     1
1070
     1
1002
{
1002
}
1000
M
1070
     0
1002
{
1002
}
1000
I
1070
     0
1002
{
1002
}
1002
}
1000
GEN-ANSI-AXE-H
1070
     5
1002
{
1000
NAME
1070
     4
1000
GEN-ANSI-AXE-H
1002
{
1002
}
1000
DIMBLK1
1070
     4
1000
GENAXEH
1002
{
1002
}
1000
DIMLFAC
1070
     2
1040
2.0
1002
{
1002
}
1000
DIMSAH
1070
     1
1070
     1
1002
{
1002
}
1000
DIMSE1
1070
     1
1070
     1
1002
{
1002
}
1000
DIMSE2
1070
     1
1070
     1
1002
{
1002
}
1000
DIMTAD
1070
     1
1070
     0
1002
{
1002
}
1000
DIMTOFL
1070
     1
1070
     1
1002
{
1002
}
1000
DIMTOLJ
1070
     1
1070
     1
1002
{
1002
}
1000
M
1070
     0
1002
{
1002
}
1000
I
1070
     0
1002
{
1002
}
1002
}
1002
}
1000
DimSet
1070
     0
1002
{
1000
ChainSum
1070
     3
1070
     0
1002
{
1002
}
1000
DimDclTyp0
1070
     4
1000
dim23
1002
{
1002
}
1000
HorBra
1070
     3
1070
     0
1002
{
1002
}
1000
StrDia
1070
     4
1000
%%c<>
1002
{
1002
}
1000
StrRad
1070
     4
1000
R<>
1002
{
1002
}
1000
TextMinus
1070
     4
1000
<>
1002
{
1002
}
1000
TextPlus
1070
     4
1000
<>
1002
{
1002
}
1000
M
1070
     0
1002
{
1000
DimdliFirst
1070
     2
1040
12.0
1002
{
1002
}
1000
PointMakeDist
1070
     2
1040
10.0
1002
{
1002
}
1002
}
1000
I
1070
     0
1002
{
1000
DimdliFirst
1070
     2
1040
0.5
1002
{
1002
}
1000
PointMakeDist
1070
     2
1040
0.5
1002
{
1002
}
1002
}
1000
ordinate
1070
     4
1000
JIS
1002
{
1002
}
1002
}
1000
Drawing
1070
     0
1002
{
1000
ChamferDimMode
1070
     1
1070
     2
1002
{
1002
}
1000
Gen_Fiso
1070
    -3
1040
1.0
1002
{
1002
}
1000
GenDimStil
1070
     4
1000
ISO
1002
{
1002
}
1000
GenDwgUScale
1070
     2
1040
1.0
1002
{
1002
}
1000
GenInch
1070
     4
1000
M
1002
{
1002
}
1000
GenPlotScale
1070
     4
1000
1:1
1002
{
1002
}
1000
Revisi
1070
     4
1000
0
1002
{
1002
}
1000
Version
1070
    -5
1000
14.01a/Sep 23 1998
1002
{
1002
}
1000
Platform
1070
    -5
1000
WINNT
1002
{
1002
}
1002
}
1000
DwgVar
1070
     0
1002
{
1000
M
1070
     0
1002
{
1002
}
1000
I
1070
     0
1002
{
1002
}
1002
}
1000
Hatch
1070
     0
1002
{
1000
GenHtcFlag
1070
     3
1070
     0
1002
{
1002
}
1002
}
1000
Info_Pos
1070
     0
1002
{
1000
>
1002
}
1000
Layer
1070
     6
1002
{
1000
Defs
1070
     0
1002
{
1000
>
1002
}
1000
EntSort
1070
     0
1002
{
1000
>
1002
}
1000
Match
1070
     0
1002
{
1002
}
1000
Settings
1070
     0
1002
{
1000
FocGrNC
1070
     3
1070
     0
1002
{
1002
}
1000
FocGrLo
1070
     3
1070
     0
1002
{
1002
}
1000
FocLoNC
1070
     3
1070
     0
1002
{
1002
}
1000
FocusCol
1070
     1
1070
   253
1002
{
1002
}
1000
GenStdLG
1070
     4
1000

1002
{
1002
}
1000
LayMatch
1070
     3
1070
     0
1002
{
1002
}
1000
LgOff
1070
     3
1070
     0
1002
{
1002
}
1000
CurLG
1070
    -5
1000

1002
{
1002
}
1002
}
1002
}
1000
LType
1070
     0
1002
{
1000
GEN3
1070
     7
1000
genius.lin
1002
{
1002
}
1000
GEN7
1070
     7
1000
genius.lin
1002
{
1002
}
1000
GEN4A
1070
     7
1000
genius.lin
1002
{
1002
}
1000
GEN3A
1070
     7
1000
genius.lin
1002
{
1002
}
1000
GEN7A
1070
     7
1000
genius.lin
1002
{
1002
}
1000
GENZIGZAG
1070
     7
1000
genius.lin
1002
{
1002
}
1002
}
1000
Objecter
1070
     0
1002
{
1000
CreateGroups
1070
     3
1070
     0
1002
{
1002
}
1000
LaySwitch
1070
     3
1070
     1
1002
{
1002
}
1000
LastObj
1070
    -5
1000
269B
1002
{
1002
}
1000
TimeStamp
1070
    -5
1000
19990930.14031158
1002
{
1002
}
1002
}
1000
OSWiz
1070
     0
1002
{
1000
Filter
1070
     0
1002
{
1000
HATCH
1070
     8
1002
{
1000
EntityType
1070
     4
1000
LINE
1002
{
1002
}
1000
Layer
1070
     4
1000
8,8N,*-8,*-8N
1002
{
1002
}
1000
Linetype
1070
     4
1000
*
1002
{
1002
}
1000
Color
1070
     4
1000
*
1002
{
1002
}
1000
ApplyInDims
1070
     3
1070
     1
1002
{
1002
}
1002
}
1000
SYMBOLS
1070
     8
1002
{
1000
EntityType
1070
     4
1000
*
1002
{
1002
}
1000
Layer
1070
     4
1000
[5-6],[5-6]N,*-[5-6],*-[5-6]N,AM_PARDIM,AM_REFDIM
1002
{
1002
}
1000
Linetype
1070
     4
1000
*
1002
{
1002
}
1000
Color
1070
     4
1000
*
1002
{
1002
}
1000
ApplyInDims
1070
     3
1070
     1
1002
{
1002
}
1002
}
1000
FEM
1070
     8
1002
{
1000
EntityType
1070
     4
1000
*
1002
{
1002
}
1000
Layer
1070
     4
1000
4A,4AN,*-4A,*-4AN
1002
{
1002
}
1000
Linetype
1070
     4
1000
*
1002
{
1002
}
1000
Color
1070
     4
1000
*
1002
{
1002
}
1000
ApplyInDims
1070
     3
1070
     1
1002
{
1002
}
1002
}
1002
}
1002
}
1000
PaList
1070
     0
1002
{
1000
AcadMBomWarning
1070
     3
1070
     1
1002
{
1002
}
1000
AutoUpdatePartList
1070
     1
1070
     0
1002
{
1002
}
1000
ReadInfoPoint
1070
     3
1070
     0
1002
{
1002
}
1000
ReadPosNr
1070
     3
1070
     1
1002
{
1002
}
1000
RevStr
1070
     4
1000
0
1002
{
1002
}
1000
rebuildpending
1070
    -4
1070
     1
1002
{
1002
}
1000
rebuildpendingtime
1070
    -5
1000
929490300
1002
{
1002
}
1002
}
1000
Paper
1070
     0
1002
{
1000
Layer
1070
    -5
1000
7A
1002
{
1002
}
1002
}
1000
PartDB
1070
     0
1002
{
1000
GenDbOwner
1070
     4
1000

1002
{
1002
}
1000
stang
1070
     2
1040
0.01
1002
{
1002
}
1002
}
1000
System
1070
     0
1002
{
1002
}
1000
Title
1070
     0
1002
{
1000
MakeView
1070
     1
1070
     2
1002
{
1002
}
1002
}
1000
Tools
1070
     0
1002
{
1000
Trans
1070
     0
1002
{
1000
Drawingtranslation
1070
    -4
1070
     1
1002
{
1002
}
1000
upreserve
1070
     3
1070
     0
1002
{
1002
}
1000
originally_on
1070
    -4
1070
     0
1002
{
1002
}
1000
sourcelang
1070
    -5
1000
J
1002
{
1002
}
1002
}
1002
}
  0
APPID
  5
1650
330
9
100
AcDbSymbolTableRecord
100
AcDbRegAppTableRecord
  2
GENIUS_GEVCFG0_13
 70
     0
1001
GENIUS_GENCFG_13
1071
938725396
1000
1650
1000
GEV
1070
     1
1000
GenCfgObject
1000
VED
1070
     0
1002
{
1002
}
  0
APPID
  5
1675
330
9
100
AcDbSymbolTableRecord
100
AcDbRegAppTableRecord
  2
GENIUS_GENOBJ-N-CEN_13
 70
     0
  0
APPID
  5
2723
330
9
100
AcDbSymbolTableRecord
100
AcDbRegAppTableRecord
  2
GENIUS_GEFCFG0_13
 70
     0
1001
GENIUS_GENCFG_13
1071
938725396
1000
2723
1000
GEF
1070
     5
1000
GenCfgObject
1000
GenCfgString
1000
GenCfgReal
1000
GenCfgShort
1000
GenCfgBool
1000
System
1070
     0
1002
{
1002
}
1000
Prese
1070
     0
1002
{
1000
Funk
1070
     1
1000

1002
{
1002
}
1000
FunkDef
1070
     1
1000

1002
{
1002
}
1000
GefIso
1070
     1
1000
DIN
1002
{
1002
}
1002
}
1000
FEM
1070
     0
1002
{
1000
LayGroup
1070
     1
1000
FEM
1002
{
1002
}
1000
IncrCoef
1070
     2
1040
0.0
1002
{
1002
}
1002
}
1000
Shaft
1070
     0
1002
{
1000
Interrupt
1070
     3
1070
     0
1002
{
1002
}
1002
}
1000
PartDb
1070
     0
1002
{
1000
PartCreate
1070
     0
1002
{
1002
}
1000
SCP
1070
     0
1002
{
1002
}
1000
Symbol
1070
     0
1002
{
1002
}
1002
}
1000
Symbol
1070
     0
1002
{
1000
WeldStyle
1070
     1
1000
JIS
1002
{
1002
}
1000
WeldSize
1070
     2
1040
1.0
1002
{
1002
}
1000
WeldFlag
1070
     4
1070
     1
1002
{
1002
}
1000
WeldOffset
1070
     4
1070
     1
1002
{
1002
}
1000
TolCType
1070
     1
1000
ISO
1002
{
1002
}
1000
TolCSize
1070
     2
1040
1.0
1002
{
1002
}
1000
STextureSize
1070
     2
1040
1.0
1002
{
1002
}
1000
SurfaceType
1070
     1
1000

1002
{
1002
}
1000
M
1070
     0
1002
{
1000
WeldWidth
1070
     2
1040
3.0
1002
{
1002
}
1002
}
1000
I
1070
     0
1002
{
1000
WeldWidth
1070
     2
1040
0.125
1002
{
1002
}
1002
}
1002
}
1000
FEA
1070
     0
1002
{
1000
LayGroup
1070
     1
1000
FEA
1002
{
1002
}
1002
}
  0
APPID
  5
2735
330
9
100
AcDbSymbolTableRecord
100
AcDbRegAppTableRecord
  2
MCAD_NO_VIS
 70
     0
  0
APPID
  5
2736
330
9
100
AcDbSymbolTableRecord
100
AcDbRegAppTableRecord
  2
ACAD_TEMP_GRAPHIC
 70
     0
  0
APPID
  5
2749
330
9
100
AcDbSymbolTableRecord
100
AcDbRegAppTableRecord
  2
ACATTRIBSERVICES
 70
     0
  0
APPID
  5
2823
330
9
100
AcDbSymbolTableRecord
100
AcDbRegAppTableRecord
  2
GENIUS_GENDIMSH_14
 70
     0
  0
APPID
  5
283C
330
9
100
AcDbSymbolTableRecord
100
AcDbRegAppTableRecord
  2
GENIUS_GENREC_14
 70
     0
  0
APPID
  5
283D
330
9
100
AcDbSymbolTableRecord
100
AcDbRegAppTableRecord
  2
GENIUS_GENOBJ-N-REC_13
 70
     0
  0
APPID
  5
2F9B
330
9
100
AcDbSymbolTableRecord
100
AcDbRegAppTableRecord
  2
GENIUS_GENDIM_13
 70
     0
  0
APPID
  5
2F9D
330
9
100
AcDbSymbolTableRecord
100
AcDbRegAppTableRecord
  2
GENIUS_GE3DTOL_13
 70
     0
  0
APPID
  5
2FC2
330
9
100
AcDbSymbolTableRecord
100
AcDbRegAppTableRecord
  2
AD_DRAW
 70
     0
  0
APPID
  5
300E
330
9
100
AcDbSymbolTableRecord
100
AcDbRegAppTableRecord
  2
ASURF_PCURVE_APPNAME
 70
     0
  0
APPID
  5
3013
330
9
100
AcDbSymbolTableRecord
100
AcDbRegAppTableRecord
  2
AMG_3D2D_5.0
 70
     0
  0
APPID
  5
3041
330
9
100
AcDbSymbolTableRecord
100
AcDbRegAppTableRecord
  2
DESIGNERASSEMBLIES
 70
     0
  0
APPID
  5
3048
330
9
100
AcDbSymbolTableRecord
100
AcDbRegAppTableRecord
  2
ACADM_DIM_EDIT
 70
     0
  0
APPID
  5
3049
330
9
100
AcDbSymbolTableRecord
100
AcDbRegAppTableRecord
  2
AMDT_DM_ADJ
 70
     0
  0
ENDTAB
  0
TABLE
  2
DIMSTYLE
  5
A
330
0
100
AcDbSymbolTable
 70
    15
100
AcDbDimStyleTable
 71
     1
340
1212
  0
DIMSTYLE
105
520
330
A
100
AcDbSymbolTableRecord
100
AcDbDimStyleTableRecord
  2
STANDARD
 70
     0
340
F
  0
DIMSTYLE
105
1210
330
A
100
AcDbSymbolTableRecord
100
AcDbDimStyleTableRecord
  2
GEN-ISO$4
 70
     0
  3
<>
  4
"
 40
2.0
 41
3.0
 42
1.0
 43
10.0
 44
1.0
 47
0.1
 48
0.1
 73
     0
 77
     1
 78
     8
140
3.5
141
0.0
143
0.0393701
146
0.71
147
1.5
173
     1
176
   256
177
   256
178
   256
271
     2
272
     3
274
     4
283
     0
284
     8
288
     1
289
     0
340
F
341
A07
342
A07
  0
DIMSTYLE
105
1211
330
A
100
AcDbSymbolTableRecord
100
AcDbDimStyleTableRecord
  2
GEN-ISO$3
 70
     0
  3
<>
  4
"
 40
2.0
 41
3.0
 42
1.0
 43
10.0
 44
1.0
 47
0.1
 48
0.1
 73
     0
 77
     1
 78
     8
140
3.5
141
0.0
143
0.0393701
146
0.71
147
1.5
173
     1
176
   256
177
   256
178
   256
271
     2
272
     3
274
     4
283
     0
284
     8
288
     1
289
     0
340
F
341
A07
342
A07
  0
DIMSTYLE
105
1212
102
{ACAD_REACTORS
330
3763
102
}
330
A
100
AcDbSymbolTableRecord
100
AcDbDimStyleTableRecord
  2
GEN-ISO
 70
     0
  3
<>
  4
"
 40
2.0
 41
3.0
 42
1.0
 43
10.0
 44
1.0
 47
0.1
 48
0.1
 73
     0
 74
     0
 77
     1
 78
     8
140
3.5
141
0.0
143
0.0393701
146
0.71
147
1.5
172
     1
173
     1
176
   256
177
   256
178
   256
271
     2
272
     3
274
     4
283
     0
284
     8
340
F
341
A07
342
A07
  0
DIMSTYLE
105
2780
330
A
100
AcDbSymbolTableRecord
100
AcDbDimStyleTableRecord
  2
GEN-ISO$6
 70
     0
  3
<>
  4
"
 40
2.0
 41
3.0
 42
1.0
 43
10.0
 44
1.0
 47
0.1
 48
0.1
 73
     0
 74
     0
 78
     8
140
3.0
141
0.0
143
0.0393701
146
0.71
147
1.0
173
     1
176
   256
177
   256
178
   256
271
     2
272
     3
274
     4
283
     0
284
     8
340
F
341
A07
343
A07
344
A07
  0
DIMSTYLE
105
2781
330
A
100
AcDbSymbolTableRecord
100
AcDbDimStyleTableRecord
  2
GEN-ISO-POS
 70
     0
  3
<>
  4
"
 40
2.0
 41
2.5
 42
1.0
 43
10.0
 44
1.0
 47
0.1
 48
0.1
 73
     0
 74
     0
 78
     8
140
5.0
141
0.0
143
0.0393701
146
0.71
147
1.5
173
     1
176
   256
177
   256
178
   256
271
     2
272
     3
274
     4
283
     0
284
     8
340
F
341
A07
343
A07
344
A07
  0
DIMSTYLE
105
2782
330
A
100
AcDbSymbolTableRecord
100
AcDbDimStyleTableRecord
  2
GEN-ISO-AXE-F
 70
     0
  3
<>
  4
"
 40
2.0
 41
3.0
 42
1.0
 43
10.0
 44
1.0
 47
0.1
 48
0.1
 73
     0
 74
     0
 75
     1
 76
     1
 77
     1
 78
     8
140
3.5
141
0.0
143
0.0393701
146
0.71
147
1.5
172
     1
173
     1
176
   256
177
   256
178
   256
271
     2
272
     3
274
     4
283
     0
284
     8
340
F
341
A07
343
A07
344
A07
  0
DIMSTYLE
105
2783
330
A
100
AcDbSymbolTableRecord
100
AcDbDimStyleTableRecord
  2
GEN-ISO-AXE-H
 70
     0
  3
<>
  4
"
 40
2.0
 41
3.0
 42
1.0
 43
10.0
 44
1.0
 47
0.1
 48
0.1
 73
     0
 74
     0
 75
     1
 76
     1
 77
     1
 78
     8
140
3.5
141
0.0
143
0.0393701
144
2.0
146
0.71
147
1.5
172
     1
173
     1
176
   256
177
   256
178
   256
271
     2
272
     3
274
     4
283
     0
284
     8
340
F
341
277A
343
277A
344
A07
  0
DIMSTYLE
105
33A4
330
A
100
AcDbSymbolTableRecord
100
AcDbDimStyleTableRecord
  2
AM_ISO
 70
     0
  4
"
 41
2.5
 42
1.0
 43
10.0
 44
1.0
 47
0.1
 48
0.1
 73
     0
 74
     0
 77
     1
 78
     8
 79
     2
140
3.5
141
0.0
143
0.0393701
146
0.71
147
1.5
172
     1
176
   256
177
   256
178
     2
271
     2
272
     3
274
     4
283
     0
284
     8
340
F
371
    -1
372
    -1
  0
DIMSTYLE
105
33A5
330
A
100
AcDbSymbolTableRecord
100
AcDbDimStyleTableRecord
  2
AM_ISO$3
 70
     0
  4
"
 41
2.5
 42
1.0
 43
10.0
 44
1.0
 47
0.1
 48
0.1
 73
     0
 77
     1
 78
     8
 79
     2
140
3.5
141
0.0
143
0.0393701
146
0.71
147
1.5
176
   256
177
   256
178
     2
271
     2
272
     3
274
     4
283
     0
284
     8
288
     1
289
     0
340
F
371
    -1
372
    -1
  0
DIMSTYLE
105
33A6
330
A
100
AcDbSymbolTableRecord
100
AcDbDimStyleTableRecord
  2
AM_ISO$4
 70
     0
  4
"
 41
2.5
 42
1.0
 43
10.0
 44
1.0
 47
0.1
 48
0.1
 73
     0
 77
     1
 78
     8
 79
     2
140
3.5
141
0.0
143
0.0393701
146
0.71
147
1.5
176
   256
177
   256
178
     2
271
     2
272
     3
274
     4
283
     0
284
     8
288
     1
289
     0
340
F
371
    -1
372
    -1
  0
DIMSTYLE
105
33A7
330
A
100
AcDbSymbolTableRecord
100
AcDbDimStyleTableRecord
  2
AM_ISO$6
 70
     0
  4
"
 41
2.5
 42
1.0
 43
10.0
 44
1.0
 47
0.1
 48
0.1
 73
     0
 74
     0
 78
     8
 79
     2
140
3.5
141
0.0
143
0.0393701
146
0.71
147
1.5
172
     1
176
   256
177
   256
178
     2
271
     2
272
     3
274
     4
283
     0
284
     8
340
F
371
    -1
372
    -1
  0
DIMSTYLE
105
33A8
330
A
100
AcDbSymbolTableRecord
100
AcDbDimStyleTableRecord
  2
AM_ISO$7
 70
     0
  4
"
 41
2.5
 42
1.0
 43
10.0
 44
1.0
 47
0.1
 48
0.1
 73
     0
 74
     0
 77
     1
 78
     8
 79
     2
140
5.0
141
0.0
143
0.0393701
146
0.71
147
1.5
172
     1
176
   256
177
   256
178
     2
271
     2
272
     3
274
     4
283
     0
284
     8
340
F
371
    -1
372
    -1
  0
DIMSTYLE
105
33A9
330
A
100
AcDbSymbolTableRecord
100
AcDbDimStyleTableRecord
  2
AM_ISO$SF
 70
     0
  4
"
 41
2.5
 42
1.0
 43
10.0
 44
1.0
 47
0.1
 48
0.1
 73
     0
 74
     0
 75
     1
 76
     1
 77
     1
 78
     8
 79
     2
140
3.5
141
0.0
143
0.0393701
146
0.71
147
1.5
172
     1
176
   256
177
   256
178
     2
271
     2
272
     3
274
     4
283
     0
284
     8
340
F
371
    -1
372
    -1
  0
DIMSTYLE
105
33AA
330
A
100
AcDbSymbolTableRecord
100
AcDbDimStyleTableRecord
  2
AM_ISO$SH
 70
     0
  4
"
 41
2.5
 42
1.0
 43
10.0
 44
1.0
 47
0.1
 48
0.1
 73
     0
 74
     0
 75
     1
 76
     1
 77
     1
 78
     8
 79
     2
140
3.5
141
0.0
143
0.0393701
144
2.0
146
0.71
147
1.5
172
     1
173
     1
176
   256
177
   256
178
     2
271
     2
272
     3
274
     4
283
     0
284
     8
340
F
341
277A
343
277A
371
    -1
372
    -1
  0
ENDTAB
  0
TABLE
  2
BLOCK_RECORD
  5
1
330
0
100
AcDbSymbolTable
 70
    33
  0
BLOCK_RECORD
  5
18
102
{ACAD_XDICTIONARY
360
2793
102
}
330
1
100
AcDbSymbolTableRecord
100
AcDbBlockTableRecord
  2
*MODEL_SPACE
340
272D
  0
BLOCK_RECORD
  5
15
330
1
100
AcDbSymbolTableRecord
100
AcDbBlockTableRecord
  2
*PAPER_SPACE
340
272E
  0
BLOCK_RECORD
  5
A07
330
1
100
AcDbSymbolTableRecord
100
AcDbBlockTableRecord
  2
_OPEN
340
0
102
{BLKREFS
331
37DE
331
37DF
331
3864
331
3865
331
386D
331
386E
102
}
  0
BLOCK_RECORD
  5
277A
330
1
100
AcDbSymbolTableRecord
100
AcDbBlockTableRecord
  2
GENAXEH
340
0
  0
BLOCK_RECORD
  5
3038
330
1
100
AcDbSymbolTableRecord
100
AcDbBlockTableRecord
  2
*U2
340
0
  0
BLOCK_RECORD
  5
31D4
330
1
100
AcDbSymbolTableRecord
100
AcDbBlockTableRecord
  2
図番
340
0
310
2800000020000000200000000100080000000000000400000000000000000000000000000000000000000000000080000080000000808000800000008000800080800000C0C0C000C0DCC000F0CAA6000020400000206000002080000020A0000020C0000020E00000400000004020000040400000406000004080000040A0
310
000040C0000040E00000600000006020000060400000606000006080000060A0000060C0000060E00000800000008020000080400000806000008080000080A0000080C0000080E00000A0000000A0200000A0400000A0600000A0800000A0A00000A0C00000A0E00000C0000000C0200000C0400000C0600000C0800000C0
310
A00000C0C00000C0E00000E0000000E0200000E0400000E0600000E0800000E0A00000E0C00000E0E00040000000400020004000400040006000400080004000A0004000C0004000E00040200000402020004020400040206000402080004020A0004020C0004020E000404000004040200040404000404060004040800040
310
40A0004040C0004040E00040600000406020004060400040606000406080004060A0004060C0004060E00040800000408020004080400040806000408080004080A0004080C0004080E00040A0000040A0200040A0400040A0600040A0800040A0A00040A0C00040A0E00040C0000040C0200040C0400040C0600040C08000
310
40C0A00040C0C00040C0E00040E0000040E0200040E0400040E0600040E0800040E0A00040E0C00040E0E00080000000800020008000400080006000800080008000A0008000C0008000E00080200000802020008020400080206000802080008020A0008020C0008020E00080400000804020008040400080406000804080
310
008040A0008040C0008040E00080600000806020008060400080606000806080008060A0008060C0008060E00080800000808020008080400080806000808080008080A0008080C0008080E00080A0000080A0200080A0400080A0600080A0800080A0A00080A0C00080A0E00080C0000080C0200080C0400080C0600080C0
310
800080C0A00080C0C00080C0E00080E0000080E0200080E0400080E0600080E0800080E0A00080E0C00080E0E000C0000000C0002000C0004000C0006000C0008000C000A000C000C000C000E000C0200000C0202000C0204000C0206000C0208000C020A000C020C000C020E000C0400000C0402000C0404000C0406000C0
310
408000C040A000C040C000C040E000C0600000C0602000C0604000C0606000C0608000C060A000C060C000C060E000C0800000C0802000C0804000C0806000C0808000C080A000C080C000C080E000C0A00000C0A02000C0A04000C0A06000C0A08000C0A0A000C0A0C000C0A0E000C0C00000C0C02000C0C04000C0C06000
310
C0C08000C0C0A000F0FBFF00A4A0A000808080000000FF0000FF000000FFFF00FF000000FF00FF00FFFF0000FFFFFF0000000000000000000000000000000000000000000000000000000000000000000000000000000000000000000000000000000000000000000000000000000000000000000000000000000000000000
310
00000000000000000000000000000000000000000000000000000000000000000000000000000000000000000000000000000000000000000000000000000000000000000000000000000000000000000000000000000000000000000000000000000000000000000000000000000000000000000000000000000000000000
310
00000000000000000000000000000000000000000000000000000000000000000000000000000000000000000000000000000000000000000000000000000000000000000000000000000000000000000000000000000000000000000000000000000000000000000000000000000000000000000000000000000000000000
310
00000000000000000000000000000000000000000000000000000000000000000000000000000000000000000000000000000000FCFCFCFCFCFCFCFCFCFCFCFCFCFCFCFCFCFCFCFCFCFCFCFCFCFCFCFCFCFC0000FC003C3CFC000000000000000000000000000000000000000000000000FC0000FC3C3C3C3C000000000000
310
000000000000000000000000000000000000FC0000FC3C3C3C3C000000000000000000000000000000000000000000000000FC0000FC3C3C3CFC000000000000000000000000000000000000000000000000FC0000FC3C3C3CFC000000000000000000000000000000000000000000000000FC0000FC3C3C3CFC0000000000
310
00000000000000000000000000000000000000FC0000FC000000FC000000000000000000000000000000000000000000000000FC000000000000000000000000000000000000000000000000000000000000000000000000000000000000000000000000000000000000000000000000000000000000000000000000000000
310
00000000000000000000000000000000000000000000000000000000000000000000000000000000000000000000000000000000000000000000000000000000000000000000000000000000000000000000000000000000000000000000000000000000000000000000000000000000000000000000000000000000000000
310
00000000000000000000000000000000000000000000000000000000000000000000000000000000000000000000000000000000000000000000000000000000000000000000000000000000000000000000000000000000000000000000000000000000000000000000000000000000000000000000000000000000000000
310
0000000000000000000000000000000000000000000000000000000000000000000000000000000000000000000000000000000000000000
  0
BLOCK_RECORD
  5
32E2
330
1
100
AcDbSymbolTableRecord
100
AcDbBlockTableRecord
  2
DA_IMAGEDIMGROUP_1
340
0
  0
BLOCK_RECORD
  5
32E6
330
1
100
AcDbSymbolTableRecord
100
AcDbBlockTableRecord
  2
DA_IMAGEDIMGROUP_2
340
0
  0
BLOCK_RECORD
  5
32ED
330
1
100
AcDbSymbolTableRecord
100
AcDbBlockTableRecord
  2
DA_IMAGEDIMGROUP_3
340
0
  0
BLOCK_RECORD
  5
32F6
330
1
100
AcDbSymbolTableRecord
100
AcDbBlockTableRecord
  2
DC_GROUP_19
340
0
  0
BLOCK_RECORD
  5
32FC
330
1
100
AcDbSymbolTableRecord
100
AcDbBlockTableRecord
  2
DC_GROUP_20
340
0
  0
BLOCK_RECORD
  5
3302
330
1
100
AcDbSymbolTableRecord
100
AcDbBlockTableRecord
  2
DC_GROUP_21
340
0
  0
BLOCK_RECORD
  5
3308
330
1
100
AcDbSymbolTableRecord
100
AcDbBlockTableRecord
  2
DC_GROUP_22
340
0
  0
BLOCK_RECORD
  5
330E
330
1
100
AcDbSymbolTableRecord
100
AcDbBlockTableRecord
  2
DC_GROUP_23
340
0
  0
BLOCK_RECORD
  5
3314
330
1
100
AcDbSymbolTableRecord
100
AcDbBlockTableRecord
  2
DC_GROUP_24
340
0
  0
BLOCK_RECORD
  5
331A
330
1
100
AcDbSymbolTableRecord
100
AcDbBlockTableRecord
  2
DC_GROUP_25
340
0
  0
BLOCK_RECORD
  5
3320
330
1
100
AcDbSymbolTableRecord
100
AcDbBlockTableRecord
  2
DC_GROUP_26
340
0
  0
BLOCK_RECORD
  5
3326
330
1
100
AcDbSymbolTableRecord
100
AcDbBlockTableRecord
  2
DC_GROUP_27
340
0
  0
BLOCK_RECORD
  5
332C
330
1
100
AcDbSymbolTableRecord
100
AcDbBlockTableRecord
  2
DA_IMAGEDIMGROUP_4
340
0
  0
BLOCK_RECORD
  5
3334
330
1
100
AcDbSymbolTableRecord
100
AcDbBlockTableRecord
  2
DA_IMAGEDIMGROUP_5
340
0
  0
BLOCK_RECORD
  5
333D
330
1
100
AcDbSymbolTableRecord
100
AcDbBlockTableRecord
  2
DA_IMAGEDIMGROUP_6
340
0
  0
BLOCK_RECORD
  5
3344
330
1
100
AcDbSymbolTableRecord
100
AcDbBlockTableRecord
  2
DA_IMAGEDIMGROUP_7
340
0
  0
BLOCK_RECORD
  5
334B
330
1
100
AcDbSymbolTableRecord
100
AcDbBlockTableRecord
  2
DA_IMAGEDIMGROUP_8
340
0
  0
BLOCK_RECORD
  5
3352
330
1
100
AcDbSymbolTableRecord
100
AcDbBlockTableRecord
  2
DC_GROUP_28
340
0
  0
BLOCK_RECORD
  5
3359
330
1
100
AcDbSymbolTableRecord
100
AcDbBlockTableRecord
  2
DC_GROUP_29
340
0
  0
BLOCK_RECORD
  5
3360
330
1
100
AcDbSymbolTableRecord
100
AcDbBlockTableRecord
  2
DA_IMAGEDIMGROUP_9
340
0
  0
BLOCK_RECORD
  5
3371
330
1
100
AcDbSymbolTableRecord
100
AcDbBlockTableRecord
  2
DC_GROUP_30
340
0
  0
BLOCK_RECORD
  5
3377
330
1
100
AcDbSymbolTableRecord
100
AcDbBlockTableRecord
  2
DA_IMAGEDIMGROUP_10
340
0
  0
BLOCK_RECORD
  5
337E
330
1
100
AcDbSymbolTableRecord
100
AcDbBlockTableRecord
  2
DA_IMAGEDIMGROUP_11
340
0
  0
BLOCK_RECORD
  5
3386
330
1
100
AcDbSymbolTableRecord
100
AcDbBlockTableRecord
  2
DA_IMAGEDIMGROUP_12
340
0
  0
BLOCK_RECORD
  5
338E
330
1
100
AcDbSymbolTableRecord
100
AcDbBlockTableRecord
  2
_OPEN30
340
0
102
{BLKREFS
331
336A
331
336C
331
3388
331
3389
331
3380
331
3381
331
32E9
331
332F
331
3330
331
335B
331
3336
331
3337
331
32EF
331
32F0
331
3354
331
334E
331
3347
331
3379
331
337A
331
3340
102
}
  0
BLOCK_RECORD
  5
3394
330
1
100
AcDbSymbolTableRecord
100
AcDbBlockTableRecord
  2
_DOT
340
0
102
{BLKREFS
331
3368
102
}
  0
BLOCK_RECORD
  5
3764
330
1
100
AcDbSymbolTableRecord
100
AcDbBlockTableRecord
  2
*D30
340
0
  0
ENDTAB
  0
ENDSEC
  0
SECTION
  2
BLOCKS
  0
BLOCK
  5
19
330
18
100
AcDbEntity
  8
0
100
AcDbBlockBegin
  2
*MODEL_SPACE
 70
     0
 10
0.0
 20
0.0
 30
0.0
  3
*MODEL_SPACE
  1

  0
ENDBLK
  5
1A
330
18
100
AcDbEntity
  8
0
100
AcDbBlockEnd
  0
BLOCK
  5
16
330
15
100
AcDbEntity
 67
     1
  8
0
100
AcDbBlockBegin
  2
*PAPER_SPACE
 70
     0
 10
0.0
 20
0.0
 30
0.0
  3
*PAPER_SPACE
  1

  0
ENDBLK
  5
17
330
15
100
AcDbEntity
 67
     1
  8
0
100
AcDbBlockEnd
  0
BLOCK
  5
A08
330
A07
100
AcDbEntity
  8
0
100
AcDbBlockBegin
  2
_OPEN
 70
     0
 10
0.0
 20
0.0
 30
0.0
  3
_OPEN
  1

  0
LINE
  5
A09
330
A07
100
AcDbEntity
  8
0
  6
ByBlock
 62
     0
100
AcDbLine
 10
-1.0
 20
0.1666666666666666
 30
0.0
 11
0.0
 21
0.0
 31
0.0
  0
LINE
  5
A0A
330
A07
100
AcDbEntity
  8
0
  6
ByBlock
 62
     0
100
AcDbLine
 10
0.0
 20
0.0
 30
0.0
 11
-1.0
 21
-0.1666666666666666
 31
0.0
  0
LINE
  5
A0B
330
A07
100
AcDbEntity
  8
0
  6
ByBlock
 62
     0
100
AcDbLine
 10
0.0
 20
0.0
 30
0.0
 11
-1.0
 21
0.0
 31
0.0
  0
ENDBLK
  5
A0C
330
A07
100
AcDbEntity
  8
0
100
AcDbBlockEnd
  0
BLOCK
  5
277C
330
277A
100
AcDbEntity
  8
0
100
AcDbBlockBegin
  2
GENAXEH
 70
     0
 10
0.0
 20
0.0
 30
0.0
  3
GENAXEH
  1

  0
LINE
  5
277B
330
277A
100
AcDbEntity
  8
0
100
AcDbLine
 10
-1.0
 20
0.0
 30
0.0
 11
1.0
 21
0.0
 31
0.0
  0
ENDBLK
  5
277D
330
277A
100
AcDbEntity
  8
0
100
AcDbBlockEnd
  0
BLOCK
  5
3039
330
3038
100
AcDbEntity
  8
0
100
AcDbBlockBegin
  2
*U2
 70
     1
 10
0.0
 20
0.0
 30
0.0
  3
*U2
  1

  0
ENDBLK
  5
303A
330
3038
100
AcDbEntity
  8
0
100
AcDbBlockEnd
  0
BLOCK
  5
31D5
330
31D4
100
AcDbEntity
  8
0
100
AcDbBlockBegin
  2
図番
 70
     0
 10
0.0
 20
0.0
 30
0.0
  3
図番
  1

  0
LINE
  5
31D7
330
31D4
100
AcDbEntity
  8
枠
  6
Continuous
100
AcDbLine
 10
-59.99999992823481
 20
0.0
 30
0.0
 11
-59.99999992823481
 21
-15.00000028563476
 31
0.0
  0
LINE
  5
31D8
330
31D4
100
AcDbEntity
  8
枠
  6
Continuous
100
AcDbLine
 10
-70.00000000000007
 20
0.0
 30
0.0
 11
-70.00000000000007
 21
-15.00000028563476
 31
0.0
  0
TEXT
  5
31D9
330
31D4
100
AcDbEntity
  8
文字
100
AcDbText
 10
-67.79999998421169
 20
-14.29999992463741
 30
0.0
 40
6.00000004305915
  1
番
 72
     1
 11
-64.99999996411742
 21
-11.29999990310784
 31
0.0
100
AcDbText
 73
     2
  0
TEXT
  5
31DA
330
31D4
100
AcDbEntity
  8
文字
100
AcDbText
 10
-67.79999998421169
 20
-6.300000045212117
 30
0.0
 40
6.00000004305915
  1
図
 72
     1
 11
-64.99999996411742
 21
-3.300000023682541
 31
0.0
100
AcDbText
 73
     2
  0
LINE
  5
31DB
330
31D4
100
AcDbEntity
  8
枠
100
AcDbLine
 10
-70.00000000000007
 20
-15.00000010764787
 30
0.0
 11
0.0000005023567837
 21
-15.00000010764787
 31
0.0
  0
LINE
  5
31DC
330
31D4
100
AcDbEntity
  8
枠
  6
Continuous
100
AcDbLine
 10
0.0000005031172066
 20
0.0
 30
0.0
 11
0.0000005023567837
 21
-15.00000028563476
 31
0.0
  0
ENDBLK
  5
31D6
330
31D4
100
AcDbEntity
  8
0
100
AcDbBlockEnd
  0
BLOCK
  5
32E4
330
32E2
100
AcDbEntity
  8
0
100
AcDbBlockBegin
  2
DA_IMAGEDIMGROUP_1
 70
     0
 10
0.0
 20
0.0
 30
0.0
  3
DA_IMAGEDIMGROUP_1
  1

  0
LINE
  5
32E3
330
32E2
100
AcDbEntity
  8
LAYER0014
  6
Continuous
 62
    32
100
AcDbLine
 10
-86.4150238502383
 20
38.72242105787449
 30
0.0
 11
-86.4150238502383
 21
32.29069543913714
 31
0.0
  0
ENDBLK
  5
32E5
330
32E2
100
AcDbEntity
  8
0
100
AcDbBlockEnd
  0
BLOCK
  5
32EB
330
32E6
100
AcDbEntity
  8
0
100
AcDbBlockBegin
  2
DA_IMAGEDIMGROUP_2
 70
     0
 10
0.0
 20
0.0
 30
0.0
  3
DA_IMAGEDIMGROUP_2
  1

  0
LINE
  5
32E7
330
32E6
100
AcDbEntity
  8
LAYER0014
  6
Continuous
 62
     7
100
AcDbLine
 10
-86.55426019786165
 20
71.4906958742513
 30
0.0
 11
-142.8393115011733
 21
71.4906958742513
 31
0.0
  0
LINE
  5
32E8
330
32E6
100
AcDbEntity
  8
LAYER0014
  6
Continuous
 62
     7
100
AcDbLine
 10
-141.8393115011733
 20
6.943251371380709
 30
0.0
 11
-141.8393115011733
 21
71.4906958742513
 31
0.0
  0
INSERT
  5
32E9
330
32E6
100
AcDbEntity
  8
LAYER0014
 62
     7
100
AcDbBlockReference
  2
_OPEN30
 10
-141.8393115011733
 20
71.4906958742513
 30
0.0
 41
3.000002787824362
 42
2.999989273978464
 50
90.0
  0
TEXT
  5
32EA
330
32E6
100
AcDbEntity
  8
LAYER0014
 62
     7
100
AcDbText
 10
-142.8393115011733
 20
11.94325137138066
 30
0.0
 40
3.2
  1
φ１１２．４
 50
90.0
 41
0.8823529411764724
  7
FDASTYLE0
 72
     5
 11
-142.8393115011733
 21
31.1432513713807
 31
0.0
100
AcDbText
  0
ENDBLK
  5
32EC
330
32E6
100
AcDbEntity
  8
0
100
AcDbBlockEnd
  0
BLOCK
  5
32F4
330
32ED
100
AcDbEntity
  8
0
100
AcDbBlockBegin
  2
DA_IMAGEDIMGROUP_3
 70
     0
 10
0.0
 20
0.0
 30
0.0
  3
DA_IMAGEDIMGROUP_3
  1

  0
LINE
  5
32EE
330
32ED
100
AcDbEntity
  8
LAYER0014
  6
Continuous
 62
     7
100
AcDbLine
 10
-168.8595797190923
 20
-55.70930804773457
 30
0.0
 11
-168.859579719092
 21
86.29069892600886
 31
0.0
  0
INSERT
  5
32EF
330
32ED
100
AcDbEntity
  8
LAYER0014
 62
     7
100
AcDbBlockReference
  2
_OPEN30
 10
-168.8595797190923
 20
-55.70930804773457
 30
0.0
 41
3.000002787824362
 42
2.999989273978464
 50
270.0
  0
INSERT
  5
32F0
330
32ED
100
AcDbEntity
  8
LAYER0014
 62
     7
100
AcDbBlockReference
  2
_OPEN30
 10
-168.859579719092
 20
86.29069892600886
 30
0.0
 41
3.000002787824362
 42
2.999989273978464
 50
89.99999999999998
  0
LINE
  5
32F1
330
32ED
100
AcDbEntity
  8
LAYER0014
  6
Continuous
 62
     7
100
AcDbLine
 10
-92.71502575758676
 20
-55.70930804773457
 30
0.0
 11
-169.8595797190923
 21
-55.70930804773457
 31
0.0
  0
LINE
  5
32F2
330
32ED
100
AcDbEntity
  8
LAYER0014
  6
Continuous
 62
     7
100
AcDbLine
 10
-92.71502575758676
 20
86.29069892600886
 30
0.0
 11
-169.859579719092
 21
86.29069892600886
 31
0.0
  0
TEXT
  5
32F3
330
32ED
100
AcDbEntity
  8
LAYER0014
 62
     7
100
AcDbText
 10
-169.859579719092
 20
8.890695439137148
 30
0.0
 40
3.2
  1
φ１４２
 50
90.0
 41
0.9090909090909089
  7
FDASTYLE0
 72
     5
 11
-169.859579719092
 21
21.69069543913714
 31
0.0
100
AcDbText
  0
ENDBLK
  5
32F5
330
32ED
100
AcDbEntity
  8
0
100
AcDbBlockEnd
  0
BLOCK
  5
32FA
330
32F6
100
AcDbEntity
  8
0
100
AcDbBlockBegin
  2
DC_GROUP_19
 70
     0
 10
0.0
 20
0.0
 30
0.0
  3
DC_GROUP_19
  1

  0
LINE
  5
32F7
330
32F6
100
AcDbEntity
  8
0
  6
Continuous
 62
     7
100
AcDbLine
 10
-87.85003414169773
 20
85.80115041620803
 30
0.0
 11
-130.5907735916574
 21
121.047505035127
 31
0.0
  0
CIRCLE
  5
32F8
330
32F6
100
AcDbEntity
  8
0
  6
Continuous
 62
     7
100
AcDbCircle
 10
-134.4482936369669
 20
124.228627337088
 30
0.0
 40
5.0
  0
TEXT
  5
32F9
330
32F6
100
AcDbEntity
  8
0
 62
     7
100
AcDbText
 10
-136.0482936369669
 20
122.6286273370882
 30
0.0
 40
3.2
  1
９
 41
1.249999999999962
  7
FDASTYLE0
 72
     5
 11
-132.8482936369671
 21
122.6286273370882
 31
0.0
100
AcDbText
  0
ENDBLK
  5
32FB
330
32F6
100
AcDbEntity
  8
0
100
AcDbBlockEnd
  0
BLOCK
  5
3300
330
32FC
100
AcDbEntity
  8
0
100
AcDbBlockBegin
  2
DC_GROUP_20
 70
     0
 10
0.0
 20
0.0
 30
0.0
  3
DC_GROUP_20
  1

  0
LINE
  5
32FD
330
32FC
100
AcDbEntity
  8
0
  6
Continuous
 62
     7
100
AcDbLine
 10
-79.66958023544663
 20
86.40990911424273
 30
0.0
 11
-109.4645387909868
 21
120.78593657107
 31
0.0
  0
CIRCLE
  5
32FE
330
32FC
100
AcDbEntity
  8
0
  6
Continuous
 62
     7
100
AcDbCircle
 10
-112.7393422098829
 20
124.564251349855
 30
0.0
 40
5.0
  0
TEXT
  5
32FF
330
32FC
100
AcDbEntity
  8
0
 62
     7
100
AcDbText
 10
-114.3393422098829
 20
122.9642513498551
 30
0.0
 40
3.2
  1
８
 41
1.250000000000001
  7
FDASTYLE0
 72
     5
 11
-111.1393422098829
 21
122.9642513498551
 31
0.0
100
AcDbText
  0
ENDBLK
  5
3301
330
32FC
100
AcDbEntity
  8
0
100
AcDbBlockEnd
  0
BLOCK
  5
3306
330
3302
100
AcDbEntity
  8
0
100
AcDbBlockBegin
  2
DC_GROUP_21
 70
     0
 10
0.0
 20
0.0
 30
0.0
  3
DC_GROUP_21
  1

  0
LINE
  5
3303
330
3302
100
AcDbEntity
  8
0
  6
Continuous
 62
     7
100
AcDbLine
 10
-40.01662044965278
 20
72.19960204682678
 30
0.0
 11
-86.21710131790569
 21
121.4890541763815
 31
0.0
  0
CIRCLE
  5
3304
330
3302
100
AcDbEntity
  8
0
  6
Continuous
 62
     7
100
AcDbCircle
 10
-89.6364768332865
 20
125.1370496649772
 30
0.0
 40
5.0
  0
TEXT
  5
3305
330
3302
100
AcDbEntity
  8
0
 62
     7
100
AcDbText
 10
-91.23647683328647
 20
123.5370496649773
 30
0.0
 40
3.2
  1
１
 41
1.874999999999976
  7
FDASTYLE0
 72
     5
 11
-88.03647683328652
 21
123.5370496649773
 31
0.0
100
AcDbText
  0
ENDBLK
  5
3307
330
3302
100
AcDbEntity
  8
0
100
AcDbBlockEnd
  0
BLOCK
  5
330C
330
3308
100
AcDbEntity
  8
0
100
AcDbBlockBegin
  2
DC_GROUP_22
 70
     0
 10
0.0
 20
0.0
 30
0.0
  3
DC_GROUP_22
  1

  0
LINE
  5
3309
330
3308
100
AcDbEntity
  8
0
  6
Continuous
 62
     7
100
AcDbLine
 10
-150.5754258775751
 20
-16.65199834775243
 30
0.0
 11
-159.9040086468631
 21
17.68339974940983
 31
0.0
  0
CIRCLE
  5
330A
330
3308
100
AcDbEntity
  8
0
  6
Continuous
 62
     7
100
AcDbCircle
 10
-161.2149364246139
 20
22.50848714359466
 30
0.0
 40
5.0
  0
TEXT
  5
330B
330
3308
100
AcDbEntity
  8
0
 62
     7
100
AcDbText
 10
-164.4149364246139
 20
20.90848714359466
 30
0.0
 40
3.2
  1
１０
 41
1.03448275862069
  7
FDASTYLE0
 72
     5
 11
-158.0149364246139
 21
20.90848714359466
 31
0.0
100
AcDbText
  0
ENDBLK
  5
330D
330
3308
100
AcDbEntity
  8
0
100
AcDbBlockEnd
  0
BLOCK
  5
3312
330
330E
100
AcDbEntity
  8
0
100
AcDbBlockBegin
  2
DC_GROUP_23
 70
     0
 10
0.0
 20
0.0
 30
0.0
  3
DC_GROUP_23
  1

  0
LINE
  5
330F
330
330E
100
AcDbEntity
  8
0
  6
Continuous
 62
     7
100
AcDbLine
 10
-118.8811001462254
 20
27.16622353623432
 30
0.0
 11
-155.7818921931743
 21
48.40096645400393
 31
0.0
  0
CIRCLE
  5
3310
330
330E
100
AcDbEntity
  8
0
  6
Continuous
 62
     7
100
AcDbCircle
 10
-160.1155714955569
 20
50.89480359866667
 30
0.0
 40
5.0
  0
TEXT
  5
3311
330
330E
100
AcDbEntity
  8
0
 62
     7
100
AcDbText
 10
-161.715571495557
 20
49.29480359866666
 30
0.0
 40
3.2
  1
７
 41
1.250000000000039
  7
FDASTYLE0
 72
     5
 11
-158.5155714955569
 21
49.29480359866666
 31
0.0
100
AcDbText
  0
ENDBLK
  5
3313
330
330E
100
AcDbEntity
  8
0
100
AcDbBlockEnd
  0
BLOCK
  5
3318
330
3314
100
AcDbEntity
  8
0
100
AcDbBlockBegin
  2
DC_GROUP_24
 70
     0
 10
0.0
 20
0.0
 30
0.0
  3
DC_GROUP_24
  1

  0
LINE
  5
3315
330
3314
100
AcDbEntity
  8
0
  6
Continuous
 62
     7
100
AcDbLine
 10
-94.71502068533494
 20
34.79069543913714
 30
0.0
 11
-155.1228638428374
 21
72.61950008161679
 31
0.0
  0
CIRCLE
  5
3316
330
3314
100
AcDbEntity
  8
0
  6
Continuous
 62
     7
100
AcDbCircle
 10
-159.3605236866034
 20
75.27322181694092
 30
0.0
 40
5.0
  0
TEXT
  5
3317
330
3314
100
AcDbEntity
  8
0
 62
     7
100
AcDbText
 10
-160.9605236866034
 20
73.67322181694092
 30
0.0
 40
3.2
  1
４
 41
1.249999999999962
  7
FDASTYLE0
 72
     5
 11
-157.7605236866036
 21
73.67322181694092
 31
0.0
100
AcDbText
  0
ENDBLK
  5
3319
330
3314
100
AcDbEntity
  8
0
100
AcDbBlockEnd
  0
BLOCK
  5
331E
330
331A
100
AcDbEntity
  8
0
100
AcDbBlockBegin
  2
DC_GROUP_25
 70
     0
 10
0.0
 20
0.0
 30
0.0
  3
DC_GROUP_25
  1

  0
LINE
  5
331B
330
331A
100
AcDbEntity
  8
0
  6
Continuous
 62
     7
100
AcDbLine
 10
-91.21502385023836
 20
65.79069511131161
 30
0.0
 11
-154.6603027700161
 21
97.68610770791566
 31
0.0
  0
CIRCLE
  5
331C
330
331A
100
AcDbEntity
  8
0
  6
Continuous
 62
     7
100
AcDbCircle
 10
-159.1275620688834
 20
99.9319025241628
 30
0.0
 40
5.0
  0
TEXT
  5
331D
330
331A
100
AcDbEntity
  8
0
 62
     7
100
AcDbText
 10
-160.7275620688835
 20
98.33190252416279
 30
0.0
 40
3.2
  1
６
 41
1.249999999999995
  7
FDASTYLE0
 72
     5
 11
-157.5275620688834
 21
98.33190252416279
 31
0.0
100
AcDbText
  0
ENDBLK
  5
331F
330
331A
100
AcDbEntity
  8
0
100
AcDbBlockEnd
  0
BLOCK
  5
3324
330
3320
100
AcDbEntity
  8
0
100
AcDbBlockBegin
  2
DC_GROUP_26
 70
     0
 10
0.0
 20
0.0
 30
0.0
  3
DC_GROUP_26
  1

  0
LINE
  5
3321
330
3320
100
AcDbEntity
  8
0
  6
Continuous
 62
     7
100
AcDbLine
 10
-80.91502385023842
 20
65.87063154133284
 30
0.0
 11
-155.132109766961
 21
119.9631604343325
 31
0.0
  0
CIRCLE
  5
3322
330
3320
100
AcDbEntity
  8
0
  6
Continuous
 62
     7
100
AcDbCircle
 10
-159.172771860843
 20
122.9081646521674
 30
0.0
 40
5.0
  0
TEXT
  5
3323
330
3320
100
AcDbEntity
  8
0
 62
     7
100
AcDbText
 10
-160.772771860843
 20
121.3081646521674
 30
0.0
 40
3.2
  1
３
 41
1.250000000000006
  7
FDASTYLE0
 72
     5
 11
-157.5727718608429
 21
121.3081646521674
 31
0.0
100
AcDbText
  0
ENDBLK
  5
3325
330
3320
100
AcDbEntity
  8
0
100
AcDbBlockEnd
  0
BLOCK
  5
332A
330
3326
100
AcDbEntity
  8
0
100
AcDbBlockBegin
  2
DC_GROUP_27
 70
     0
 10
0.0
 20
0.0
 30
0.0
  3
DC_GROUP_27
  1

  0
LINE
  5
3327
330
3326
100
AcDbEntity
  8
0
  6
Continuous
 62
     7
100
AcDbLine
 10
-10.5056720952093
 20
57.68042394176569
 30
0.0
 11
32.83622988438406
 21
91.1834033440644
 31
0.0
  0
CIRCLE
  5
3328
330
3326
100
AcDbEntity
  8
0
  6
Continuous
 62
     7
100
AcDbCircle
 10
36.79214656613132
 20
94.24129856906375
 30
0.0
 40
5.0
  0
TEXT
  5
3329
330
3326
100
AcDbEntity
  8
0
 62
     7
100
AcDbText
 10
35.19214656613132
 20
92.64129856906377
 30
0.0
 40
3.2
  1
５
 41
1.250000000000001
  7
FDASTYLE0
 72
     5
 11
38.39214656613132
 21
92.64129856906377
 31
0.0
100
AcDbText
  0
ENDBLK
  5
332B
330
3326
100
AcDbEntity
  8
0
100
AcDbBlockEnd
  0
BLOCK
  5
3332
330
332C
100
AcDbEntity
  8
0
100
AcDbBlockBegin
  2
DA_IMAGEDIMGROUP_4
 70
     0
 10
0.0
 20
0.0
 30
0.0
  3
DA_IMAGEDIMGROUP_4
  1

  0
LINE
  5
332D
330
332C
100
AcDbEntity
  8
LAYER0014
  6
Continuous
 62
     7
100
AcDbLine
 10
-10.41502569003308
 20
45.29946038531375
 30
0.0
 11
-10.41502569003308
 21
50.54378461204937
 31
0.0
  0
LINE
  5
332E
330
332C
100
AcDbEntity
  8
LAYER0014
  6
Continuous
 62
     7
100
AcDbLine
 10
-60.41502068533493
 20
49.54378461204937
 30
0.0
 11
-10.41502569003308
 21
49.54378461204937
 31
0.0
  0
INSERT
  5
332F
330
332C
100
AcDbEntity
  8
LAYER0014
 62
     7
100
AcDbBlockReference
  2
_OPEN30
 10
-60.41502068533493
 20
49.54378461204937
 30
0.0
 41
3.000002787824362
 42
2.999989273978464
 50
180.0
  0
INSERT
  5
3330
330
332C
100
AcDbEntity
  8
LAYER0014
 62
     7
100
AcDbBlockReference
  2
_OPEN30
 10
-10.41502569003308
 20
49.54378461204937
 30
0.0
 41
3.000002787824362
 42
2.999989273978464
 50
360.0
  0
TEXT
  5
3331
330
332C
100
AcDbEntity
  8
LAYER0014
 62
     7
100
AcDbText
 10
-38.615023187684
 20
50.54378461204937
 30
0.0
 40
3.2
  1
５０
 41
1.034482758620689
  7
FDASTYLE0
 72
     5
 11
-32.215023187684
 21
50.54378461204937
 31
0.0
100
AcDbText
  0
ENDBLK
  5
3333
330
332C
100
AcDbEntity
  8
0
100
AcDbBlockEnd
  0
BLOCK
  5
333B
330
3334
100
AcDbEntity
  8
0
100
AcDbBlockBegin
  2
DA_IMAGEDIMGROUP_5
 70
     0
 10
0.0
 20
0.0
 30
0.0
  3
DA_IMAGEDIMGROUP_5
  1

  0
LINE
  5
3335
330
3334
100
AcDbEntity
  8
LAYER0014
  6
Continuous
 62
     7
100
AcDbLine
 10
-77.21502575758676
 20
-68.75288089466619
 30
0.0
 11
70.78497424241326
 21
-68.75288089466619
 31
0.0
  0
INSERT
  5
3336
330
3334
100
AcDbEntity
  8
LAYER0014
 62
     7
100
AcDbBlockReference
  2
_OPEN30
 10
-77.21502575758676
 20
-68.75288089466619
 30
0.0
 41
3.000002787824362
 42
2.999989273978464
 50
180.0
  0
INSERT
  5
3337
330
3334
100
AcDbEntity
  8
LAYER0014
 62
     7
100
AcDbBlockReference
  2
_OPEN30
 10
70.78497424241326
 20
-68.75288089466619
 30
0.0
 41
3.000002787824362
 42
2.999989273978464
 50
360.0
  0
LINE
  5
3338
330
3334
100
AcDbEntity
  8
LAYER0014
  6
Continuous
 62
     7
100
AcDbLine
 10
-77.21502575758676
 20
-56.70930265351421
 30
0.0
 11
-77.21502575758676
 21
-69.75288089466619
 31
0.0
  0
LINE
  5
3339
330
3334
100
AcDbEntity
  8
LAYER0014
  6
Continuous
 62
     7
100
AcDbLine
 10
70.78497424241326
 20
-18.90930437012798
 30
0.0
 11
70.78497424241326
 21
-69.75288089466619
 31
0.0
  0
TEXT
  5
333A
330
3334
100
AcDbEntity
  8
LAYER0014
 62
     7
100
AcDbText
 10
-8.015025757586753
 20
-67.75288089466619
 30
0.0
 40
3.2
  1
１４８
 41
0.9375000000000001
  7
FDASTYLE0
 72
     5
 11
1.584974242413248
 21
-67.75288089466619
 31
0.0
100
AcDbText
  0
ENDBLK
  5
333C
330
3334
100
AcDbEntity
  8
0
100
AcDbBlockEnd
  0
BLOCK
  5
3342
330
333D
100
AcDbEntity
  8
0
100
AcDbBlockBegin
  2
DA_IMAGEDIMGROUP_6
 70
     0
 10
0.0
 20
0.0
 30
0.0
  3
DA_IMAGEDIMGROUP_6
  1

  0
LINE
  5
333E
330
333D
100
AcDbEntity
  8
LAYER0014
  6
Continuous
 62
     7
100
AcDbLine
 10
67.54144976386948
 20
45.54069543913715
 30
0.0
 11
89.33513927734187
 21
45.54069543913715
 31
0.0
  0
LINE
  5
333F
330
333D
100
AcDbEntity
  8
LAYER0014
  6
Continuous
 62
     7
100
AcDbLine
 10
88.33513927734188
 20
2.59987556557513
 30
0.0
 11
88.33513927734188
 21
45.54069543913715
 31
0.0
  0
INSERT
  5
3340
330
333D
100
AcDbEntity
  8
LAYER0014
 62
     7
100
AcDbBlockReference
  2
_OPEN30
 10
88.33513927734188
 20
45.54069543913715
 30
0.0
 41
3.000002787824362
 42
2.999989273978464
 50
90.0
  0
TEXT
  5
3341
330
333D
100
AcDbEntity
  8
LAYER0014
 62
     7
100
AcDbText
 10
87.33513927734188
 20
7.599875565575132
 30
0.0
 40
3.2
  1
φ６０．５
 50
90.0
 41
0.8928571428571421
  7
FDASTYLE0
 72
     5
 11
87.33513927734188
 21
23.59987556557512
 31
0.0
100
AcDbText
  0
ENDBLK
  5
3343
330
333D
100
AcDbEntity
  8
0
100
AcDbBlockEnd
  0
BLOCK
  5
3349
330
3344
100
AcDbEntity
  8
0
100
AcDbBlockBegin
  2
DA_IMAGEDIMGROUP_7
 70
     0
 10
0.0
 20
0.0
 30
0.0
  3
DA_IMAGEDIMGROUP_7
  1

  0
LINE
  5
3345
330
3344
100
AcDbEntity
  8
LAYER0014
  6
Continuous
 62
     7
100
AcDbLine
 10
71.78497424241327
 20
48.49069429472796
 30
0.0
 11
99.48087655001385
 21
48.49069429472796
 31
0.0
  0
LINE
  5
3346
330
3344
100
AcDbEntity
  8
LAYER0014
  6
Continuous
 62
     7
100
AcDbLine
 10
98.48087655001386
 20
3.506303900968816
 30
0.0
 11
98.48087655001386
 21
48.49069429472796
 31
0.0
  0
INSERT
  5
3347
330
3344
100
AcDbEntity
  8
LAYER0014
 62
     7
100
AcDbBlockReference
  2
_OPEN30
 10
98.48087655001386
 20
48.49069429472796
 30
0.0
 41
3.000002787824362
 42
2.999989273978464
 50
90.0
  0
TEXT
  5
3348
330
3344
100
AcDbEntity
  8
LAYER0014
 62
     7
100
AcDbText
 10
97.48087655001384
 20
8.506303900968816
 30
0.0
 40
3.2
  1
φ６６．４
 50
90.0
 41
0.8928571428571432
  7
FDASTYLE0
 72
     5
 11
97.48087655001384
 21
24.50630390096882
 31
0.0
100
AcDbText
  0
ENDBLK
  5
334A
330
3344
100
AcDbEntity
  8
0
100
AcDbBlockEnd
  0
BLOCK
  5
3350
330
334B
100
AcDbEntity
  8
0
100
AcDbBlockBegin
  2
DA_IMAGEDIMGROUP_8
 70
     0
 10
0.0
 20
0.0
 30
0.0
  3
DA_IMAGEDIMGROUP_8
  1

  0
LINE
  5
334C
330
334B
100
AcDbEntity
  8
LAYER0014
  6
Continuous
 62
     7
100
AcDbLine
 10
67.90660205003044
 20
49.79069734648579
 30
0.0
 11
108.9962038277726
 21
49.79069734648579
 31
0.0
  0
LINE
  5
334D
330
334B
100
AcDbEntity
  8
LAYER0014
  6
Continuous
 62
     7
100
AcDbLine
 10
107.9962038277726
 20
7.151867057407683
 30
0.0
 11
107.9962038277726
 21
49.79069734648579
 31
0.0
  0
INSERT
  5
334E
330
334B
100
AcDbEntity
  8
LAYER0014
 62
     7
100
AcDbBlockReference
  2
_OPEN30
 10
107.9962038277726
 20
49.79069734648579
 30
0.0
 41
3.000002787824362
 42
2.999989273978464
 50
90.0
  0
TEXT
  5
334F
330
334B
100
AcDbEntity
  8
LAYER0014
 62
     7
100
AcDbText
 10
106.9962038277726
 20
12.15186705740771
 30
0.0
 40
3.2
  1
φ６９
 50
90.0
 41
0.9375000000000001
  7
FDASTYLE0
 72
     5
 11
106.9962038277726
 21
21.75186705740771
 31
0.0
100
AcDbText
  0
ENDBLK
  5
3351
330
334B
100
AcDbEntity
  8
0
100
AcDbBlockEnd
  0
BLOCK
  5
3357
330
3352
100
AcDbEntity
  8
0
100
AcDbBlockBegin
  2
DC_GROUP_28
 70
     0
 10
0.0
 20
0.0
 30
0.0
  3
DC_GROUP_28
  1

  0
LINE
  5
3353
330
3352
100
AcDbEntity
  8
LAYER0016
  6
Continuous
 62
     7
100
AcDbLine
 10
57.77545275803825
 20
49.79069734648579
 30
0.0
 11
63.49332260615863
 21
59.78562961734417
 31
0.0
  0
INSERT
  5
3354
330
3352
100
AcDbEntity
  8
LAYER0016
 62
     7
100
AcDbBlockReference
  2
_OPEN30
 10
57.77545275803825
 20
49.79069734648579
 30
0.0
 41
3.000002787824362
 42
2.999989273978464
 50
240.2271238755683
  0
LINE
  5
3355
330
3352
100
AcDbEntity
  8
LAYER0016
  6
Continuous
 62
     7
100
AcDbLine
 10
63.49332260615863
 20
59.78562961734417
 30
0.0
 11
95.49332260615864
 21
59.78562961734417
 31
0.0
  0
TEXT
  5
3356
330
3352
100
AcDbEntity
  8
LAYER0016
 62
     7
100
AcDbText
 10
63.49332260615863
 20
59.78562961734417
 30
0.0
 40
3.2
  1
ネジ　Ｐ＝２．３０９
 41
0.8620689655172418
  7
FDASTYLE0
 72
     5
 11
95.49332260615864
 21
59.78562961734417
 31
0.0
100
AcDbText
  0
ENDBLK
  5
3358
330
3352
100
AcDbEntity
  8
0
100
AcDbBlockEnd
  0
BLOCK
  5
335E
330
3359
100
AcDbEntity
  8
0
100
AcDbBlockBegin
  2
DC_GROUP_29
 70
     0
 10
0.0
 20
0.0
 30
0.0
  3
DC_GROUP_29
  1

  0
LINE
  5
335A
330
3359
100
AcDbEntity
  8
LAYER0016
  6
Continuous
 62
     7
100
AcDbLine
 10
-65.51502646121929
 20
70.49069603406066
 30
0.0
 11
-44.76486525996153
 21
105.0806913155974
 31
0.0
  0
INSERT
  5
335B
330
3359
100
AcDbEntity
  8
LAYER0016
 62
     7
100
AcDbBlockReference
  2
_OPEN30
 10
-65.51502646121929
 20
70.49069603406066
 30
0.0
 41
3.000002787824362
 42
2.999989273978464
 50
239.0409157537931
  0
LINE
  5
335C
330
3359
100
AcDbEntity
  8
LAYER0016
  6
Continuous
 62
     7
100
AcDbLine
 10
-44.76486525996153
 20
105.0806913155974
 30
0.0
 11
-15.96486525996152
 21
105.0806913155974
 31
0.0
  0
TEXT
  5
335D
330
3359
100
AcDbEntity
  8
LAYER0016
 62
     7
100
AcDbText
 10
-44.76486525996153
 20
105.0806913155974
 30
0.0
 40
3.2
  1
ネジ　Ｐ＝２．５４
 41
0.8653846153846156
  7
FDASTYLE0
 72
     5
 11
-15.96486525996152
 21
105.0806913155974
 31
0.0
100
AcDbText
  0
ENDBLK
  5
335F
330
3359
100
AcDbEntity
  8
0
100
AcDbBlockEnd
  0
BLOCK
  5
336F
330
3360
100
AcDbEntity
  8
0
100
AcDbBlockBegin
  2
DA_IMAGEDIMGROUP_9
 70
     0
 10
0.0
 20
0.0
 30
0.0
  3
DA_IMAGEDIMGROUP_9
  1

  0
LINE
  5
3361
330
3360
100
AcDbEntity
  8
LAYER0014
  6
Continuous
 62
     7
100
AcDbLine
 10
-88.11502575758678
 20
-56.14060701389337
 30
0.0
 11
-88.11502575758678
 21
-69.75288089466619
 31
0.0
  0
LINE
  5
3362
330
3360
100
AcDbEntity
  8
LAYER0014
  6
Continuous
 62
     7
100
AcDbLine
 10
-92.71502575758676
 20
-55.70930804773457
 30
0.0
 11
-92.71502575758676
 21
-69.75288089466619
 31
0.0
  0
LINE
  5
3363
330
3360
100
AcDbEntity
  8
LAYER0014
  6
Continuous
 62
     7
100
AcDbLine
 10
-87.61502575758678
 20
-56.55930456086285
 30
0.0
 11
-87.61502575758678
 21
-69.75288089466619
 31
0.0
  0
LINE
  5
3364
330
3360
100
AcDbEntity
  8
LAYER0014
  6
Continuous
 62
     7
100
AcDbLine
 10
-88.11502575758678
 20
-68.75288089466619
 30
0.0
 11
-87.61502575758678
 21
-68.75288089466619
 31
0.0
  0
LINE
  5
3365
330
3360
100
AcDbEntity
  8
LAYER0014
  6
Continuous
 62
     7
100
AcDbLine
 10
-87.18895124641605
 20
-78.17876819443961
 30
0.0
 11
-87.86502575758678
 21
-68.75288089466619
 31
0.0
  0
LINE
  5
3366
330
3360
100
AcDbEntity
  8
LAYER0014
  6
Continuous
 62
     7
100
AcDbLine
 10
-76.18895124641603
 20
-78.17876819443961
 30
0.0
 11
-87.18895124641605
 21
-78.17876819443961
 31
0.0
  0
LINE
  5
3367
330
3360
100
AcDbEntity
  8
LAYER0014
  6
Continuous
 62
     7
100
AcDbLine
 10
-92.71502575758676
 20
-68.75288089466619
 30
0.0
 11
-88.11502575758678
 21
-68.75288089466619
 31
0.0
  0
INSERT
  5
3368
330
3360
100
AcDbEntity
  8
LAYER0014
 62
     7
100
AcDbBlockReference
  2
_DOT
 10
-88.11502575758678
 20
-68.75288089466619
 30
0.0
 41
0.75
 42
0.75
 50
360.0
  0
LINE
  5
3369
330
3360
100
AcDbEntity
  8
LAYER0014
  6
Continuous
 62
     7
100
AcDbLine
 10
-106.6128057575868
 20
-68.75288089466619
 30
0.0
 11
-92.71502575758676
 21
-68.75288089466619
 31
0.0
  0
INSERT
  5
336A
330
3360
100
AcDbEntity
  8
LAYER0014
 62
     7
100
AcDbBlockReference
  2
_OPEN30
 10
-92.71502575758676
 20
-68.75288089466619
 30
0.0
 41
3.000002787824362
 42
2.999989273978464
 50
360.0
  0
LINE
  5
336B
330
3360
100
AcDbEntity
  8
LAYER0014
  6
Continuous
 62
     7
100
AcDbLine
 10
-82.61502575758678
 20
-68.75288089466619
 30
0.0
 11
-87.61502575758678
 21
-68.75288089466619
 31
0.0
  0
INSERT
  5
336C
330
3360
100
AcDbEntity
  8
LAYER0014
 62
     7
100
AcDbBlockReference
  2
_OPEN30
 10
-87.61502575758678
 20
-68.75288089466619
 30
0.0
 41
3.000002787824362
 42
2.999989273978464
 50
180.0
  0
TEXT
  5
336D
330
3360
100
AcDbEntity
  8
LAYER0014
 62
     7
100
AcDbText
 10
-105.6128057575868
 20
-67.75288089466619
 30
0.0
 40
3.0
  1
４．６
 41
0.937500000000003
  7
FDASTYLE0
 72
     5
 11
-96.61280575758677
 21
-67.75288089466619
 31
0.0
100
AcDbText
  0
TEXT
  5
336E
330
3360
100
AcDbEntity
  8
LAYER0014
 62
     7
100
AcDbText
 10
-86.18895124641605
 20
-77.17876819443961
 30
0.0
 40
3.0
  1
０．５
 41
0.9375000000000015
  7
FDASTYLE0
 72
     5
 11
-77.18895124641604
 21
-77.17876819443961
 31
0.0
100
AcDbText
  0
ENDBLK
  5
3370
330
3360
100
AcDbEntity
  8
0
100
AcDbBlockEnd
  0
BLOCK
  5
3375
330
3371
100
AcDbEntity
  8
0
100
AcDbBlockBegin
  2
DC_GROUP_30
 70
     0
 10
0.0
 20
0.0
 30
0.0
  3
DC_GROUP_30
  1

  0
LINE
  5
3372
330
3371
100
AcDbEntity
  8
LAYER0016
  6
Continuous
 62
     7
100
AcDbLine
 10
-92.42213253877331
 20
-55.4164148289211
 30
0.0
 11
-117.7836249942402
 21
-70.65888416445197
 31
0.0
  0
CIRCLE
  5
3373
330
3371
100
AcDbEntity
  8
LAYER0016
  6
Continuous
 62
     7
100
AcDbCircle
 10
-122.069181926388
 20
-73.23453976668587
 30
0.0
 40
5.0
  0
TEXT
  5
3374
330
3371
100
AcDbEntity
  8
LAYER0016
 62
     7
100
AcDbText
 10
-123.5691819263881
 20
-74.73453976668587
 30
0.0
 40
3.0
  1
２
 41
1.25
  7
FDASTYLE0
 72
     5
 11
-120.5691819263881
 21
-74.73453976668587
 31
0.0
100
AcDbText
  0
ENDBLK
  5
3376
330
3371
100
AcDbEntity
  8
0
100
AcDbBlockEnd
  0
BLOCK
  5
337C
330
3377
100
AcDbEntity
  8
0
100
AcDbBlockBegin
  2
DA_IMAGEDIMGROUP_10
 70
     0
 10
0.0
 20
0.0
 30
0.0
  3
DA_IMAGEDIMGROUP_10
  1

  0
LINE
  5
3378
330
3377
100
AcDbEntity
  8
LAYER0014
  6
Continuous
 62
     7
100
AcDbLine
 10
35.78497424241325
 20
27.27895889206624
 30
0.0
 11
70.78497424241326
 21
27.27895889206624
 31
0.0
  0
INSERT
  5
3379
330
3377
100
AcDbEntity
  8
LAYER0014
 62
     7
100
AcDbBlockReference
  2
_OPEN30
 10
35.78497424241325
 20
27.27895889206624
 30
0.0
 41
3.000002787824362
 42
2.999989273978464
 50
180.0
  0
INSERT
  5
337A
330
3377
100
AcDbEntity
  8
LAYER0014
 62
     7
100
AcDbBlockReference
  2
_OPEN30
 10
70.78497424241326
 20
27.27895889206624
 30
0.0
 41
3.000002787824362
 42
2.999989273978464
 50
360.0
  0
TEXT
  5
337B
330
3377
100
AcDbEntity
  8
LAYER0014
 62
     7
100
AcDbText
 10
50.28497424241326
 20
28.27895889206624
 30
0.0
 40
3.0
  1
３５
  7
FDASTYLE0
 72
     5
 11
56.28497424241325
 21
28.27895889206624
 31
0.0
100
AcDbText
  0
ENDBLK
  5
337D
330
3377
100
AcDbEntity
  8
0
100
AcDbBlockEnd
  0
BLOCK
  5
3384
330
337E
100
AcDbEntity
  8
0
100
AcDbBlockBegin
  2
DA_IMAGEDIMGROUP_11
 70
     0
 10
0.0
 20
0.0
 30
0.0
  3
DA_IMAGEDIMGROUP_11
  1

  0
LINE
  5
337F
330
337E
100
AcDbEntity
  8
LAYER0014
  6
Continuous
 62
     7
100
AcDbLine
 10
-147.7150206853349
 20
-53.53784705906708
 30
0.0
 11
-92.71502575758676
 21
-53.53784705906708
 31
0.0
  0
INSERT
  5
3380
330
337E
100
AcDbEntity
  8
LAYER0014
 62
     7
100
AcDbBlockReference
  2
_OPEN30
 10
-147.7150206853349
 20
-53.53784705906708
 30
0.0
 41
3.000002787824362
 42
2.999989273978464
 50
180.0
  0
INSERT
  5
3381
330
337E
100
AcDbEntity
  8
LAYER0014
 62
     7
100
AcDbBlockReference
  2
_OPEN30
 10
-92.71502575758676
 20
-53.53784705906708
 30
0.0
 41
3.000002787824362
 42
2.999989273978464
 50
360.0
  0
LINE
  5
3382
330
337E
100
AcDbEntity
  8
LAYER0014
  6
Continuous
 62
     7
100
AcDbLine
 10
-147.7150206853349
 20
-8.111529966582223
 30
0.0
 11
-147.7150206853349
 21
-54.53784705906707
 31
0.0
  0
TEXT
  5
3383
330
337E
100
AcDbEntity
  8
LAYER0014
 62
     7
100
AcDbText
 10
-126.6150232214609
 20
-52.53784705906706
 30
0.0
 40
3.2
  1
（５５）
  7
FDASTYLE0
 72
     5
 11
-113.8150232214609
 21
-52.53784705906706
 31
0.0
100
AcDbText
  0
ENDBLK
  5
3385
330
337E
100
AcDbEntity
  8
0
100
AcDbBlockEnd
  0
BLOCK
  5
338C
330
3386
100
AcDbEntity
  8
0
100
AcDbBlockBegin
  2
DA_IMAGEDIMGROUP_12
 70
     0
 10
0.0
 20
0.0
 30
0.0
  3
DA_IMAGEDIMGROUP_12
  1

  0
LINE
  5
3387
330
3386
100
AcDbEntity
  8
LAYER0014
  6
Continuous
 62
     7
100
AcDbLine
 10
-141.6634890626506
 20
-47.39396531837672
 30
0.0
 11
-92.71502575758676
 21
-47.39396531837672
 31
0.0
  0
INSERT
  5
3388
330
3386
100
AcDbEntity
  8
LAYER0014
 62
     7
100
AcDbBlockReference
  2
_OPEN30
 10
-141.6634890626506
 20
-47.39396531837672
 30
0.0
 41
3.000002787824362
 42
2.999989273978464
 50
180.0
  0
INSERT
  5
3389
330
3386
100
AcDbEntity
  8
LAYER0014
 62
     7
100
AcDbBlockReference
  2
_OPEN30
 10
-92.71502575758676
 20
-47.39396531837672
 30
0.0
 41
3.000002787824362
 42
2.999989273978464
 50
360.0
  0
LINE
  5
338A
330
3386
100
AcDbEntity
  8
LAYER0014
  6
Continuous
 62
     7
100
AcDbLine
 10
-141.6634890626506
 20
-32.00440939751853
 30
0.0
 11
-141.6634890626506
 21
-48.39396531837672
 31
0.0
  0
TEXT
  5
338B
330
3386
100
AcDbEntity
  8
LAYER0014
 62
     7
100
AcDbText
 10
-126.7892574101187
 20
-46.39396531837672
 30
0.0
 40
3.2
  1
（４８．９）
 41
0.9375000000000042
  7
FDASTYLE0
 72
     5
 11
-107.5892574101185
 21
-46.39396531837672
 31
0.0
100
AcDbText
  0
ENDBLK
  5
338D
330
3386
100
AcDbEntity
  8
0
100
AcDbBlockEnd
  0
BLOCK
  5
3392
330
338E
100
AcDbEntity
  8
0
100
AcDbBlockBegin
  2
_OPEN30
 70
     0
 10
0.0
 20
0.0
 30
0.0
  3
_OPEN30
  1

  0
LINE
  5
338F
330
338E
100
AcDbEntity
  8
0
  6
ByBlock
 62
     0
100
AcDbLine
 10
-1.0
 20
0.267949
 30
0.0
 11
0.0
 21
0.0
 31
0.0
  0
LINE
  5
3390
330
338E
100
AcDbEntity
  8
0
  6
ByBlock
 62
     0
100
AcDbLine
 10
0.0
 20
0.0
 30
0.0
 11
-1.0
 21
-0.267949
 31
0.0
  0
LINE
  5
3391
330
338E
100
AcDbEntity
  8
0
  6
ByBlock
 62
     0
100
AcDbLine
 10
0.0
 20
0.0
 30
0.0
 11
-1.0
 21
0.0
 31
0.0
  0
ENDBLK
  5
3393
330
338E
100
AcDbEntity
  8
0
100
AcDbBlockEnd
  0
BLOCK
  5
3397
330
3394
100
AcDbEntity
  8
0
100
AcDbBlockBegin
  2
_DOT
 70
     0
 10
0.0
 20
0.0
 30
0.0
  3
_DOT
  1

  0
LWPOLYLINE
  5
3395
330
3394
100
AcDbEntity
  8
0
  6
ByBlock
 62
     0
100
AcDbPolyline
 90
        2
 70
     1
 43
0.5
 10
-0.25
 20
0.0
 42
1.0
 10
0.25
 20
0.0
 42
1.0
  0
LINE
  5
3396
330
3394
100
AcDbEntity
  8
0
  6
ByBlock
 62
     0
100
AcDbLine
 10
-0.5
 20
0.0
 30
0.0
 11
-1.0
 21
0.0
 31
0.0
  0
ENDBLK
  5
3398
330
3394
100
AcDbEntity
  8
0
100
AcDbBlockEnd
  0
BLOCK
  5
376E
330
3764
100
AcDbEntity
  8
0
100
AcDbBlockBegin
  2
*D30
 70
     1
 10
0.0
 20
0.0
 30
0.0
  3
*D30
  1

  0
LINE
  5
3861
330
3764
100
AcDbEntity
  8
最小図面
370
    -2
100
AcDbLine
 10
-73.524723197767
 20
135.7037494330046
 30
0.0
 11
-73.524723197767
 21
210.6058068695434
 31
0.0
  0
LINE
  5
3862
330
3764
100
AcDbEntity
  8
最小図面
370
    -2
100
AcDbLine
 10
68.47528377597644
 20
135.703749433005
 30
0.0
 11
68.47528377597644
 21
210.6058068695434
 31
0.0
  0
LINE
  5
3863
330
3764
100
AcDbEntity
  8
最小図面
370
    -2
100
AcDbLine
 10
-67.524723197767
 20
208.6058068695434
 30
0.0
 11
62.47528377597642
 21
208.6058068695434
 31
0.0
  0
INSERT
  5
3864
330
3764
100
AcDbEntity
  8
最小図面
370
    -2
100
AcDbBlockReference
  2
_OPEN
 10
-73.524723197767
 20
208.6058068695434
 30
0.0
 41
6.0
 42
6.0
 43
6.0
 50
180.0
  0
INSERT
  5
3865
330
3764
100
AcDbEntity
  8
最小図面
370
    -2
100
AcDbBlockReference
  2
_OPEN
 10
68.47528377597644
 20
208.6058068695434
 30
0.0
 41
6.0
 42
6.0
 43
6.0
  0
MTEXT
  5
3866
330
3764
100
AcDbEntity
  8
最小図面
100
AcDbMText
 10
-2.524719710895281
 20
215.1064958459214
 30
0.0
 40
7.0
 41
0.0
 71
     5
 72
     1
  1
%%c142
 73
     1
 44
1.0
  0
POINT
  5
3867
330
3764
100
AcDbEntity
  8
DEFPOINTS
 62
     0
100
AcDbPoint
 10
-73.524723197767
 20
133.7037494330047
 30
0.0
  0
POINT
  5
3868
330
3764
100
AcDbEntity
  8
DEFPOINTS
 62
     0
100
AcDbPoint
 10
68.47528377597644
 20
133.703749433005
 30
0.0
  0
POINT
  5
3869
330
3764
100
AcDbEntity
  8
DEFPOINTS
 62
     0
100
AcDbPoint
 10
68.47528377597644
 20
208.6058068695434
 30
0.0
  0
ENDBLK
  5
376F
330
3764
100
AcDbEntity
  8
0
100
AcDbBlockEnd
  0
ENDSEC
  0
SECTION
  2
ENTITIES
  0
TEXT
  5
955
330
18
100
AcDbEntity
  8
最小図面
100
AcDbText
 10
186.2588810757855
 20
-101.2927961367795
 30
0.0
 40
6.0
  1
品
 72
     1
 11
189.0588810757855
 21
-98.29279613677956
 31
0.0
100
AcDbText
 73
     2
  0
TEXT
  5
95A
330
18
100
AcDbEntity
  8
最小図面
100
AcDbText
 10
186.2588810757855
 20
-109.2927961367795
 30
0.0
 40
6.0
  1
番
 72
     1
 11
189.0588810757855
 21
-106.2927961367795
 31
0.0
100
AcDbText
 73
     2
  0
LINE
  5
9C9
330
18
100
AcDbEntity
  8
補助線
100
AcDbLine
 10
-23.86111867351121
 20
-109.9927964534875
 30
0.0
 11
-23.86111867351121
 21
-94.99279645348769
 31
0.0
  0
TEXT
  5
24F7
330
18
100
AcDbEntity
  8
最小図面
100
AcDbText
 10
204.0588810757856
 20
-106.230439442816
 30
0.0
 40
8.0
  1
M44PTX
 72
     1
 11
224.0588810757855
 21
-102.230439442816
 31
0.0
100
AcDbText
 73
     2
  0
LINE
  5
27F5
330
18
100
AcDbEntity
  8
補助線
100
AcDbLine
 10
-43.86111867351117
 20
-106.2427964534875
 30
0.0
 11
-8.861118673511157
 21
-106.2427964534875
 31
0.0
  0
LINE
  5
27FB
330
18
100
AcDbEntity
  8
補助線
100
AcDbLine
 10
-43.86111867351117
 20
-98.74279645348769
 30
0.0
 11
-8.861118673511157
 21
-98.74279645348769
 31
0.0
  0
LWPOLYLINE
  5
2844
330
18
100
AcDbEntity
  8
最小図面
100
AcDbPolyline
 90
        4
 70
     1
 43
0.0
 10
-271.7811184218575
 20
-109.9927964224141
 10
-271.7811184218575
 20
273.0472035775856
 10
254.0588815781425
 20
273.0472035775856
 10
254.0588815781425
 20
-109.9927964224143
1001
GENIUS_GENREC_14
1002
{
1000
PYDIR
1011
254.0588815781425
1021
-109.9927964224141
1031
0.0
1002
}
1002
{
1000
PXDIR
1011
-271.7811184218575
1021
273.0472035775856
1031
0.0
1002
}
1002
{
1000
PORI
1011
-271.7811184218575
1021
-109.9927964224141
1031
0.0
1002
}
1002
{
1000
PINS
1011
-271.7811184218575
1021
-109.9927964224141
1031
0.0
1002
}
1002
{
1000
PINS2
1011
254.0588815781425
1021
273.0472035775856
1031
0.0
1002
}
1002
{
1000
C
1070
     1
1002
}
1001
GENIUS_GENODEF_13
1002
{
1000
HIER
1070
     0
1002
}
1002
{
1000
MANEDIT
1070
     0
1002
}
1002
{
1000
NOSEL
1070
     0
1002
}
1002
{
1000
BEHIND
1070
     0
1002
}
1002
{
1000
OTHER
1070
     0
1002
}
1002
{
1000
REACTOR
1002
}
1001
GENIUS_GENOBJ-N-REC_13
1002
{
1000
OWNER
1000
GEN
1002
}
  0
LINE
  5
2F64
330
18
100
AcDbEntity
  8
最小図面
100
AcDbLine
 10
184.0588810757855
 20
-94.99279613677956
 30
0.0
 11
254.0588810757856
 21
-94.99279613677956
 31
0.0
  0
LINE
  5
3164
330
18
100
AcDbEntity
  8
最小図面
100
AcDbLine
 10
198.0588811770175
 20
-94.99279613677956
 30
0.0
 11
254.0588815789028
 21
-94.99279613677956
 31
0.0
  0
LINE
  5
3166
330
18
100
AcDbEntity
  8
最小図面
100
AcDbLine
 10
184.0588810757855
 20
-94.99279613677956
 30
0.0
 11
254.0588815781425
 21
-94.99279613677956
 31
0.0
  0
LINE
  5
3582
330
18
100
AcDbEntity
  8
最小図面
100
AcDbLine
 10
-59.62471971089525
 20
99.20374943300476
 30
0.0
 11
-58.76933652683941
 21
22.21926286798248
 31
0.0
  0
LINE
  5
3583
330
18
100
AcDbEntity
  8
最小図面
100
AcDbLine
 10
54.57528028910473
 20
99.20374943300473
 30
0.0
 11
53.71989710504886
 21
22.21926286798243
 31
0.0
  0
ARC
  5
3593
330
18
100
AcDbEntity
  8
最小図面
100
AcDbCircle
 10
-19.02471971089521
 20
140.2037443607527
 30
0.0
 40
1.0
100
AcDbArc
 50
270.0
 51
0.0
  0
LINE
  5
3594
330
18
100
AcDbEntity
  8
最小図面
100
AcDbLine
 10
-18.39300952881257
 20
178.3644077342121
 30
0.0
 11
-21.24566513174812
 21
187.2712919676679
 31
0.0
  0
LINE
  5
3595
330
18
100
AcDbEntity
  8
最小図面
100
AcDbLine
 10
-18.43789562206188
 20
140.7319876087081
 30
0.0
 11
-37.62840502877661
 21
144.1157921906515
 31
0.0
  0
LINE
  5
3597
330
18
100
AcDbEntity
  8
最小図面
100
AcDbLine
 10
-72.524723197767
 20
134.7037494330047
 30
0.0
 11
-22.02471971089527
 21
134.7037494330047
 31
0.0
  0
LINE
  5
359F
330
18
100
AcDbEntity
  8
最小図面
100
AcDbLine
 10
-73.524723197767
 20
133.7037494330047
 30
0.0
 11
-73.52471780354654
 21
116.2037495204274
 31
0.0
  0
LINE
  5
35A4
330
18
100
AcDbEntity
  8
最小図面
100
AcDbLine
 10
-52.52471971089534
 20
165.020093396176
 30
0.0
 11
-49.31222842405707
 21
183.239036826902
 31
0.0
  0
ARC
  5
35B7
330
18
100
AcDbEntity
  8
最小図面
100
AcDbCircle
 10
-48.81982454755092
 20
183.1522127380685
 30
0.0
 40
0.5
100
AcDbArc
 50
79.99999999999976
 51
169.9999999999981
  0
ARC
  5
35BA
330
18
100
AcDbEntity
  8
最小図面
100
AcDbCircle
 10
-24.9269451166146
 20
186.2037443607528
 30
0.0
 40
3.5
100
AcDbArc
 50
89.99999999999998
 51
169.9999999999981
  0
ARC
  5
35BB
330
18
100
AcDbEntity
  8
最小図面
100
AcDbCircle
 10
-24.57888311246431
 20
186.2037443607528
 30
0.0
 40
3.5
100
AcDbArc
 50
17.75898223559564
 51
89.99999999999998
  0
LINE
  5
35BC
330
18
100
AcDbEntity
  8
最小図面
100
AcDbLine
 10
-24.9269451166146
 20
189.7037443607528
 30
0.0
 11
-24.57888311246431
 21
189.7037443607528
 31
0.0
  0
LINE
  5
35BF
330
18
100
AcDbEntity
  8
最小図面
100
AcDbLine
 10
-30.92359397467044
 20
179.4889111291471
 30
0.0
 11
-31.37707063276713
 21
179.5688712990911
 31
0.0
  0
ARC
  5
35C2
330
18
100
AcDbEntity
  8
最小図面
100
AcDbCircle
 10
-30.91963681566431
 20
181.0113532930759
 30
0.0
 40
1.5
100
AcDbArc
 50
259.9999999999998
 51
349.999999999998
  0
ARC
  5
35C4
330
18
100
AcDbEntity
  8
最小図面
100
AcDbCircle
 10
-31.32497617946711
 20
179.8643136249947
 30
0.0
 40
0.3
100
AcDbArc
 50
169.9999999999981
 51
259.9999999999998
  0
ARC
  5
35C6
330
18
100
AcDbEntity
  8
最小図面
100
AcDbCircle
 10
-31.84640156020765
 20
180.3624256327997
 30
0.0
 40
0.3
100
AcDbArc
 50
349.999999999998
 51
80.00000000000058
  0
LINE
  5
35C8
330
18
100
AcDbEntity
  8
最小図面
100
AcDbLine
 10
-29.44242518614595
 20
180.7508810265755
 30
0.0
 11
-28.37377225215726
 21
186.811512982587
 31
0.0
  0
LINE
  5
35CC
330
18
100
AcDbEntity
  8
最小図面
100
AcDbLine
 10
-31.62041850537076
 20
179.9164080782948
 30
0.0
 11
-31.55095923430399
 21
180.3103311794997
 31
0.0
  0
LINE
  5
35CD
330
18
100
AcDbEntity
  8
最小図面
100
AcDbLine
 10
-31.79430710690752
 20
180.6578679587034
 30
0.0
 11
-48.73300045871736
 21
183.644616614575
 31
0.0
  0
LINE
  5
35D2
330
18
100
AcDbEntity
  8
最小図面
100
AcDbLine
 10
-52.52471971089534
 20
165.020093396176
 30
0.0
 11
-55.73721116333736
 21
146.8011490262643
 31
0.0
  0
ARC
  5
35D3
330
18
100
AcDbEntity
  8
最小図面
100
AcDbCircle
 10
-72.52472319776689
 20
133.7037494330047
 30
0.0
 40
1.0
100
AcDbArc
 50
89.99999999999998
 51
180.0
  0
ARC
  5
35D6
330
18
100
AcDbEntity
  8
最小図面
100
AcDbCircle
 10
-55.24480728683119
 20
146.7143249374308
 30
0.0
 40
0.5
100
AcDbArc
 50
169.9999999999981
 51
259.9999999999998
  0
LINE
  5
35E0
330
18
100
AcDbEntity
  8
最小図面
100
AcDbLine
 10
-37.92384735468049
 20
144.1678866439516
 30
0.0
 11
-38.04540124465109
 21
143.4785202776573
 31
0.0
  0
ARC
  5
35E2
330
18
100
AcDbEntity
  8
最小図面
100
AcDbCircle
 10
-37.68049948207675
 20
143.8203498647478
 30
0.0
 40
0.3
100
AcDbArc
 50
80.00000000000138
 51
169.9999999999947
  0
ARC
  5
35E4
330
18
100
AcDbEntity
  8
最小図面
100
AcDbCircle
 10
-37.68049948207675
 20
143.8203498647478
 30
0.0
 40
0.3
100
AcDbArc
 50
79.99999999999976
 51
169.9999999999981
  0
ARC
  5
35E9
330
18
100
AcDbEntity
  8
最小図面
100
AcDbCircle
 10
-38.34084357055468
 20
143.5306147309573
 30
0.0
 40
0.3
100
AcDbArc
 50
259.9999999999998
 51
349.999999999998
  0
ARC
  5
35EE
330
18
100
AcDbEntity
  8
最小図面
100
AcDbCircle
 10
-19.02471971089521
 20
138.7037443607527
 30
0.0
 40
0.5
100
AcDbArc
 50
89.99999999999998
 51
180.0
  0
LINE
  5
35EF
330
18
100
AcDbEntity
  8
最小図面
100
AcDbLine
 10
-19.52471971089527
 20
138.7037443607527
 30
0.0
 11
-19.52471971089527
 21
138.2037443607527
 31
0.0
  0
LINE
  5
35F0
330
18
100
AcDbEntity
  8
最小図面
100
AcDbLine
 10
-62.02471780354665
 20
111.2037494330047
 30
0.0
 11
-62.02471780354665
 21
101.7037494330047
 31
0.0
  0
ARC
  5
35FD
330
18
100
AcDbEntity
  8
最小図面
100
AcDbCircle
 10
-71.52471780354654
 20
116.2037494330047
 30
0.0
 40
2.0
100
AcDbArc
 50
179.9999974955215
 51
270.0
  0
ARC
  5
3602
330
18
100
AcDbEntity
  8
最小図面
100
AcDbCircle
 10
-65.02471780354659
 20
111.2037494330047
 30
0.0
 40
3.0
100
AcDbArc
 50
0.0000025044784472
 51
90.00000500895611
  0
LINE
  5
3603
330
18
100
AcDbEntity
  8
最小図面
100
AcDbLine
 10
-62.02471780354665
 20
101.7037494330047
 30
0.0
 11
-59.62471971089525
 21
99.20374943300476
 31
0.0
  0
ARC
  5
3619
330
18
100
AcDbEntity
  8
最小図面
100
AcDbCircle
 10
-16.48831353983182
 20
178.9744349381636
 30
0.0
 40
2.0
100
AcDbArc
 50
197.7589822355986
 51
259.9999999999998
  0
ARC
  5
361A
330
18
100
AcDbEntity
  8
最小図面
100
AcDbCircle
 10
-17.02471971089522
 20
146.5753662383967
 30
0.0
 40
30.0
100
AcDbArc
 50
0.0
 51
79.99999999999976
  0
ARC
  5
361C
330
18
100
AcDbEntity
  8
最小図面
100
AcDbCircle
 10
13.97528028910477
 20
140.2037443607527
 30
0.0
 40
1.0
100
AcDbArc
 50
180.0
 51
270.0
  0
LINE
  5
361F
330
18
100
AcDbEntity
  8
最小図面
100
AcDbLine
 10
-11.81527438088727
 20
176.119598828763
 30
0.0
 11
-16.83560989516569
 21
177.0048194321392
 31
0.0
  0
ARC
  5
3621
330
18
100
AcDbEntity
  8
最小図面
100
AcDbCircle
 10
-18.52471971089522
 20
140.239583732202
 30
0.0
 40
0.5
100
AcDbArc
 50
0.0
 51
79.99999999999976
  0
LINE
  5
3623
330
18
100
AcDbEntity
  8
最小図面
100
AcDbLine
 10
-18.02471971089527
 20
140.239583732202
 30
0.0
 11
-18.02471971089527
 21
140.2037443607527
 31
0.0
  0
LINE
  5
3624
330
18
100
AcDbEntity
  8
最小図面
100
AcDbLine
 10
12.97528028910477
 20
146.5753662383967
 30
0.0
 11
12.97528028910471
 21
140.2037443607527
 31
0.0
  0
ARC
  5
3626
330
18
100
AcDbEntity
  8
最小図面
100
AcDbCircle
 10
13.97528028910477
 20
138.7037443607527
 30
0.0
 40
0.5
100
AcDbArc
 50
0.0
 51
89.99999999999998
  0
LINE
  5
3628
330
18
100
AcDbEntity
  8
最小図面
100
AcDbLine
 10
14.47528028910471
 20
138.7037443607527
 30
0.0
 11
14.47528028910471
 21
138.2037443607527
 31
0.0
  0
LINE
  5
3629
330
18
100
AcDbEntity
  8
最小図面
100
AcDbLine
 10
16.47528028910471
 20
137.6570854643555
 30
0.0
 11
16.97528028910471
 21
137.1570854643555
 31
0.0
  0
LINE
  5
362D
330
18
100
AcDbEntity
  8
最小図面
100
AcDbLine
 10
16.97528028910471
 20
137.1570854643555
 30
0.0
 11
16.97528028910471
 21
134.7037494330047
 31
0.0
  0
LINE
  5
362E
330
18
100
AcDbEntity
  8
最小図面
100
AcDbLine
 10
16.47528028910471
 20
137.7037443607527
 30
0.0
 11
14.47528028910477
 21
137.7037443607527
 31
0.0
  0
LINE
  5
36BD
330
18
100
AcDbEntity
  8
最小図面
100
AcDbLine
 10
56.9752783817562
 20
111.2037494330047
 30
0.0
 11
56.9752783817562
 21
101.7037494330047
 31
0.0
  0
LINE
  5
36C6
330
18
100
AcDbEntity
  8
最小図面
100
AcDbLine
 10
59.9752783817562
 20
114.2037494330047
 30
0.0
 11
66.47527838175619
 21
114.2037494330047
 31
0.0
  0
ARC
  5
36F2
330
18
100
AcDbEntity
  8
最小図面
100
AcDbCircle
 10
59.97527838175607
 20
111.2037494330047
 30
0.0
 40
3.0
100
AcDbArc
 50
89.99999499104383
 51
179.9999974955215
  0
LINE
  5
3708
330
18
100
AcDbEntity
  8
最小図面
100
AcDbLine
 10
56.9752783817562
 20
101.7037494330047
 30
0.0
 11
54.57528028910473
 21
99.20374943300473
 31
0.0
  0
LINE
  5
370E
330
18
100
AcDbEntity
  8
最小図面
100
AcDbLine
 10
-2.127743239948016
 20
-28.79625056699524
 30
0.0
 11
-35.72471952016042
 21
-28.79625056699524
 31
0.0
  0
LINE
  5
3711
330
18
100
AcDbEntity
  8
最小図面
100
AcDbLine
 10
-35.72471952016042
 20
3.556380048239133
 30
0.0
 11
-35.72471952016042
 21
-5.341264854704377
 31
0.0
  0
ARC
  5
3712
330
18
100
AcDbEntity
  8
最小図面
100
AcDbCircle
 10
-43.77026236704034
 20
22.38591924753568
 30
0.0
 40
15.0
100
AcDbArc
 50
180.6365935759609
 51
262.5365059087919
  0
ARC
  5
3713
330
18
100
AcDbEntity
  8
最小図面
100
AcDbCircle
 10
-43.77026236704034
 20
22.38591924753568
 30
0.0
 40
15.0
100
AcDbArc
 50
180.6365935759609
 51
217.7723415829289
  0
ARC
  5
3714
330
18
100
AcDbEntity
  8
最小図面
100
AcDbCircle
 10
-38.7247185664861
 20
3.571128814610402
 30
0.0
 40
3.0
100
AcDbArc
 50
1.98857943536928
 51
82.53650590879194
  0
ARC
  5
3715
330
18
100
AcDbEntity
  8
最小図面
100
AcDbCircle
 10
-38.7247185664861
 20
3.571128814610402
 30
0.0
 40
3.0
100
AcDbArc
 50
0.0
 51
82.53650590879194
  0
LINE
  5
3716
330
18
100
AcDbEntity
  8
最小図面
100
AcDbLine
 10
-45.71867939237949
 20
7.513001877518262
 30
0.0
 11
-38.3350351614182
 21
6.545712288613912
 31
0.0
  0
LINE
  5
3717
330
18
100
AcDbEntity
  8
最小図面
100
AcDbLine
 10
-37.02471864084719
 20
-24.91787677163051
 30
0.0
 11
-35.64634540974862
 21
-26.29625000272904
 31
0.0
  0
LINE
  5
3718
330
18
100
AcDbEntity
  8
最小図面
100
AcDbLine
 10
-37.02471971089528
 20
-6.655579790628053
 30
0.0
 11
-37.02471971089528
 21
-24.91787837461242
 31
0.0
  0
LINE
  5
3719
330
18
100
AcDbEntity
  8
最小図面
100
AcDbLine
 10
-35.67970413458272
 20
-5.296249469126677
 30
0.0
 11
-37.02471864084714
 21
-6.641263975390983
 31
0.0
  0
ARC
  5
371E
330
18
100
AcDbEntity
  8
最小図面
100
AcDbCircle
 10
38.72082294524977
 20
22.38591924753568
 30
0.0
 40
15.0
100
AcDbArc
 50
277.463494091208
 51
359.3634064240355
  0
LINE
  5
3721
330
18
100
AcDbEntity
  8
最小図面
100
AcDbLine
 10
30.67527914469553
 20
3.571128814610459
 30
0.0
 11
30.67527914469553
 21
-5.341262857524667
 31
0.0
  0
ARC
  5
3730
330
18
100
AcDbEntity
  8
最小図面
100
AcDbCircle
 10
33.67527914469553
 20
3.571128814610375
 30
0.0
 40
3.0
100
AcDbArc
 50
97.46349409120803
 51
180.0
  0
LINE
  5
3731
330
18
100
AcDbEntity
  8
最小図面
100
AcDbLine
 10
40.66923997058893
 20
7.513001877518262
 30
0.0
 11
33.28559573962775
 21
6.545712288613912
 31
0.0
  0
LINE
  5
3734
330
18
100
AcDbEntity
  8
最小図面
100
AcDbLine
 10
-2.921696181842548
 20
-28.79625056699524
 30
0.0
 11
30.67527914469553
 21
-28.79625056699524
 31
0.0
  0
LINE
  5
3736
330
18
100
AcDbEntity
  8
最小図面
100
AcDbLine
 10
31.97527891386272
 20
-24.91787812032964
 30
0.0
 11
30.6752785905071
 21
-26.21787844368521
 31
0.0
  0
LINE
  5
3737
330
18
100
AcDbEntity
  8
最小図面
100
AcDbLine
 10
31.97528219645334
 20
-6.655579790628053
 30
0.0
 11
31.97528219645334
 21
-24.91787837461242
 31
0.0
  0
LINE
  5
3739
330
18
100
AcDbEntity
  8
最小図面
100
AcDbLine
 10
30.63026575629749
 20
-5.296249469126677
 30
0.0
 11
31.97528026256179
 21
-6.641263975390983
 31
0.0
  0
LINE
  5
373B
330
18
100
AcDbEntity
  8
最小図面
100
AcDbLine
 10
-65.02471780354659
 20
114.2037494330047
 30
0.0
 11
-71.52471780354666
 21
114.2037494330047
 31
0.0
  0
LINE
  5
3740
330
18
100
AcDbEntity
  8
最小図面
100
AcDbLine
 10
67.4752837759765
 20
134.7037494330051
 30
0.0
 11
49.26923290317345
 21
134.703749433005
 31
0.0
  0
LINE
  5
3746
330
18
100
AcDbEntity
  8
最小図面
100
AcDbLine
 10
59.9752786440244
 20
114.2037494330047
 30
0.0
 11
66.47527838175625
 21
114.2037494330051
 31
0.0
  0
ARC
  5
3749
330
18
100
AcDbEntity
  8
最小図面
100
AcDbCircle
 10
66.47527838175619
 20
116.203749433005
 30
0.0
 40
2.0
100
AcDbArc
 50
270.0000000000004
 51
0.0000025044788628
  0
LINE
  5
3751
330
18
100
AcDbEntity
  8
最小図面
100
AcDbLine
 10
68.47528377597644
 20
133.703749433005
 30
0.0
 11
68.47527838175626
 21
116.2037494330051
 31
0.0
  0
ARC
  5
3758
330
18
100
AcDbEntity
  8
最小図面
100
AcDbCircle
 10
67.47528377597642
 20
133.703749433005
 30
0.0
 40
1.0
100
AcDbArc
 50
0.0000000000003902
 51
90.0000000000004
  0
LINE
  5
375A
330
18
100
AcDbEntity
  8
最小図面
100
AcDbLine
 10
-21.52471971089528
 20
137.7037443607527
 30
0.0
 11
-19.52471971089521
 21
137.7037443607527
 31
0.0
  0
LINE
  5
375E
330
18
100
AcDbEntity
  8
最小図面
100
AcDbLine
 10
-22.02471971089527
 20
137.1570854643555
 30
0.0
 11
-22.02471971089527
 21
134.7037494330047
 31
0.0
  0
LINE
  5
3760
330
18
100
AcDbEntity
  8
最小図面
100
AcDbLine
 10
-21.52471971089528
 20
137.6570854643555
 30
0.0
 11
-22.02471971089527
 21
137.1570854643555
 31
0.0
  0
DIMENSION
  5
3763
330
18
100
AcDbEntity
  8
最小図面
100
AcDbDimension
  2
*D30
 10
68.47528377597644
 20
208.6058068695434
 30
0.0
 11
-2.524719710895281
 21
215.1064958459214
 31
0.0
 70
    32
  1
%%c<>
 71
     5
 42
142.0000069737434
  3
GEN-ISO
100
AcDbAlignedDimension
 13
-73.524723197767
 23
133.7037494330047
 33
0.0
 14
68.47528377597644
 24
133.703749433005
 34
0.0
100
AcDbRotatedDimension
1001
ACAD
1000
DSTYLE
1002
{
1070
   279
1070
     2
1070
   342
1005
0
1070
   343
1005
A07
1070
   344
1005
A07
1002
}
  0
LINE
  5
3791
330
18
100
AcDbEntity
  8
最小図面
100
AcDbLine
 10
-35.72471952016042
 20
-26.21787589231724
 30
0.0
 11
-35.72471952016042
 21
-28.79625056699524
 31
0.0
  0
LINE
  5
3792
330
18
100
AcDbEntity
  8
最小図面
100
AcDbLine
 10
30.67527914469553
 20
-26.21787788949677
 30
0.0
 11
30.67527914469553
 21
-28.79625056699524
 31
0.0
  0
ARC
  5
37EE
330
18
100
AcDbEntity
  8
最小図面
100
AcDbCircle
 10
46.5431730393903
 20
142.7037475256564
 30
0.0
 40
1.0
100
AcDbArc
 50
90.00000000000005
 51
175.9323690020455
  0
ARC
  5
37EF
330
18
100
AcDbEntity
  8
最小図面
100
AcDbCircle
 10
50.60256623650667
 20
138.2037475256564
 30
0.0
 40
2.833333333333333
100
AcDbArc
 50
127.4952497645583
 51
232.5047502354415
  0
ARC
  5
37F0
330
18
100
AcDbEntity
  8
最小図面
100
AcDbCircle
 10
48.26923290317342
 20
141.2451287908055
 30
0.0
 40
1.0
100
AcDbArc
 50
307.4952497645583
 51
0.000000000000007
  0
LINE
  5
37F1
330
18
100
AcDbEntity
  8
最小図面
100
AcDbLine
 10
49.26923290317347
 20
142.7037475256564
 30
0.0
 11
49.26923290317347
 21
141.2451287908055
 31
0.0
  0
ARC
  5
37F2
330
18
100
AcDbEntity
  8
最小図面
100
AcDbCircle
 10
48.26923290317342
 20
142.7037475256564
 30
0.0
 40
1.0
100
AcDbArc
 50
0.000000000000007
 51
90.00000000000005
  0
LINE
  5
37F3
330
18
100
AcDbEntity
  8
最小図面
100
AcDbLine
 10
44.97174330332586
 20
134.7037494330047
 30
0.0
 11
45.54569202346407
 21
142.7746814587666
 31
0.0
  0
ARC
  5
37F4
330
18
100
AcDbEntity
  8
最小図面
100
AcDbCircle
 10
48.26923290317342
 20
135.1623662605072
 30
0.0
 40
1.0
100
AcDbArc
 50
0.000000000000007
 51
52.50475023544165
  0
LINE
  5
37F5
330
18
100
AcDbEntity
  8
最小図面
100
AcDbLine
 10
49.26923290317347
 20
135.1623662605072
 30
0.0
 11
49.26923290317347
 21
134.7037494330047
 31
0.0
  0
LINE
  5
37F6
330
18
100
AcDbEntity
  8
最小図面
100
AcDbLine
 10
46.54317303939035
 20
143.7037475256564
 30
0.0
 11
48.26923290317346
 21
143.7037475256564
 31
0.0
  0
LINE
  5
3834
330
18
100
AcDbEntity
  8
最小図面
100
AcDbLine
 10
-19.52471971089521
 20
138.7037443607527
 30
0.0
 11
-19.52471971089521
 21
137.7037443607527
 31
0.0
  0
LINE
  5
3835
330
18
100
AcDbEntity
  8
最小図面
100
AcDbLine
 10
14.47528028910477
 20
138.7037443607527
 30
0.0
 11
14.47528028910477
 21
137.7037443607527
 31
0.0
  0
LINE
  5
3836
330
18
100
AcDbEntity
  8
最小図面
100
AcDbLine
 10
-55.33163137566464
 20
146.2219210609248
 30
0.0
 11
-38.39293802385475
 21
143.2351724050535
 31
0.0
  0
LINE
  5
3837
330
18
100
AcDbEntity
  8
最小図面
100
AcDbLine
 10
194.0588811475508
 20
-94.99279613677956
 30
0.0
 11
194.0588811475508
 21
-109.9927964224143
 31
0.0
  0
LINE
  5
3838
330
18
100
AcDbEntity
  8
最小図面
100
AcDbLine
 10
184.0588810757855
 20
-94.99279613677956
 30
0.0
 11
184.0588810757855
 21
-109.9927964224143
 31
0.0
  0
LINE
  5
383B
330
18
100
AcDbEntity
  8
最小図面
100
AcDbLine
 10
184.0588810757855
 20
-109.9927962444274
 30
0.0
 11
254.0588815781425
 21
-109.9927962444274
 31
0.0
  0
LINE
  5
3873
330
18
100
AcDbEntity
  8
最小図面
100
AcDbLine
 10
44.97174330332589
 20
134.703749433005
 30
0.0
 11
16.97528028910471
 21
134.7037494330047
 31
0.0
  0
ENDSEC
  0
SECTION
  2
OBJECTS
  0
DICTIONARY
  5
C
330
0
100
AcDbDictionary
281
     1
  3
ACAD_GROUP
350
D
  3
ACAD_LAYOUT
350
272B
  3
ACAD_MLINESTYLE
350
1B
  3
ACAD_PLOTSETTINGS
350
272C
  3
ACAD_PLOTSTYLENAME
350
2729
  3
AcAmCatalogState
350
3045
  3
AcAsAppObject
350
2FC7
  3
ACASGREF_MASTER
350
300F
  3
AcDbVariableDictionary
350
2739
  3
ACDMSYSVARMGR
350
2FA7
  3
ACGREF_MASTER
350
2746
  3
ACGREFACAD_MASTER
350
274A
  3
AcmDictionary
350
2750
  3
ACME_BOM_MANAGER_NAME
350
273F
  3
ACME_COMMAND_HISTORY
350
2738
  3
ACME_SCOPE_NAME
350
2737
  3
ACMESTATEMGR
350
2744
  3
AcmeSysVarManager
350
273B
  3
AcmSystemVariableManager
350
2754
  3
AD_APPL
350
3027
  3
AD_GREF_MODULE
350
3010
  3
AD_HOLENOTE_REPOSITORY
350
3029
  3
AD_MAPI_MODULE
350
302C
  3
ADSYSVARMGR
350
3019
  3
AmdtNamedDwgMgr
350
2FC1
  3
AMG
350
274C
  3
AMGSNAPSETTINGS
350
278B
  3
AMI_MASTER
350
274B
  3
ASURF_STATIC_VARS
350
2FC8
  3
AUTOCAD_ASSEMBLIES_PROJECT
350
3037
  3
AutoSurf_SysVars
350
2FC9
  3
Designer_Assemblies_SysVars
350
302E
  3
DWGPROPS
350
3820
  3
GREFAM_MODULE
350
3012
  3
MAPISURF_MODULE
350
3011
  0
DICTIONARY
  5
2793
330
18
100
AcDbDictionary
280
     1
281
     1
  3
ACAD_INDEX
360
31DE
  0
DICTIONARY
  5
D
102
{ACAD_REACTORS
330
C
102
}
330
C
100
AcDbDictionary
281
     1
  0
DICTIONARY
  5
272B
102
{ACAD_REACTORS
330
C
102
}
330
C
100
AcDbDictionary
281
     1
  3
Model
350
272D
  3
ﾚｲｱｳﾄ1
350
272E
  0
DICTIONARY
  5
1B
102
{ACAD_REACTORS
330
C
102
}
330
C
100
AcDbDictionary
281
     1
  3
STANDARD
350
1C
  0
DICTIONARY
  5
272C
102
{ACAD_REACTORS
330
C
102
}
330
C
100
AcDbDictionary
281
     1
  0
ACDBDICTIONARYWDFLT
  5
2729
102
{ACAD_REACTORS
330
C
102
}
330
C
100
AcDbDictionary
281
     1
  3
Normal
350
272A
100
AcDbDictionaryWithDefault
340
272A
  0
ACAD_PROXY_OBJECT
  5
3045
102
{ACAD_REACTORS
330
C
102
}
330
C
100
AcDbProxyObject
 90
      499
 91
      581
 95
   655383
 70
     0
 93
      392
310
3FFFFFFFE00A028140292219D2E494348DD4BB82E21A0A241B340ADC1AF2E41A541AF41C6C1A7BB37B61A9AAE1818C00AA00
 94
        0
  0
ACAD_PROXY_OBJECT
  5
2FC7
102
{ACAD_REACTORS
330
C
102
}
330
C
100
AcDbProxyObject
 90
      499
 91
      554
 95
   655383
 70
     0
 93
       10
310
4042
 94
        0
  0
ACAD_PROXY_OBJECT
  5
300F
102
{ACAD_REACTORS
330
C
102
}
330
C
100
AcDbProxyObject
 90
      499
 91
      559
 95
   655383
 70
     0
 93
       34
310
0100004057
 94
        0
  0
DICTIONARY
  5
2739
102
{ACAD_REACTORS
330
C
102
}
330
C
100
AcDbDictionary
281
     1
  3
INDEXCTL
350
273A
  0
ACAD_PROXY_OBJECT
  5
2FA7
102
{ACAD_REACTORS
330
C
102
}
330
C
100
AcDbProxyObject
 90
      499
 91
      508
 95
   655383
 70
     0
 93
      224
310
4C51847200000000000000000000000000000000000000000000000000
330
2FA8
330
2FA9
330
2FAA
330
2FAB
330
2FAC
330
2FAD
330
2FAE
330
2FB0
330
2FB1
330
2FB2
330
2FB3
330
2FB4
330
2FB5
330
2FB6
330
2FB7
330
2FB8
330
2FB9
330
2FBA
330
2FBB
330
2FBC
330
2FBD
330
2FBE
330
2FBF
330
2FC0
 94
        0
  0
ACAD_PROXY_OBJECT
  5
2746
102
{ACAD_REACTORS
330
C
102
}
330
C
100
AcDbProxyObject
 90
      499
 91
      517
 95
   655383
 70
     0
 93
       34
310
040000429B
 94
        0
  0
ACAD_PROXY_OBJECT
  5
274A
102
{ACAD_REACTORS
330
C
102
}
330
C
100
AcDbProxyObject
 90
      499
 91
      520
 95
   655383
 70
     0
 93
      114
310
04000041C000000000000000000000
 94
        0
  0
DICTIONARY
  5
2750
102
{ACAD_REACTORS
330
C
102
}
330
C
100
AcDbDictionary
281
     1
  3
AcmBOMDATA
350
2751
  3
AcmStdDictionary
350
2756
  0
ACAD_PROXY_OBJECT
  5
273F
102
{ACAD_REACTORS
330
C
102
}
330
C
100
AcDbProxyObject
 90
      499
 91
      511
 95
   655383
 70
     0
 93
       50
310
00010040400013
330
0
330
0
330
2740
 94
        0
  0
ACAD_PROXY_OBJECT
  5
2738
102
{ACAD_REACTORS
330
C
102
}
330
C
100
AcDbProxyObject
 90
      499
 91
      506
 95
   655383
 70
     0
 93
     2686
310
47805045A4F4F4D805045452494D40805084E202D205A4F4F4D01461354D1C80B4810DBDB5B585B990810D05390D1531311510B805045452494D805064D4952524F5240405084E202D205A4F4F4D01411693D3D36014151549054D16014151549054D16014151549054D16014115539113E014115539113E014115539113E0
310
14194D055915054E014194D055915054E014390535115149154D15511109353D1102014213880B4815539113C05084E202D20554E444F014115539113E014115539113E014115539113E014115539113E014115539113E014151549054D16014115539113E014115539113E014115539113E01419111115112552014191111
310
151125510101461354D1C80B4810DBDB5B585B990810D05390D1531311510B8050C475249505F535452455443488050C475249505F53545245544348805054552415345805045452494D8050551534156458
 94
        0
  0
ACAD_PROXY_OBJECT
  5
2737
102
{ACAD_REACTORS
330
C
102
}
330
C
100
AcDbProxyObject
 90
      499
 91
      505
 95
   655383
 70
     0
 93
     1242
310
050000440000000000000000000018662A0000000000000000000000000000000000000000000000000000000000000000000000000000000000000000000000000000000000000000000000000000000000000000000000000000000000000000000000000000000000000000000000000000000000000000000000000000
310
000000000000000000000000000000000000000000000000AAA406AA80
360
273C
360
273D
360
273E
360
2740
360
2755
360
2909
360
2ACF
360
2FA2
360
2FA3
360
2FA4
360
2FA5
360
2FA8
360
2FA9
360
2FAA
360
2FAB
360
2FAC
360
2FAD
360
2FAE
360
2FB0
360
2FB1
360
2FB2
360
2FB3
360
2FB4
360
2FB5
360
2FB6
360
2FB7
360
2FB8
360
2FB9
360
2FBA
360
2FBB
360
2FBC
360
2FBD
360
2FBE
360
2FBF
360
2FC0
360
2FCA
360
2FCB
360
2FCC
360
2FCD
360
2FCE
360
2FCF
360
2FD0
360
2FD1
360
2FD2
360
2FD3
360
2FD4
360
2FD5
360
2FD6
360
2FD7
360
2FD8
360
2FD9
360
2FDA
360
2FDB
360
2FDC
360
2FDD
360
2FDE
360
2FDF
360
2FE0
360
2FE1
360
2FE2
360
2FE3
360
2FE4
360
2FE5
360
2FE6
360
2FE7
360
2FE8
360
2FE9
360
2FEA
360
2FEB
360
2FEC
360
2FED
360
2FEE
360
2FEF
360
2FF0
360
2FF1
360
2FF2
360
2FF3
360
2FF4
360
2FF5
360
2FF6
360
2FF7
360
2FF8
360
2FF9
360
2FFA
360
2FFB
360
2FFC
360
2FFD
360
2FFE
360
2FFF
360
3000
360
3001
360
3002
360
3003
360
3004
360
3005
360
3006
360
3007
360
3008
360
3009
360
300A
360
300B
360
3015
360
3016
360
3017
360
3018
360
301A
360
301B
360
301C
360
301D
360
301E
360
301F
360
3020
360
3021
360
3022
360
3023
360
3024
360
3025
360
3026
360
3028
360
302A
360
302F
360
3030
360
3031
360
3032
360
3033
360
3034
360
3035
360
3036
360
303B
360
303C
360
303D
360
303E
360
303F
360
3040
 94
        0
  0
ACAD_PROXY_OBJECT
  5
2744
102
{ACAD_REACTORS
330
C
102
}
330
C
100
AcDbProxyObject
 90
      499
 91
      516
 95
   655383
 70
     0
 93
       50
310
050000412412A5
 94
        0
  0
ACAD_PROXY_OBJECT
  5
273B
102
{ACAD_REACTORS
330
C
102
}
330
C
100
AcDbProxyObject
 90
      499
 91
      508
 95
   655383
 70
     0
 93
       48
310
90341200000011
330
273C
330
273D
330
273E
 94
        0
  0
ACAD_PROXY_OBJECT
  5
2754
102
{ACAD_REACTORS
330
C
102
}
330
C
100
AcDbProxyObject
 90
      499
 91
      508
 95
   655383
 70
     0
 93
       32
310
90140A0000
330
2755
 94
        0
  0
ACAD_PROXY_OBJECT
  5
3027
102
{ACAD_REACTORS
330
C
102
}
330
C
100
AcDbProxyObject
 90
      499
 91
      568
 95
   655383
 70
     0
 93
       42
310
000500004382
330
3015
 94
        0
  0
ACAD_PROXY_OBJECT
  5
3010
102
{ACAD_REACTORS
330
C
102
}
330
C
100
AcDbProxyObject
 90
      499
 91
      560
 95
   655383
 70
     0
 93
      114
310
000000438000000000000000000026
 94
        0
  0
ACAD_PROXY_OBJECT
  5
3029
102
{ACAD_REACTORS
330
C
102
}
330
C
100
AcDbProxyObject
 90
      499
 91
      570
 95
   655383
 70
     0
 93
        8
310
0000
330
3028
 94
        0
  0
ACAD_PROXY_OBJECT
  5
302C
102
{ACAD_REACTORS
330
C
102
}
330
C
100
AcDbProxyObject
 90
      499
 91
      572
 95
   655383
 70
     0
 93
       34
310
05000044D7
 94
        0
  0
ACAD_PROXY_OBJECT
  5
3019
102
{ACAD_REACTORS
330
C
102
}
330
C
100
AcDbProxyObject
 90
      499
 91
      508
 95
   655383
 70
     0
 93
      136
310
90E44A000000000000000000000000000000
330
301A
330
301B
330
301C
330
301D
330
301E
330
301F
330
3020
330
3021
330
3022
330
3023
330
3024
330
3025
330
3026
330
302A
 94
        0
  0
ACAD_PROXY_OBJECT
  5
2FC1
102
{ACAD_REACTORS
330
C
102
}
330
C
100
AcDbProxyObject
 90
      499
 91
      551
 95
   655383
 70
     0
 93
       42
310
000100005582
330
2FA2
 94
        0
  0
DICTIONARY
  5
274C
102
{ACAD_REACTORS
330
C
102
}
330
C
100
AcDbDictionary
281
     1
  3
AcMgSettings
350
274D
  3
AMGLAYCFG
350
2758
  0
DICTIONARY
  5
278B
102
{ACAD_REACTORS
330
C
102
}
330
C
100
AcDbDictionary
281
     1
  3
DIMENSION
350
2790
  3
FEA
350
278F
  3
HATCH (1)
350
278C
  3
HATCH (2)
350
278D
  3
SIMPLE WELD
350
2791
  3
SYMBOLS
350
278E
  0
ACAD_PROXY_OBJECT
  5
274B
102
{ACAD_REACTORS
330
C
102
}
330
C
100
AcDbProxyObject
 90
      499
 91
      521
 95
   655383
 70
     0
 93
       34
310
050000429B
 94
        0
  0
ACAD_PROXY_OBJECT
  5
2FC8
102
{ACAD_REACTORS
330
C
102
}
330
C
100
AcDbProxyObject
 90
      499
 91
      555
 95
   655383
 70
     0
 93
      424
310
585314D60000000000000000000000000000000000000000000000000000000000000000000000000000000000000000000000000000
330
2FDB
330
2FDC
330
2FDD
330
2FDE
330
2FDF
330
2FE0
330
2FE1
330
2FE2
330
2FE3
330
2FE4
330
2FE5
330
2FE6
330
2FE7
330
2FE8
330
2FE9
330
2FEA
330
2FEB
330
2FEC
330
2FED
330
2FEE
330
2FEF
330
2FF0
330
2FF1
330
2FF2
330
2FF3
330
2FF4
330
2FF5
330
2FF6
330
2FF7
330
2FF8
330
2FF9
330
2FFA
330
2FFB
330
2FFC
330
2FFD
330
2FFE
330
2FFF
330
3000
330
3001
330
3002
330
3003
330
3004
330
3005
330
3006
330
3007
330
3008
330
3009
330
300A
330
300B
 94
        0
  0
ACAD_PROXY_OBJECT
  5
3037
102
{ACAD_REACTORS
330
C
102
}
330
C
100
AcDbProxyObject
 90
      499
 91
      574
 95
   655383
 70
     0
 93
       74
310
05000049800000000013
330
303E
330
0
330
303F
330
0
330
0
 94
        0
  0
ACAD_PROXY_OBJECT
  5
2FC9
102
{ACAD_REACTORS
330
C
102
}
330
C
100
AcDbProxyObject
 90
      499
 91
      508
 95
   655383
 70
     0
 93
      168
310
4C511456000000000000000000000000000000000000
330
2FCA
330
2FCB
330
2FCC
330
2FCD
330
2FCE
330
2FCF
330
2FD0
330
2FD1
330
2FD2
330
2FD3
330
2FD4
330
2FD5
330
2FD6
330
2FD7
330
2FD8
330
2FD9
330
2FDA
 94
        0
  0
ACAD_PROXY_OBJECT
  5
302E
102
{ACAD_REACTORS
330
C
102
}
330
C
100
AcDbProxyObject
 90
      499
 91
      508
 95
   655383
 70
     0
 93
       88
310
908432000000000000000000
330
302F
330
3030
330
3031
330
3032
330
3033
330
3034
330
3035
330
3036
 94
        0
  0
XRECORD
  5
3820
102
{ACAD_REACTORS
330
C
102
}
330
C
100
AcDbXrecord
280
     1
  1
DWGPROPS COOKIE
  2

  3

  4

  6

  7

  8

  9

300
AmdtFileType=84
301
=
302
=
303
=
304
=
305
=
306
=
307
=
308
=
309
=
 40
0.3178079050925926
 41
2451332.598188681
 42
2454628.80995162
  1

 90
        1
  0
ACAD_PROXY_OBJECT
  5
3012
102
{ACAD_REACTORS
330
C
102
}
330
C
100
AcDbProxyObject
 90
      499
 91
      562
 95
   655383
 70
     0
 93
        8
310
0500
 94
        0
  0
ACAD_PROXY_OBJECT
  5
3011
102
{ACAD_REACTORS
330
C
102
}
330
C
100
AcDbProxyObject
 90
      499
 91
      561
 95
   655383
 70
     0
 93
        8
310
0400
 94
        0
  0
DICTIONARY
  5
31DE
102
{ACAD_REACTORS
330
2793
102
}
330
2793
100
AcDbDictionary
281
     1
  3
*A1
350
31DF
  0
LAYOUT
  5
272D
102
{ACAD_REACTORS
330
272B
102
}
330
272B
100
AcDbPlotSettings
  1

  2
\\STN012\RICOH IPSiO NX700
  4
A4
  6

 40
5.831416606903076
 41
4.942422866821289
 42
7.609405517578125
 43
5.789093017578125
 44
209.9733276367186
 45
296.9683227539062
 46
2.5
 47
11.65
 48
0.0
 49
0.0
140
0.0
141
0.0
142
1.0
143
2.0
 70
 11956
 72
     1
 73
     1
 74
     1
  7
acad.ctb
 75
    17
147
0.5
148
271.79070717737
149
110.015480819332
100
AcDbLayout
  1
Model
 70
     1
 71
     0
 10
0.0
 20
0.0
 11
12.0
 21
9.0
 12
0.0
 22
0.0
 32
0.0
 14
0.0
 24
0.0
 34
0.0
 15
0.0
 25
0.0
 35
0.0
146
0.0
 13
0.0
 23
0.0
 33
0.0
 16
1.0
 26
0.0
 36
0.0
 17
0.0
 27
1.0
 37
0.0
 76
     0
330
18
  0
LAYOUT
  5
272E
102
{ACAD_REACTORS
330
272B
102
}
330
272B
100
AcDbPlotSettings
  1

  2
\\STN012\RICOH IPSiO NX700
  4

  6

 40
0.0
 41
0.0
 42
0.0
 43
0.0
 44
0.0
 45
0.0
 46
0.0
 47
0.0
 48
0.0
 49
0.0
140
0.0
141
0.0
142
1.0
143
1.0
 70
   688
 72
     0
 73
     0
 74
     5
  7
acad.ctb
 75
    16
147
1.0
148
0.0
149
0.0
100
AcDbLayout
  1
ﾚｲｱｳﾄ1
 70
     1
 71
     1
 10
0.0
 20
0.0
 11
12.0
 21
9.0
 12
0.0
 22
0.0
 32
0.0
 14
1.000000000000000E+20
 24
1.000000000000000E+20
 34
1.000000000000000E+20
 15
-1.000000000000000E+20
 25
-1.000000000000000E+20
 35
-1.000000000000000E+20
146
0.0
 13
0.0
 23
0.0
 33
0.0
 16
1.0
 26
0.0
 36
0.0
 17
0.0
 27
1.0
 37
0.0
 76
     0
330
15
  0
MLINESTYLE
  5
1C
102
{ACAD_REACTORS
330
1B
102
}
330
1B
100
AcDbMlineStyle
  2
STANDARD
 70
     0
  3

 62
   256
 51
90.0
 52
90.0
 71
     2
 49
0.5
 62
   256
  6
BYLAYER
 49
-0.5
 62
   256
  6
BYLAYER
  0
ACDBPLACEHOLDER
  5
272A
102
{ACAD_REACTORS
330
2729
102
}
330
2729
  0
DICTIONARYVAR
  5
273A
102
{ACAD_REACTORS
330
2739
102
}
330
2739
100
DictionaryVariables
280
     0
  1
1
  0
ACAD_PROXY_OBJECT
  5
2751
102
{ACAD_REACTORS
330
2750
102
}
330
2750
100
AcDbProxyObject
 90
      499
 91
      523
 95
   655383
 70
     0
 93
      118
310
405010040CA904C415CD5B07545089
350
2752
 94
        0
  0
DICTIONARY
  5
2756
102
{ACAD_REACTORS
330
2750
102
}
330
2750
100
AcDbDictionary
281
     1
  3
ISO
350
2757
  0
ACAD_PROXY_OBJECT
  5
273C
330
0
100
AcDbProxyObject
 90
      499
 91
      509
 95
   655383
 70
     0
 93
      156
310
00010143D050D351505391D5531054925390D492
330
2737
 94
        0
  0
ACAD_PROXY_OBJECT
  5
273D
330
0
100
AcDbProxyObject
 90
      499
 91
      509
 95
   655383
 70
     0
 93
      148
310
000101439050D351531253915054925390D494
330
2737
 94
        0
  0
ACAD_PROXY_OBJECT
  5
273E
330
0
100
AcDbProxyObject
 90
      499
 91
      510
 95
   655383
 70
     0
 93
      156
310
000101439050D35154D6535093D314D256915082
330
2737
 94
        0
  0
ACAD_PROXY_OBJECT
  5
2740
330
0
100
AcDbProxyObject
 90
      499
 91
      512
 95
   655383
 70
     0
 93
      120
310
000101422565255A6557080C402B0000
330
2737
330
0
330
0
 94
        0
  0
ACAD_PROXY_OBJECT
  5
2755
330
0
100
AcDbProxyObject
 90
      499
 91
      525
 95
   655383
 70
     0
 93
      140
310
00010142105350D55494D5110050349534F8
330
2737
 94
        0
  0
ACAD_PROXY_OBJECT
  5
2909
330
0
100
AcDbProxyObject
 90
      499
 91
      546
 95
   655383
 70
     0
 93
      415
310
0011435058D499931A5B9954DD185D1963234D7FE6D8AB1200A05AED914F067A810C8D35FF9B62AC480540B1DF269E0A4A040001
330
2737
330
0
330
0
 94
        0
  0
ACAD_PROXY_OBJECT
  5
2ACF
330
0
100
AcDbProxyObject
 90
      499
 91
      546
 95
   655383
 70
     0
 93
      415
310
0011435058D499931A5B9954DD185D1963234D7FE6D8AB1200A05AED914F067A810C8D35FF9B62AC480540B1DF269E0A4A040001
330
2737
330
0
330
0
 94
        0
  0
ACAD_PROXY_OBJECT
  5
2FA2
330
0
100
AcDbProxyObject
 90
      499
 91
      547
 95
   655383
 70
     0
 93
      366
310
0001014124FEA55D00507352E312E342E31014124FEA55D00508352E312E322E313340501000041505391D311658
330
2737
330
2FA3
330
2FA7
 94
        0
  0
ACAD_PROXY_OBJECT
  5
2FA3
330
0
100
AcDbProxyObject
 90
      499
 91
      548
 95
   655383
 70
     0
 93
       48
310
000190140A0011
330
2737
330
2FA4
 94
        0
  0
ACAD_PROXY_OBJECT
  5
2FA4
330
0
100
AcDbProxyObject
 90
      499
 91
      549
 95
   655383
 70
     0
 93
       48
310
0001AA00000011
330
2737
330
272E
330
2FA5
330
0
 94
        0
  0
ACAD_PROXY_OBJECT
  5
2FA5
330
0
100
AcDbProxyObject
 90
      499
 91
      550
 95
   655383
 70
     0
 93
       28
310
0001AAA8
330
2737
 94
        0
  0
ACAD_PROXY_OBJECT
  5
2FA8
330
0
100
AcDbProxyObject
 90
      499
 91
      510
 95
   655383
 70
     0
 93
      108
310
000101421053521310D05310D010
330
2737
 94
        0
  0
ACAD_PROXY_OBJECT
  5
2FA9
330
0
100
AcDbProxyObject
 90
      499
 91
      510
 95
   655383
 70
     0
 93
      124
310
00010142905354915554D15112535010
330
2737
 94
        0
  0
ACAD_PROXY_OBJECT
  5
2FAA
330
0
100
AcDbProxyObject
 90
      499
 91
      510
 95
   655383
 70
     0
 93
      132
310
00010143105354D150D51253D391125360
330
2737
 94
        0
  0
ACAD_PROXY_OBJECT
  5
2FAB
330
0
100
AcDbProxyObject
 90
      499
 91
      510
 95
   655383
 70
     0
 93
      124
310
00010142905355941093D49111549013
330
2737
 94
        0
  0
ACAD_PROXY_OBJECT
  5
2FAC
330
0
100
AcDbProxyObject
 90
      499
 91
      510
 95
   655383
 70
     0
 93
      116
310
0001014290535115D1D0D3D313D4A0
330
2737
 94
        0
  0
ACAD_PROXY_OBJECT
  5
2FAD
330
0
100
AcDbProxyObject
 90
      499
 91
      510
 95
   655383
 70
     0
 93
      148
310
00010143505355925155D49151949154D21010
330
2737
 94
        0
  0
ACAD_PROXY_OBJECT
  5
2FAE
330
0
100
AcDbProxyObject
 90
      499
 91
      510
 95
   655383
 70
     0
 93
      172
310
00010144105350539393D51154149154D15495915010
330
2737
 94
        0
  0
ACAD_PROXY_OBJECT
  5
2FB0
330
0
100
AcDbProxyObject
 90
      499
 91
      510
 95
   655383
 70
     0
 93
      172
310
00010144105350555513D11253505494905391D15010
330
2737
 94
        0
  0
ACAD_PROXY_OBJECT
  5
2FB1
330
0
100
AcDbProxyObject
 90
      499
 91
      510
 95
   655383
 70
     0
 93
      124
310
00010142D05351561514915191125364
330
2737
 94
        0
  0
ACAD_PROXY_OBJECT
  5
2FB2
330
0
100
AcDbProxyObject
 90
      499
 91
      510
 95
   655383
 70
     0
 93
      132
310
00010142D05355105410539393D5115010
330
2737
 94
        0
  0
ACAD_PROXY_OBJECT
  5
2FB3
330
0
100
AcDbProxyObject
 90
      499
 91
      510
 95
   655383
 70
     0
 93
      108
310
00010142105350555513D0D31015
330
2737
 94
        0
  0
ACAD_PROXY_OBJECT
  5
2FB4
330
0
100
AcDbProxyObject
 90
      499
 91
      510
 95
   655383
 70
     0
 93
      108
310
00010142105350D3119150551055
330
2737
 94
        0
  0
ACAD_PROXY_OBJECT
  5
2FB5
330
0
100
AcDbProxyObject
 90
      499
 91
      510
 95
   655383
 70
     0
 93
      108
310
00010142105350D315925155D3F5
330
2737
 94
        0
  0
ACAD_PROXY_OBJECT
  5
2FB6
330
0
100
AcDbProxyObject
 90
      499
 91
      510
 95
   655383
 70
     0
 93
      148
310
0001014350535212511156915493D112535011
330
2737
 94
        0
  0
ACAD_PROXY_OBJECT
  5
2FB7
330
0
100
AcDbProxyObject
 90
      499
 91
      510
 95
   655383
 70
     0
 93
      116
310
00010142905352105510D21254D3E1
330
2737
 94
        0
  0
ACAD_PROXY_OBJECT
  5
2FB8
330
0
100
AcDbProxyObject
 90
      499
 91
      510
 95
   655383
 70
     0
 93
      148
310
00010143905354D25391D31152105513105661
330
2737
 94
        0
  0
ACAD_PROXY_OBJECT
  5
2FB9
330
0
100
AcDbProxyObject
 90
      499
 91
      510
 95
   655383
 70
     0
 93
      124
310
00010142D0535115D1D193111254D423
330
2737
 94
        0
  0
ACAD_PROXY_OBJECT
  5
2FBA
330
0
100
AcDbProxyObject
 90
      499
 91
      510
 95
   655383
 70
     0
 93
      100
310
00010142105350555513D213A2
330
2737
 94
        0
  0
ACAD_PROXY_OBJECT
  5
2FBB
330
0
100
AcDbProxyObject
 90
      499
 91
      510
 95
   655383
 70
     0
 93
      116
310
000101425053521390D3D553951014
330
2737
 94
        0
  0
ACAD_PROXY_OBJECT
  5
2FBC
330
0
100
AcDbProxyObject
 90
      499
 91
      510
 95
   655383
 70
     0
 93
      108
310
0001014210535213941493D29010
330
2737
 94
        0
  0
ACAD_PROXY_OBJECT
  5
2FBD
330
0
100
AcDbProxyObject
 90
      499
 91
      510
 95
   655383
 70
     0
 93
      108
310
0001014210535213951654115070
330
2737
 94
        0
  0
ACAD_PROXY_OBJECT
  5
2FBE
330
0
100
AcDbProxyObject
 90
      499
 91
      510
 95
   655383
 70
     0
 93
      108
310
000101421053521395925155D0F0
330
2737
 94
        0
  0
ACAD_PROXY_OBJECT
  5
2FBF
330
0
100
AcDbProxyObject
 90
      499
 91
      510
 95
   655383
 70
     0
 93
      140
310
00010143505354D150D51253D390D3D41666
330
2737
 94
        0
  0
ACAD_PROXY_OBJECT
  5
2FC0
330
0
100
AcDbProxyObject
 90
      499
 91
      510
 95
   655383
 70
     0
 93
      108
310
00010142105350D3141493D29030
330
2737
 94
        0
  0
ACAD_PROXY_OBJECT
  5
2FCA
330
0
100
AcDbProxyObject
 90
      499
 91
      510
 95
   655383
 70
     0
 93
      116
310
000101425053541051D15311539190
330
2737
 94
        0
  0
ACAD_PROXY_OBJECT
  5
2FCB
330
0
100
AcDbProxyObject
 90
      499
 91
      510
 95
   655383
 70
     0
 93
      108
310
000101421053555312539154D051
330
2737
 94
        0
  0
ACAD_PROXY_OBJECT
  5
2FCC
330
0
100
AcDbProxyObject
 90
      499
 91
      510
 95
   655383
 70
     0
 93
      108
310
000101421053559312539154D031
330
2737
 94
        0
  0
ACAD_PROXY_OBJECT
  5
2FCD
330
0
100
AcDbProxyObject
 90
      499
 91
      510
 95
   655383
 70
     0
 93
      140
310
00010143105354D1911254D41353D1115010
330
2737
 94
        0
  0
ACAD_PROXY_OBJECT
  5
2FCE
330
0
100
AcDbProxyObject
 90
      499
 91
      509
 95
   655383
 70
     0
 93
      172
310
00010142505354119255105391C1C052DC9A6F104400
330
2737
 94
        0
  0
ACAD_PROXY_OBJECT
  5
2FCF
330
0
100
AcDbProxyObject
 90
      499
 91
      509
 95
   655383
 70
     0
 93
      164
310
000101421053559150D05551C000000000000E03F4
330
2737
 94
        0
  0
ACAD_PROXY_OBJECT
  5
2FD0
330
0
100
AcDbProxyObject
 90
      499
 91
      509
 95
   655383
 70
     0
 93
      180
310
00010142905350931153911513D307B14AE47E17A843F0
330
2737
 94
        0
  0
ACAD_PROXY_OBJECT
  5
2FD1
330
0
100
AcDbProxyObject
 90
      499
 91
      509
 95
   655383
 70
     0
 93
      172
310
0001014250535293D25391D05407B14AE47E17A843F3
330
2737
 94
        0
  0
ACAD_PROXY_OBJECT
  5
2FD2
330
0
100
AcDbProxyObject
 90
      499
 91
      509
 95
   655383
 70
     0
 93
      172
310
000101425053541192551311538000000FC83D797413
330
2737
 94
        0
  0
ACAD_PROXY_OBJECT
  5
2FD3
330
0
100
AcDbProxyObject
 90
      499
 91
      509
 95
   655383
 70
     0
 93
      156
310
00010141D053559150D4D18000000000000E03F9
330
2737
 94
        0
  0
ACAD_PROXY_OBJECT
  5
2FD4
330
0
100
AcDbProxyObject
 90
      499
 91
      509
 95
   655383
 70
     0
 93
      156
310
00010141D05354D19513D309A9999999999993F9
330
2737
 94
        0
  0
ACAD_PROXY_OBJECT
  5
2FD5
330
0
100
AcDbProxyObject
 90
      499
 91
      509
 95
   655383
 70
     0
 93
      172
310
000101425053541192551513D307B14AE47E17A843F3
330
2737
 94
        0
  0
ACAD_PROXY_OBJECT
  5
2FD6
330
0
100
AcDbProxyObject
 90
      499
 91
      509
 95
   655383
 70
     0
 93
      188
310
00010142D05354D151D192551513D307B14AE47E17A843F0
330
2737
 94
        0
  0
ACAD_PROXY_OBJECT
  5
2FD7
330
0
100
AcDbProxyObject
 90
      499
 91
      509
 95
   655383
 70
     0
 93
      148
310
000101419053541311538000000FC83D797414
330
2737
 94
        0
  0
ACAD_PROXY_OBJECT
  5
2FD8
330
0
100
AcDbProxyObject
 90
      499
 91
      509
 95
   655383
 70
     0
 93
      172
310
00010142505354105391D513D301C052DC9A6F104408
330
2737
 94
        0
  0
ACAD_PROXY_OBJECT
  5
2FD9
330
0
100
AcDbProxyObject
 90
      499
 91
      509
 95
   655383
 70
     0
 93
      132
310
0001014114D2569140000000000002440C
330
2737
 94
        0
  0
ACAD_PROXY_OBJECT
  5
2FDA
330
0
100
AcDbProxyObject
 90
      499
 91
      525
 95
   655383
 70
     0
 93
      156
310
00010142905351D4941491519256005034153470
330
2737
 94
        0
  0
ACAD_PROXY_OBJECT
  5
2FDB
330
0
100
AcDbProxyObject
 90
      499
 91
      556
 95
   655383
 70
     0
 93
      314
310
00014080509646973745363616C650000000000003C2FC000000000000F0BF0000003F20F5E5D040
330
2737
 94
        0
  0
ACAD_PROXY_OBJECT
  5
2FDC
330
0
100
AcDbProxyObject
 90
      499
 91
      556
 95
   655383
 70
     0
 93
      322
310
0001408050A65646175526F74617465060B51153EC87E4FC182D4454FB2119C0060B51153EC8465000
330
2737
 94
        0
  0
ACAD_PROXY_OBJECT
  5
2FDD
330
0
100
AcDbProxyObject
 90
      499
 91
      556
 95
   655383
 70
     0
 93
      314
310
00014080509656461755477697374060B51153EC846500000000FC83D797C10000003F20F5E5D050
330
2737
 94
        0
  0
ACAD_PROXY_OBJECT
  5
2FDE
330
0
100
AcDbProxyObject
 90
      499
 91
      557
 95
   655383
 70
     0
 93
      294
310
000140C050A656467654F75747075740144F3B7F635ECB74A140A4817D41BDB1E5B1A5B995
330
2737
 94
        0
  0
ACAD_PROXY_OBJECT
  5
2FDF
330
0
100
AcDbProxyObject
 90
      499
 91
      558
 95
   655383
 70
     0
 93
      154
310
0001404050B6564697450726576696577406407F
330
2737
 94
        0
  0
ACAD_PROXY_OBJECT
  5
2FE0
330
0
100
AcDbProxyObject
 90
      499
 91
      558
 95
   655383
 70
     0
 93
      170
310
0001404050A666C6F77556C696E657342A3A00C0001E
330
2737
 94
        0
  0
ACAD_PROXY_OBJECT
  5
2FE1
330
0
100
AcDbProxyObject
 90
      499
 91
      558
 95
   655383
 70
     0
 93
      170
310
0001404050A666C6F77566C696E657342A3A00C0001E
330
2737
 94
        0
  0
ACAD_PROXY_OBJECT
  5
2FE2
330
0
100
AcDbProxyObject
 90
      499
 91
      556
 95
   655383
 70
     0
 93
      322
310
0001408050A666C7366456E645261640000000000003C2FC000000000000F0BF0000003F20F5E5D040
330
2737
 94
        0
  0
ACAD_PROXY_OBJECT
  5
2FE3
330
0
100
AcDbProxyObject
 90
      499
 91
      557
 95
   655383
 70
     0
 93
      246
310
000140C05086A6E33644D6F64650143E3BA24EB8A134A4817D3585B9D585B0
330
2737
 94
        0
  0
ACAD_PROXY_OBJECT
  5
2FE4
330
0
100
AcDbProxyObject
 90
      499
 91
      557
 95
   655383
 70
     0
 93
      294
310
000140C050A6A6E33644F75747075740144F3B7F635ECB74A140A4817D41BDB1E5B1A5B994
330
2737
 94
        0
  0
ACAD_PROXY_OBJECT
  5
2FE5
330
0
100
AcDbProxyObject
 90
      499
 91
      556
 95
   655383
 70
     0
 93
      306
310
000140805086C656E675065726300000000002016D002D431CEBE2361A3F0000003F20F5E5D065
330
2737
 94
        0
  0
ACAD_PROXY_OBJECT
  5
2FE6
330
0
100
AcDbProxyObject
 90
      499
 91
      556
 95
   655383
 70
     0
 93
      266
310
0001408050B6D61737344656E7369747942D431CEBE2361A3F0000003F20F5E5D07F
330
2737
 94
        0
  0
ACAD_PROXY_OBJECT
  5
2FE7
330
0
100
AcDbProxyObject
 90
      499
 91
      556
 95
   655383
 70
     0
 93
      186
310
000140805096D617373546869636BA0000003F20F5E5D05A
330
2737
 94
        0
  0
ACAD_PROXY_OBJECT
  5
2FE8
330
0
100
AcDbProxyObject
 90
      499
 91
      557
 95
   655383
 70
     0
 93
      230
310
000140C05086D6173735479706501436F2AB64A14CA4817D4DA195B1B3
330
2737
 94
        0
  0
ACAD_PROXY_OBJECT
  5
2FE9
330
0
100
AcDbProxyObject
 90
      499
 91
      556
 95
   655383
 70
     0
 93
      242
310
000140805086F667366446973744000000FC83D797C10000003F20F5E5D075
330
2737
 94
        0
  0
ACAD_PROXY_OBJECT
  5
2FEA
330
0
100
AcDbProxyObject
 90
      499
 91
      556
 95
   655383
 70
     0
 93
      258
310
0001408050A7072696D52616469757342D431CEBE2361A3F0000003F20F5E5D050
330
2737
 94
        0
  0
ACAD_PROXY_OBJECT
  5
2FEB
330
0
100
AcDbProxyObject
 90
      499
 91
      556
 95
   655383
 70
     0
 93
      194
310
0001408050A7072696D546F70526164A0000003F20F5E5D040
330
2737
 94
        0
  0
ACAD_PROXY_OBJECT
  5
2FEC
330
0
100
AcDbProxyObject
 90
      499
 91
      556
 95
   655383
 70
     0
 93
      266
310
0001408050B7072696D5475626552616442D431CEBE2361A3F0000003F20F5E5D07F
330
2737
 94
        0
  0
ACAD_PROXY_OBJECT
  5
2FED
330
0
100
AcDbProxyObject
 90
      499
 91
      556
 95
   655383
 70
     0
 93
      258
310
0001408050A7072696D4865696768744000000FC83D797C10000003F20F5E5D050
330
2737
 94
        0
  0
ACAD_PROXY_OBJECT
  5
2FEE
330
0
100
AcDbProxyObject
 90
      499
 91
      556
 95
   655383
 70
     0
 93
      250
310
000140805097072696D5374416E678182D4454FB2119C0060B51153EC8465010
330
2737
 94
        0
  0
ACAD_PROXY_OBJECT
  5
2FEF
330
0
100
AcDbProxyObject
 90
      499
 91
      556
 95
   655383
 70
     0
 93
      322
310
0001408050A7072696D456E64416E67060B51153EC846500182D4454FB2119C0060B51153EC8465000
330
2737
 94
        0
  0
ACAD_PROXY_OBJECT
  5
2FF0
330
0
100
AcDbProxyObject
 90
      499
 91
      556
 95
   655383
 70
     0
 93
      242
310
000140805087265765374416E678182D4454FB2119C0060B51153EC8465019
330
2737
 94
        0
  0
ACAD_PROXY_OBJECT
  5
2FF1
330
0
100
AcDbProxyObject
 90
      499
 91
      556
 95
   655383
 70
     0
 93
      314
310
00014080509726576456E64416E67060B51153EC846500182D4454FB2119C0060B51153EC8465010
330
2737
 94
        0
  0
ACAD_PROXY_OBJECT
  5
2FF2
330
0
100
AcDbProxyObject
 90
      499
 91
      558
 95
   655383
 70
     0
 93
      194
310
0001404050C7266736655706174636865734290139C0C0002D
330
2737
 94
        0
  0
ACAD_PROXY_OBJECT
  5
2FF3
330
0
100
AcDbProxyObject
 90
      499
 91
      558
 95
   655383
 70
     0
 93
      194
310
0001404050C7266736656706174636865734290139C0C0002D
330
2737
 94
        0
  0
ACAD_PROXY_OBJECT
  5
2FF4
330
0
100
AcDbProxyObject
 90
      499
 91
      557
 95
   655383
 70
     0
 93
      246
310
000140C0508747562654D6F64650143E3BA24EB8A134A4817D3585B9D585B0
330
2737
 94
        0
  0
ACAD_PROXY_OBJECT
  5
2FF5
330
0
100
AcDbProxyObject
 90
      499
 91
      556
 95
   655383
 70
     0
 93
      274
310
0001408050C747562654469616D6574657242D431CEBE2361A3F0000003F20F5E5D055
330
2737
 94
        0
  0
ACAD_PROXY_OBJECT
  5
2FF6
330
0
100
AcDbProxyObject
 90
      499
 91
      558
 95
   655383
 70
     0
 93
      130
310
00014040509696E746572506F6C79A4057
330
2737
 94
        0
  0
ACAD_PROXY_OBJECT
  5
2FF7
330
0
100
AcDbProxyObject
 90
      499
 91
      558
 95
   655383
 70
     0
 93
      162
310
0001404050D696E746572417567506F696E74A405C
330
2737
 94
        0
  0
ACAD_PROXY_OBJECT
  5
2FF8
330
0
100
AcDbProxyObject
 90
      499
 91
      557
 95
   655383
 70
     0
 93
      238
310
000140C0509696E7465727472696D014365EF257ECA108A4817D09BDD1A3
330
2737
 94
        0
  0
ACAD_PROXY_OBJECT
  5
2FF9
330
0
100
AcDbProxyObject
 90
      499
 91
      557
 95
   655383
 70
     0
 93
      230
310
000140C0509696E7465727479706501433136344A150A4817D51C9A5B5
330
2737
 94
        0
  0
ACAD_PROXY_OBJECT
  5
2FFA
330
0
100
AcDbProxyObject
 90
      499
 91
      558
 95
   655383
 70
     0
 93
      146
310
0001404050A636F726E65727472696D4064063
330
2737
 94
        0
  0
ACAD_PROXY_OBJECT
  5
2FFB
330
0
100
AcDbProxyObject
 90
      499
 91
      558
 95
   655383
 70
     0
 93
      130
310
000140405086F6673666B6565704064046
330
2737
 94
        0
  0
ACAD_PROXY_OBJECT
  5
2FFC
330
0
100
AcDbProxyObject
 90
      499
 91
      558
 95
   655383
 70
     0
 93
      146
310
0001404050A70726F6A4F757470757440A40E3
330
2737
 94
        0
  0
ACAD_PROXY_OBJECT
  5
2FFD
330
0
100
AcDbProxyObject
 90
      499
 91
      557
 95
   655383
 70
     0
 93
      270
310
000140C050D70726F6A446972656374696F6E014372F7AB6C0A124A4817DD92595DC
330
2737
 94
        0
  0
ACAD_PROXY_OBJECT
  5
2FFE
330
0
100
AcDbProxyObject
 90
      499
 91
      558
 95
   655383
 70
     0
 93
      130
310
0001404050870726F6A4B6565704064056
330
2737
 94
        0
  0
ACAD_PROXY_OBJECT
  5
2FFF
330
0
100
AcDbProxyObject
 90
      499
 91
      557
 95
   655383
 70
     0
 93
      278
310
000140C050B70726F6A53706163696E670144237164D2CA13CA4817D3DC1D1A5B585B1
330
2737
 94
        0
  0
ACAD_PROXY_OBJECT
  5
3000
330
0
100
AcDbProxyObject
 90
      499
 91
      556
 95
   655383
 70
     0
 93
      250
310
0001408050970726F6A54617065728182D4454FB21F9BF060B51153EC87E4FE5
330
2737
 94
        0
  0
ACAD_PROXY_OBJECT
  5
3001
330
0
100
AcDbProxyObject
 90
      499
 91
      558
 95
   655383
 70
     0
 93
      130
310
00014040508647261674B656570406406D
330
2737
 94
        0
  0
ACAD_PROXY_OBJECT
  5
3002
330
0
100
AcDbProxyObject
 90
      499
 91
      557
 95
   655383
 70
     0
 93
      302
310
000140C050F647261674F7269656E746174696F6E0143E590243F0A138A4817D39BDC9B585B2
330
2737
 94
        0
  0
ACAD_PROXY_OBJECT
  5
3003
330
0
100
AcDbProxyObject
 90
      499
 91
      557
 95
   655383
 70
     0
 93
      286
310
000140C050E647261675472616E736974696F6E0143A3B6A4DE0A10CA4817DCD0D85B195
330
2737
 94
        0
  0
ACAD_PROXY_OBJECT
  5
3004
330
0
100
AcDbProxyObject
 90
      499
 91
      557
 95
   655383
 70
     0
 93
      318
310
000140C051061646A757374436F6E74696E7569747901442F746C2F778A14CA4817D4DB5BDBDD1A0
330
2737
 94
        0
  0
ACAD_PROXY_OBJECT
  5
3005
330
0
100
AcDbProxyObject
 90
      499
 91
      558
 95
   655383
 70
     0
 93
      138
310
0001404050A61646A7573744B656570A4067
330
2737
 94
        0
  0
ACAD_PROXY_OBJECT
  5
3006
330
0
100
AcDbProxyObject
 90
      499
 91
      556
 95
   655383
 70
     0
 93
      250
310
0001408050972756C65576964746842D431CEBE2361A3F0000003F20F5E5D064
330
2737
 94
        0
  0
ACAD_PROXY_OBJECT
  5
3007
330
0
100
AcDbProxyObject
 90
      499
 91
      556
 95
   655383
 70
     0
 93
      274
310
0001408050C616E616C797A65447261667421D139D28615ED8FE060B51153EC842500D
330
2737
 94
        0
  0
ACAD_PROXY_OBJECT
  5
3008
330
0
100
AcDbProxyObject
 90
      499
 91
      558
 95
   655383
 70
     0
 93
      210
310
0001404050F616E616C797A654E756D4C696E65734163FDFC00006
330
2737
 94
        0
  0
ACAD_PROXY_OBJECT
  5
3009
330
0
100
AcDbProxyObject
 90
      499
 91
      558
 95
   655383
 70
     0
 93
      202
310
00014040512616E616C797A65526F746174654C696E6573A4040
330
2737
 94
        0
  0
ACAD_PROXY_OBJECT
  5
300A
330
0
100
AcDbProxyObject
 90
      499
 91
      558
 95
   655383
 70
     0
 93
      210
310
00014040513616E616C797A65446973706C61794C696E6573A4046
330
2737
 94
        0
  0
ACAD_PROXY_OBJECT
  5
300B
330
0
100
AcDbProxyObject
 90
      499
 91
      558
 95
   655383
 70
     0
 93
      258
310
00014040519616E616C797A655472616E736C7563656E7453757266616365A4042
330
2737
 94
        0
  0
ACAD_PROXY_OBJECT
  5
3015
330
0
100
AcDbProxyObject
 90
      499
 91
      564
 95
   655383
 70
     0
 93
      706
310
0001000000009AA6A9AA4051E576564205365702030352030373A34393A333520323030372028555443290141CD4B8C4B8D0B8CC0518546875204A616E2032312031353A31323A3435203230313001420D4B8C4B8C8B8C4D84
330
2737
330
3016
330
3017
330
3019
330
0
 94
        0
  0
ACAD_PROXY_OBJECT
  5
3016
330
0
100
AcDbProxyObject
 90
      499
 91
      565
 95
   655383
 70
     0
 93
       70
310
0001AAA80820000001
330
2737
330
3016
330
3016
 94
        0
  0
ACAD_PROXY_OBJECT
  5
3017
330
0
100
AcDbProxyObject
 90
      499
 91
      566
 95
   655383
 70
     0
 93
       48
310
00010000000011
330
2737
330
0
330
3018
330
0
330
0
 94
        0
  0
ACAD_PROXY_OBJECT
  5
3018
330
0
100
AcDbProxyObject
 90
      499
 91
      567
 95
   655383
 70
     0
 93
       40
310
000100AAAA00
330
2737
330
0
 94
        0
  0
ACAD_PROXY_OBJECT
  5
301A
330
0
100
AcDbProxyObject
 90
      499
 91
      510
 95
   655383
 70
     0
 93
      124
310
00010142905350D3D39114D414D69050
330
2737
 94
        0
  0
ACAD_PROXY_OBJECT
  5
301B
330
0
100
AcDbProxyObject
 90
      499
 91
      510
 95
   655383
 70
     0
 93
      124
310
000101429053549553115353D1115010
330
2737
 94
        0
  0
ACAD_PROXY_OBJECT
  5
301C
330
0
100
AcDbProxyObject
 90
      499
 91
      510
 95
   655383
 70
     0
 93
      108
310
00010142105354D2D353D1115011
330
2737
 94
        0
  0
ACAD_PROXY_OBJECT
  5
301D
330
0
100
AcDbProxyObject
 90
      499
 91
      510
 95
   655383
 70
     0
 93
      140
310
000101435053511253511254D41353D11166
330
2737
 94
        0
  0
ACAD_PROXY_OBJECT
  5
301E
330
0
100
AcDbProxyObject
 90
      499
 91
      509
 95
   655383
 70
     0
 93
      180
310
00010142905354D2D05391D513D3000000000000010402
330
2737
 94
        0
  0
ACAD_PROXY_OBJECT
  5
301F
330
0
100
AcDbProxyObject
 90
      499
 91
      525
 95
   655383
 70
     0
 93
      164
310
00010142505354D2D4D516531140505434F4E542A1
330
2737
 94
        0
  0
ACAD_PROXY_OBJECT
  5
3020
330
0
100
AcDbProxyObject
 90
      499
 91
      510
 95
   655383
 70
     0
 93
      108
310
00010142105350D3511112535010
330
2737
 94
        0
  0
ACAD_PROXY_OBJECT
  5
3021
330
0
100
AcDbProxyObject
 90
      499
 91
      510
 95
   655383
 70
     0
 93
      108
310
00010142105350D3D35414D59010
330
2737
 94
        0
  0
ACAD_PROXY_OBJECT
  5
3022
330
0
100
AcDbProxyObject
 90
      499
 91
      525
 95
   655383
 70
     0
 93
      164
310
0001014290535410549514D4119600504CADFB0C21
330
2737
 94
        0
  0
ACAD_PROXY_OBJECT
  5
3023
330
0
100
AcDbProxyObject
 90
      499
 91
      525
 95
   655383
 70
     0
 93
      220
310
0001014350535513D3D31093D11654119600508C2B0D9CEDEC3DEA83
330
2737
 94
        0
  0
ACAD_PROXY_OBJECT
  5
3024
330
0
100
AcDbProxyObject
 90
      499
 91
      510
 95
   655383
 70
     0
 93
      116
310
000101425053511254D410D3D39014
330
2737
 94
        0
  0
ACAD_PROXY_OBJECT
  5
3025
330
0
100
AcDbProxyObject
 90
      499
 91
      510
 95
   655383
 70
     0
 93
      108
310
00010142105350D3D39114D41010
330
2737
 94
        0
  0
ACAD_PROXY_OBJECT
  5
3026
330
0
100
AcDbProxyObject
 90
      499
 91
      510
 95
   655383
 70
     0
 93
      124
310
0001014290535490511114D414D69191
330
2737
 94
        0
  0
ACAD_PROXY_OBJECT
  5
3028
330
0
100
AcDbProxyObject
 90
      499
 91
      569
 95
   655383
 70
     0
 93
     3100
310
0001419078050A544852555F4452494C4C0142D09312539117D1149253130050A544852555F43424F52450142D09312539117D0D093D4914050A544852555F4353494E4B0142D09312539117D0D4D25392D0641E01449EC94958C80949505351125048151214955F4051C7B252563202525414D4449412058202525414D444
310
55020444545507D014E5EC94958C80949505351125048151214955F57141ED0D093D49148094958C80949505350D112504816080949505350D091115408111151541F405437B252563202525414D4449412058202525414D44455020444545507D5C507B43424F524520252563202525414D434449412058202525414D4342
310
44455020444545507D014DDEC94958C80949505351125048151214955F57141ED0D4D25392C8094958C80949505350D112504816080949505350D4D05391C949591F405417B252563202525414D4449412058202525414D44455020444545507D5C507B4353494E4B20252563202525414D434449412058202525414D43534
310
14E472525647D0
330
2737
 94
        0
  0
ACAD_PROXY_OBJECT
  5
302A
330
0
100
AcDbProxyObject
 90
      499
 91
      510
 95
   655383
 70
     0
 93
      140
310
00010143105354D554141490D3D313D49A61
330
2737
 94
        0
  0
ACAD_PROXY_OBJECT
  5
302F
330
0
100
AcDbProxyObject
 90
      499
 91
      510
 95
   655383
 70
     0
 93
      132
310
00010142D05050555513D4D3D31591501A
330
2737
 94
        0
  0
ACAD_PROXY_OBJECT
  5
3030
330
0
100
AcDbProxyObject
 90
      499
 91
      510
 95
   655383
 70
     0
 93
      156
310
00010143905050555513D054D4D1535093115010
330
2737
 94
        0
  0
ACAD_PROXY_OBJECT
  5
3031
330
0
100
AcDbProxyObject
 90
      499
 91
      510
 95
   655383
 70
     0
 93
      148
310
00010143505055925155D49154D513D4915010
330
2737
 94
        0
  0
ACAD_PROXY_OBJECT
  5
3032
330
0
100
AcDbProxyObject
 90
      499
 91
      510
 95
   655383
 70
     0
 93
      124
310
00010142D050525394D15495105094E4
330
2737
 94
        0
  0
ACAD_PROXY_OBJECT
  5
3033
330
0
100
AcDbProxyObject
 90
      499
 91
      510
 95
   655383
 70
     0
 93
      148
310
00010143505054D0D153915554111055115010
330
2737
 94
        0
  0
ACAD_PROXY_OBJECT
  5
3034
330
0
100
AcDbProxyObject
 90
      499
 91
      525
 95
   655383
 70
     0
 93
      172
310
00010143105054D5509054D4D3541196005035355422
330
2737
 94
        0
  0
ACAD_PROXY_OBJECT
  5
3035
330
0
100
AcDbProxyObject
 90
      499
 91
      525
 95
   655383
 70
     0
 93
      172
310
00010142905054D0D15391541196005055343454E452
330
2737
 94
        0
  0
ACAD_PROXY_OBJECT
  5
3036
330
0
100
AcDbProxyObject
 90
      499
 91
      510
 95
   655383
 70
     0
 93
      148
310
00010143505350555513D313D0D2D4D0D39014
330
2737
 94
        0
  0
ACAD_PROXY_OBJECT
  5
303B
330
0
100
AcDbProxyObject
 90
      499
 91
      575
 95
   655383
 70
     0
 93
       32
310
0001000000
330
2737
340
3038
330
303D
330
3038
 94
        0
  0
ACAD_PROXY_OBJECT
  5
303C
330
0
100
AcDbProxyObject
 90
      499
 91
      576
 95
   655383
 70
     0
 93
       18
310
000188
330
2737
 94
        0
  0
ACAD_PROXY_OBJECT
  5
303D
330
0
100
AcDbProxyObject
 90
      499
 91
      577
 95
   655383
 70
     0
 93
      183
310
000101438C0C0C4B4C0C0C48134D0D141514D050055401
330
2737
330
303B
330
303C
 94
        0
  0
ACAD_PROXY_OBJECT
  5
303E
330
0
100
AcDbProxyObject
 90
      499
 91
      578
 95
   655383
 70
     0
 93
       40
310
000100AAAA00
330
2737
330
303D
 94
        0
  0
ACAD_PROXY_OBJECT
  5
303F
330
0
100
AcDbProxyObject
 90
      499
 91
      579
 95
   655383
 70
     0
 93
      108
310
000190140A000000000000AAAAAD
330
2737
330
3040
330
3040
330
3040
330
3040
330
3040
330
0
 94
        0
  0
ACAD_PROXY_OBJECT
  5
3040
330
0
100
AcDbProxyObject
 90
      499
 91
      580
 95
   655383
 70
     0
 93
       51
310
00010000AAAA80
330
2737
330
303F
330
303D
 94
        0
  0
DICTIONARY
  5
274D
102
{ACAD_REACTORS
330
274C
102
}
330
274C
100
AcDbDictionary
281
     1
  3
DWGSETTINGS
350
274E
  3
FEM
350
2DF7
  3
Shaft
350
2821
  3
TRANSSETTINGS
350
274F
  0
ACAD_PROXY_OBJECT
  5
2758
102
{ACAD_REACTORS
330
274C
102
}
330
274C
100
AcDbProxyObject
 90
      499
 91
      527
 95
   655383
 70
     0
 93
    18950
310
411014A90130404C1073F7FFFFFE404C50131438FDFFFFFF90132404C9053F7FFFFFE404CD0133418FDFFFFFF90134404D1033F7FFFFFE404D5013540CFDFFFFFF90136404D9023F7FFFFFE404DD0137410FDFFFFFF90138404E1013F7FFFFFE408CD05023341418FDFFFFFF9023741408DD05043F7FFFFFE408C905023241
310
41CFDFFFFFF9023441408D105033F7FFFFFE404E501397F4FDFFFFFF4110249504092541073F7FFFFFE408C13902304E41CFDFFFFFF902314E408C5390E3F7FFFFFE408C93902324E414FDFFFFFF902334E408CD39063F7FFFFFE408D13902344E40CFDFFFFFF902354E408D539033F7FFFFFE408D93902364E408FDFFFFFF
310
902374E408DD39043F7FFFFFE408E13902384E404FDFFFFFF90333414E40CCD0539063F7FFFFFE40CDD05390337414E410FDFFFFFF90332414E40CC90539073F7FFFFFE40CD105390334414E40CFDFFFFFF902394E408E539FD3F7FFFFFD0440D2541390349504E41CFDFFFFFF9044B6C696E4112D312539013F7FFFFFD094
310
1125B999BD04494E464F410FDFFFFFF425055261686D3241549052134C9013F7FFFFFD094154985A1B4CD055241484D33408FDFFFFFF425055261686D3541549052134D5073F7FFFFFD0941159A595DD0456494557404FDFFFFFF42506426568696E64419091521253911FD3F7FFFFFD0D415514905253105414D5F545240D
310
194250348494441905357D212511074650940D59254D06414D5F56495341D324250650415244494D42505357D410549112535034650941949151911253509414D5F52454644494D4111942581411051111310135404FFFFFFFF41105315149013441CFFFFFFFF411091531250134CFFFFFFFF411092139590139CFFFFFFFF4
310
15092139594D06424548494E44CFFFFFFFF41109312511023441CFFFFFFFF411093D0541023441CFFFFFFFF411093D48C9055241484D32CFFFFFFFF411093D48CD055241484D33CFFFFFFFF411093D48D5055241484D35CFFFFFFFF411093D48DD055241484D3541CFFFFFFFF41109410541023441CFFFFFFFF41109411561
310
023441CFFFFFFFF411095111250135CFFFFFFFF4110D0530C90134CFFFFFFFF4110D0530CD0134408FFFFFFFF4110D0530D5013441CFFFFFFFF4110D0530DD0134414FFFFFFFF4110D153939023741CFFFFFFFF4110D15395D0137CFFFFFFFF4110D312539044B4C494ECFFFFFFFF4110D3D38C50130CFFFFFFFF4110D3D38
310
C90131CFFFFFFFF4110D3D38CD0132CFFFFFFFF4110D3D38D10132CFFFFFFFF411111549410134CFFFFFFFF411111551050134CFFFFFFFF4111125051D0135CFFFFFFFF411112531250135CFFFFFFFF4151125513CC9013540CFFFFFFFF4151125513CCD0135408FFFFFFFF411112551610135CFFFFFFFF411112561310135
310
CFFFFFFFF41115613541023441CFFFFFFFF411191535390138CFFFFFFFF4151915354139013840CFFFFFFFF4151915354D41023441CFFFFFFFF4151915354D5102344140CFFFFFFFF41519153559390132CFFFFFFFF4151915355951013240CFFFFFFFF411193105510130CFFFFFFFF41119490549023441CFFFFFFFF4111D
310
4931250135CFFFFFFFF4111D593125023441CFFFFFFFF4112105510D0138CFFFFFFFF41121251139023341CFFFFFFFF4112125115D0133CFFFFFFFF411213125390134CFFFFFFFF411213D0D39023741CFFFFFFFF411213D0D5D0137CFFFFFFFF4112539193D04494E464FCFFFFFFFF411310511250134CFFFFFFFF4113115
310
05110135CFFFFFFFF419397D0511113102354E404FFFFFFFF419397D0921395902394ECFFFFFFFF419397D0D3D38C502304ECFFFFFFFF419397D0D3D38C902314ECFFFFFFFF419397D0D3D38CD02324ECFFFFFFFF419397D0D3D38D102324ECFFFFFFFF419397D0D1539390337414ECFFFFFFFF419397D0D15395D02374ECF
310
FFFFFFF419397D1125312502354ECFFFFFFFF419397D1125516102354E408FFFFFFFF419397D1125613102354ECFFFFFFFF419397D2105510D02384ECFFFFFFFF419397D212511390333414ECFFFFFFFF419397D2125115D02334ECFFFFFFFF419397D391D25410349504ECFFFFFFFF419397D412105390334414ECFFFFFFF
310
F419397D413D4D3102354ECFFFFFFFF419397D510D3D3902304ECFFFFFFFF419397D5121312502344ECFFFFFFFF419397D5131153902304ECFFFFFFFF419397D516150CD02364ECFFFFFFFF419397D594131250332414ECFFFFFFFF411391D2541024950CFFFFFFFF411410530C9055241484D32CFFFFFFFF411410530CD05
310
5241484D33CFFFFFFFF411410530D5055241484D35CFFFFFFFF411410530DD055241484D3541CFFFFFFFF41141210539023441CFFFFFFFF411413D4D310135CFFFFFFFF411413D4D39013641CFFFFFFFF419413D4D4915190136414FFFFFFFF411413D4D610135408FFFFFFFF411414D150D023441CFFFFFFFF411490D1D39
310
023741CFFFFFFFF411490D1D5D0137CFFFFFFFF411491911250134CFFFFFFFF41149455149013441CFFFFFFFF411494D093D0134CFFFFFFFF4114D09492D0134CFFFFFFFF4114D0D15390137CFFFFFFFF4114D150D510134CFFFFFFFF4114D153139023741CFFFFFFFF4114D15315D0137CFFFFFFFF4114D4D654D0130CFFF
310
FFFFF4114D513125013441CFFFFFFFF4114D6508C50135CFFFFFFFF4114D6508C90135CFFFFFFFF4114D6508CD0136CFFFFFFFF4114D6508D5013541CFFFFFFFF4114D653539023741CFFFFFFFF4114D65355D0137CFFFFFFFF411510D3D390130CFFFFFFFF411512131250134CFFFFFFFF411512550C9055241484D32CFFF
310
FFFFF411512550CD055241484D33CFFFFFFFF411512550D5055241484D35CFFFFFFFF411512550DD055241484D3541CFFFFFFFF411513115390130CFFFFFFFF41151492D39023741CFFFFFFFF41151492D5D0137CFFFFFFFF411514931250134CFFFFFFFF411516150C50136408FFFFFFFF411516150C90136408FFFFFFFF4
310
11516150CD0136CFFFFFFFF411516150D5013641CFFFFFFFF411516150DD013641CFFFFFFFF4115925155D0456494557CFFFFFFFF41159413125023241CFFFFFFFF411692569050134CFFFFFFFF411112535410650415244494DCFFFFFFFF411112535490652454644494DCFFFFFFFF419397D3115051102354ECFFFFFFFF4
310
11354D6535013540923415514905253105545241494CCFFFFFFFF4115915112103484944CFFFFFFFF4115915115903564953CFFFFFFFFAA9FDA4290E4C9074C906465054C904465034650248D014651E519FD8
340
14
340
14
340
14
340
2784
340
14
340
14
340
14
340
120B
340
14
340
2785
340
1672
340
120B
340
2786
340
14
340
14
340
14
340
14
340
14
340
2784
340
14
340
14
340
14
340
120B
340
14
340
2785
340
1672
340
120B
340
2786
340
14
340
14
340
14
340
14
340
14
340
14
340
14
340
14
340
14
340
14
340
2759
340
14
340
14
340
14
340
13
340
2785
340
13
340
13
340
13
340
13
340
13
340
13
340
13
340
13
340
14
340
13
340
13
340
13
340
13
340
13
340
13
340
13
340
13
340
13
340
13
340
13
340
13
340
13
340
13
340
13
340
13
340
13
340
13
340
13
340
13
340
14
340
13
340
13
340
13
340
13
340
14
340
13
340
13
340
13
340
13
340
13
340
13
340
13
340
13
340
13
340
13
340
13
340
13
340
13
340
13
340
13
340
13
340
13
340
13
340
13
340
13
340
13
340
13
340
13
340
13
340
13
340
14
340
13
340
13
340
13
340
13
340
13
340
13
340
13
340
13
340
13
340
13
340
13
340
13
340
13
340
13
340
13
340
13
340
14
340
13
340
13
340
13
340
13
340
14
340
13
340
13
340
13
340
13
340
1672
340
13
340
13
340
14
340
13
340
13
340
13
340
13
340
2785
340
13
340
13
340
14
340
13
340
13
340
13
340
13
340
13
340
13
340
13
340
13
340
14
340
13
340
13
340
13
340
13
340
13
340
13
340
13
340
13
340
13
340
13
340
13
340
2789
340
13
340
13
340
13
340
13
340
13
340
13
340
13
 94
        0
  0
ACAD_PROXY_OBJECT
  5
2790
102
{ACAD_REACTORS
330
278B
102
}
330
278B
100
AcDbProxyObject
 90
      499
 91
      541
 95
   655383
 70
     0
 93
      253
310
43D1444494D454E53494F4E2C414D44545F2A5F44494D404A9012A404A9012AC
 94
        0
  0
ACAD_PROXY_OBJECT
  5
278F
102
{ACAD_REACTORS
330
278B
102
}
330
278B
100
AcDbProxyObject
 90
      499
 91
      541
 95
   655383
 70
     0
 93
      181
310
43D012A42D05357D191504B505357CA9012A404A9012AC
 94
        0
  0
ACAD_PROXY_OBJECT
  5
278C
102
{ACAD_REACTORS
330
278B
102
}
330
278B
100
AcDbProxyObject
 90
      499
 91
      541
 95
   655383
 70
     0
 93
      133
310
43D054841544348404A9012A404A9012AC
 94
        0
  0
ACAD_PROXY_OBJECT
  5
278D
102
{ACAD_REACTORS
330
278B
102
}
330
278B
100
AcDbProxyObject
 90
      499
 91
      541
 95
   655383
 70
     0
 93
      549
310
43D044C494E4549CE0B0E138B0A8B4E0B0A8B4E138B105357CE0B105357CE138B0A8B505357CE0B0A8B505357CE139012A404A910494E534552542C535444504152543244B
 94
        0
  0
ACAD_PROXY_OBJECT
  5
2791
102
{ACAD_REACTORS
330
278B
102
}
330
278B
100
AcDbProxyObject
 90
      499
 91
      541
 95
   655383
 70
     0
 93
      181
310
43D0341524341105357CD5012A404C906494E534552544
 94
        0
  0
ACAD_PROXY_OBJECT
  5
278E
102
{ACAD_REACTORS
330
278B
102
}
330
278B
100
AcDbProxyObject
 90
      499
 91
      541
 95
   655383
 70
     0
 93
     1053
310
43D7841434D46434652414D452C41434D444154554D5441524745542C41434D444154554D49442C41434D57454C4453594D2C41434D5355524653594D2C41434D4645415449442C41434D504152545245462C41434D42414C4C4F4F4E2C414D44544544474553594D2C414D47534352455743414C435441424C45404A9012A
310
404A9012AB
 94
        0
  0
LAYER_INDEX
  5
31DF
102
{ACAD_REACTORS
330
31DE
102
}
330
31DE
100
AcDbIndex
 40
2459565.36454037
100
AcDbLayerIndex
  8
0
360
31E0
 90
        0
  8
最小図面
360
31E3
 90
      101
  8
文字
360
31E4
 90
        0
  8
補助線
360
31E5
 90
        3
  8
枠
360
31E6
 90
        0
  8
DEFPOINTS
360
31E7
 90
        0
  8
5
360
31E9
 90
        0
  8
LAYER0014
360
3801
 90
        0
  8
LAYER0016
360
3802
 90
        0
  0
ACAD_PROXY_OBJECT
  5
2752
102
{ACAD_REACTORS
330
2751
102
}
330
2751
100
AcDbProxyObject
 90
      499
 91
      524
 95
   655383
 70
     0
 93
      139
310
057356C1D51406406AA8FFFFFFFF0A8A4048
330
18
330
0
330
0
 94
        0
  0
ACAD_PROXY_OBJECT
  5
2757
102
{ACAD_REACTORS
330
2756
102
}
330
2756
100
AcDbProxyObject
 90
      499
 91
      526
 95
   655383
 70
     0
 93
     1927
310
5440000000000000C40D0349534F405901409020000000000000310320486A1682DAC8E88AC8CECAA6E8C8812028720B1B6A9BAB9332A32BC3A29BA3220480A1282C6DA8C868CA6E8C88120286A0B1B6ABB2B63234B733A9BA3220480A1082C6DA92C8A6E8C88120285A0B1B6A230BA3AB6A9BA3220480A1282C6DA849E9AA
310
6E8C8812028820B6B23A2232BA30B4B629BCB6A9BA3220480A2282DAC8E8A6CAC6E8D2DEDCA6F2DAA6E8C88120288A0B6B23A21B2B73A32B92634B732A9BA3220480A1682C682DACE98C2F2A6E8C88120285A0B1A0B6B3A234B6A9BA3220480A1A82C682DACEA8D2E8D8CAA6E8C881203204
340
2762
360
2763
360
2764
360
2765
360
2766
360
2767
360
2768
360
2769
360
276A
360
276B
360
276C
360
2772
360
2773
360
277F
 94
        0
  0
ACAD_PROXY_OBJECT
  5
274E
102
{ACAD_REACTORS
330
274D
102
}
330
274D
100
AcDbProxyObject
 90
      499
 91
      522
 95
   655383
 70
     0
 93
     2514
310
4050B44574753455454494E4753A1286829C8E82A4A482B282A106660F8686AF86C608321A2A720A723A0A849A1ABE1C983E18999AA0C868A9C889282940000000000000488083A1A2A72224A0A9A0A8418983E19183E199820E868A9C8892A6A894000000000000010808321A2A72622A7250000000000000122020C868A9
310
C9E8C8C940000000000000488084A1A624A720A92920ACA0A82989B17199AA108698929C8AA8B2A082A0AB098929C8A84A1A624A722AA2CA822A0A82AC2624A722A1288AE8EAAA68682988A94283A620A9AA27A12520A80982109A82968AAC928AAE9FA04832829A1A0A622830020000419491559254D2505404C105534341
310
4C4541503313A32425512535154D510535412816489AE4904ADCD050756455253494F4E4150531352E3030441ED115D1D4D15515125391D4D153911F40
 94
        0
  0
ACAD_PROXY_OBJECT
  5
2DF7
102
{ACAD_REACTORS
330
274D
102
}
330
274D
100
AcDbProxyObject
 90
      499
 91
      522
 95
   655383
 70
     0
 93
      411
310
4050346454D21092DCC6E486DECACC942842630BCA3B937BAB820A8320A6AFA322A0A20F688AE8EA68AA8A8929C8EA68A9C88FA1
 94
        0
  0
ACAD_PROXY_OBJECT
  5
2821
102
{ACAD_REACTORS
330
274D
102
}
330
274D
100
AcDbProxyObject
 90
      499
 91
      522
 95
   655383
 70
     0
 93
      513
310
40505536861667421292DCE8CAE4E4EAE0E89FC84A634B3B43A2634B732A7F21A98D2CED0E898D2DCCAACD2CAEE9FC883DA22BA3A9A2AA2A24A723A9A2A7223ED4
 94
        0
  0
ACAD_PROXY_OBJECT
  5
274F
102
{ACAD_REACTORS
330
274D
102
}
330
274D
100
AcDbProxyObject
 90
      499
 91
      522
 95
   655383
 70
     0
 93
      852
310
4050D5452414E5353455454494E4753A2488A482AE929C8EA8A4829CA69882A8929E9C0C00800050D4F524947494E414C4C595F4F4E0600400008529A7AAA921A2A620A723A0A81A52827212AAA0A48AA68AA4AC8A0C0080001107B44574753455454494E4753454E447D8
 94
        0
  0
IDBUFFER
  5
31E0
330
0
100
AcDbIdBuffer
  0
IDBUFFER
  5
31E3
330
0
100
AcDbIdBuffer
330
955
330
95A
330
24F7
330
2844
330
2F64
330
3164
330
3166
330
3582
330
3583
330
3593
330
3594
330
3595
330
3597
330
359F
330
35A4
330
35B7
330
35BA
330
35BB
330
35BC
330
35BF
330
35C2
330
35C4
330
35C6
330
35C8
330
35CC
330
35CD
330
35D2
330
35D3
330
35D6
330
35E0
330
35E2
330
35E4
330
35E9
330
35EE
330
35EF
330
35F0
330
35FD
330
3602
330
3603
330
3619
330
361A
330
361C
330
361F
330
3621
330
3623
330
3624
330
3626
330
3628
330
3629
330
362D
330
362E
330
36BD
330
36C6
330
36F2
330
3708
330
370E
330
3711
330
3712
330
3713
330
3714
330
3715
330
3716
330
3717
330
3718
330
3719
330
371E
330
3721
330
3730
330
3731
330
3734
330
3736
330
3737
330
3739
330
373B
330
3740
330
3746
330
3749
330
3751
330
3758
330
375A
330
375E
330
3760
330
3763
330
3791
330
3792
330
37EE
330
37EF
330
37F0
330
37F1
330
37F2
330
37F3
330
37F4
330
37F5
330
37F6
330
3834
330
3835
330
3836
330
3837
330
3838
330
383B
330
3873
  0
IDBUFFER
  5
31E4
330
0
100
AcDbIdBuffer
  0
IDBUFFER
  5
31E5
330
0
100
AcDbIdBuffer
330
9C9
330
27F5
330
27FB
  0
IDBUFFER
  5
31E6
330
0
100
AcDbIdBuffer
  0
IDBUFFER
  5
31E7
330
0
100
AcDbIdBuffer
  0
IDBUFFER
  5
31E9
330
0
100
AcDbIdBuffer
  0
IDBUFFER
  5
3801
330
0
100
AcDbIdBuffer
  0
IDBUFFER
  5
3802
330
0
100
AcDbIdBuffer
  0
ACAD_PROXY_OBJECT
  5
2763
330
2757
100
AcDbProxyObject
 90
      499
 91
      528
 95
   655383
 70
     0
 93
       12
310
5452
 94
        0
  0
ACAD_PROXY_OBJECT
  5
2764
330
2757
100
AcDbProxyObject
 90
      499
 91
      529
 95
   655383
 70
     0
 93
       96
310
546A0E80A0280A0280A0280F00
 94
        0
  0
ACAD_PROXY_OBJECT
  5
2765
330
2757
100
AcDbProxyObject
 90
      499
 91
      530
 95
   655383
 70
     0
 93
      272
310
5450E4050140501405014050140501405014050140D01405012C0000000000000040D6
340
276D
 94
        0
  0
ACAD_PROXY_OBJECT
  5
2766
330
2757
100
AcDbProxyObject
 90
      499
 91
      531
 95
   655383
 70
     0
 93
      496
310
5468666666666667A67E199999999999E99FD224050140501405014050140501405014050140501405014050140501405014050140501405014050140501E6
340
276E
 94
        0
  0
ACAD_PROXY_OBJECT
  5
2767
330
2757
100
AcDbProxyObject
 90
      499
 91
      532
 95
   655383
 70
     0
 93
       10
310
5442
 94
        0
  0
ACAD_PROXY_OBJECT
  5
2768
330
2757
100
AcDbProxyObject
 90
      499
 91
      533
 95
   655383
 70
     0
 93
      223
310
546290EA22A7D90F49F8000000000000108140000000000000420204
340
276F
340
2770
 94
        0
  0
ACAD_PROXY_OBJECT
  5
2769
330
2757
100
AcDbProxyObject
 90
      499
 91
      534
 95
   655383
 70
     0
 93
    12067
310
5450E411255115350141236025B690140501406901000000000000091013347454E545241434F2C4A504E2C302C8D8096DA2C47454E54524154582C25732C2847454E4D53472067656E6477672032323229406901206A2A8B280A0921292F9480A0480A0280C808000000000000488099A3A2A72A2920A1A79625282716181
310
6484A4BE51623A2A72A2920AA2C1612B9961423A2A726A9A39033B2B7323BB39019191994A034809044E414D454050496BC914F4051C40640A80000000000004E404CD1D15395149050D3CB1294138B0C0B25AF2453CB11D15395149055160B095CCB0A11D1539354D1C819D95B991DD9C80C8C8D8A50190B3D424C4F434B3
310
A4E414D4540482A222A9A1A92028248704B5F2028EA03207400000000004028A02668E8A9CA8A482869E5894A09C58605921C12D7C588E8A9CA8A482A8B0584AE658508E8A9C9AA68E40CECADCC8EECE4064626E5280D2024214D51053911054911014122D2E29A50147501904A000000000000125013347454E545241434F
310
2C4A504E2C302C8B4B8A692C47454E54524154582C25732C2847454E4D53472067656E64776720323138294069012109A82A88AA492829880A091BBD2F7E80A3A80C82D0000000000000728099A3A2A72A2920A1A79625282716181646EF4BDF9623A2A72A2920AA2C1612B9961423A2A726A9A39033B2B7323BB390191918
310
94A034809044E4F544540504928D8B4C4051D40641A80000000000003E404CD1D15395149050D3CB1294138B0C0B24A362D30B11D15395149055160B095CCB0A11D1539354D1C819D95B991DD9C80C8C8D4A5012404832B22A72227A92028366EF6EE06F582028EA0320F40000000000001F2026A8E8A9CA8A482869E5894A
310
09C5860599BBDBB81BD60588E8A9CA8A482A8B0584AE658508E8A9C9AA68E40CECADCC8EECE406464685280920241911154D0D48C90141A43825AF880C90147501908A000000000020145013447454E545241434F2C4A504E2C302C90E096BE20322C47454E54524154582C25732C2847454E4D53472067656E64776720333
310
629404901212A6A8829C8882A4886480A0D169714D2406480A3A80C84D000000000000092809AA3A2A72A2920A1A79625282716181645A5C53490191623A2A72A2920AA2C1612B9961423A2A726A9A39033B2B7323BB39019191814A024809094D4154455249414C32405068DDE97BF20324051D40642A8713D0AD7A370454
310
04D11D15395149050D3CB1294138B0C0B2377A5EFC80C8B11D15395149055160B095CCB0A11D1539354D1C819D95B991DD9C80D0C0A50124048226A0A9A9A0282475FCBE52028EA028121681A040000000000001F202648E8A9CA8A482869E5894A09C5860591D7F2F94588E8A9CA8A482A8B0584AE658508E8A9C9AA68E40
310
CECADCC8EECE406864528092024154149250D150141226FE29A501475014090C409020000000000000F9013247454E545241434F2C4A504E2C302C89BF8A692C47454E54524154582C25732C2847454E4D53472067656E6477672034332940490120688929A80A0921432C8080A3A80A0486A068100000000000007C809923
310
A2A72A2920A1A7962528271618164850CB201623A2A72A2920AA2C1612B9961423A2A726A9A39033B2B7323BB3901A1A14A0248090E445020000000000000510107004060000000000000F9000000000000003E4041CF4F125511534F9014060000000000000F9000000000000003E4041CF4F125511534F90140600000000
310
00000D100000000000000344041CF4F125511534F9014060000000000000D100000000000000344041CF4F125511534F90140A4040000000000003E400000000000000F901073D3C4954454D3E405063D3C5154593E4050180000000000003E400000000000000F901073D3C4954454D3E406404000000000000003E400000
310
000000000F90000000000000008202068220681A048120280C882148448820348520348452028521485214814000000000000F0BF0000000000003C2FD01409073373333333333B0FCCDCCCCCCCCCCEC3F000000000000031012034164050341105901A0000000000000620204812034
340
0
340
0
 94
        0
  0
ACAD_PROXY_OBJECT
  5
276A
330
2757
100
AcDbProxyObject
 90
      499
 91
      535
 95
   655383
 70
     0
 93
      798
310
5444000000000000144048CF4F11115510525317D3105091530F880A0F11115510525317D05094D4D0D053114F8A51141C9A9999999999B93F26A666666666724FC000000000000E03F4000000000000004000000000000005100000000000000244041C
340
14
340
2762
 94
        0
  0
ACAD_PROXY_OBJECT
  5
276B
330
2757
100
AcDbProxyObject
 90
      499
 91
      536
 95
   655383
 70
     0
 93
      679
310
5440B00000000000002880959E9E29A2A1AA24A7A72FA620A122A62FA324A929AA1F169E29A2A1AA24A7A72FA620A122A62FA620A9AA1F00000000000004880FF41C88A0E000000000000122000000000000002880
340
22
340
2762
 94
        0
  0
ACAD_PROXY_OBJECT
  5
276C
330
2757
100
AcDbProxyObject
 90
      499
 91
      537
 95
   655383
 70
     0
 93
      151
310
54680000000000000840A3D0A5723F0BD1F200
 94
        0
  0
ACAD_PROXY_OBJECT
  5
2772
330
2757
100
AcDbProxyObject
 90
      499
 91
      538
 95
   655383
 70
     0
 93
       20
310
545018
340
2758
 94
        0
  0
ACAD_PROXY_OBJECT
  5
2773
330
2757
100
AcDbProxyObject
 90
      499
 91
      539
 95
   655383
 70
     0
 93
      250
310
545010000000000000A1000000000000002440408F0F9023C3E409A0DCFFFFA9
340
1212
340
0
340
0
340
1211
340
1210
340
2780
340
2781
340
2782
340
2783
 94
        0
  0
ACAD_PROXY_OBJECT
  5
277F
330
2757
100
AcDbProxyObject
 90
      499
 91
      540
 95
   655383
 70
     0
 93
     6922
310
5459740D254D3D0649534F5F4133429254D3D7D5125513115051349534F5F42525F5265766973696F6E6C69737446111413478342028323937783834316D6D2920421254D3D7D04D1E0D11141327835202835393478323130326D6D29421254D3D7D04C9E0D51141347839202832393778313839326D6D29421254D3D7D04D
310
1E0E51141337837202834323078323038306D6D29421254D3D7D04CDE0DD1141347838202832393778313638326D6D29421254D3D7D04D1E0E11141327834202835393478313638326D6D29421254D3D7D04C9E0D10E41312028353934783834316D6D29419254D3D7D04C51141347837202832393778313437316D6D29421
310
254D3D7D04D1E0DD1141347836202832393778313236316D6D29421254D3D7D04D1E0D91141347835202832393778313035316D6D29421254D3D7D04D1E0D5104130202838343078313138396D6D2920419254D3D7D04C10E41332028323937783432306D6D29419254D3D7D04CD1141327833202835393478313236316D6D
310
29421254D3D7D04C9E0CD10413478332028323937783633306D6D29421254D3D7D04D1E0CD1141337834202834323078313138396D6D29421254D3D7D04CDE0D11141337836202834323078313738336D6D29421254D3D7D04CDE0D91141337835202834323078313438366D6D29421254D3D7D04CDE0D50E4132202834323
310
0783539346D6D29419254D3D7D04C910413378332028343230783839316D6D29421254D3D7D04CDE0CD0E41342028323937783231306D6D29419254D3D7D04D1124130783220283131383978313638326D6D29421254D3D7D04C1E0C9124130783320283131383978323532336D6D29421254D3D7D04C1E0CD114131783420
310
2838343178323337386D6D29421254D3D7D04C5E0D11141317833202838343178313738336D6D29421254D3D7D04C5E0CD02431254D3C82557247A25E4C81050A49534F5F5449544C4541431254D3C82557247A25E4C81090A49534F5F5449544C45424110B979A97F0D8BDC45F424C5F44D254D3D7D09317D4995D9A5CDA5
310
BDB9B1A5CDD10B979A97F0D8BDC45F544C5F44D254D3D7D51317D4995D9A5CDA5BDB9B1A5CDD10B979A97F0D8BDC45F42525F44D254D3D7D09497D4995D9A5CDA5BDB9B1A5CDD10B979A97F0D8BDC45F54525F44D254D3D7D51497D4995D9A5CDA5BDB9B1A5CDD0C
 94
        0
  0
ENDSEC
  0
EOF
