  0
SECTION
  2
HEADER
  9
$ACADVER
  1
AC1014
  9
$ACADMAINTVER
 70
     9
  9
$DWGCODEPAGE
  3
ANSI_932
  9
$INSBASE
 10
0.0
 20
0.0
 30
0.0
  9
$EXTMIN
 10
-271.861351811171
 20
-109.9987685184462
 30
-0.0000000349181948
  9
$EXTMAX
 10
1042.899126720997
 20
847.6680062267242
 30
0.0000000814935747
  9
$LIMMIN
 10
-210.0
 20
-148.5
  9
$LIMMAX
 10
210.0
 20
148.5
  9
$ORTHOMODE
 70
     0
  9
$REGENMODE
 70
     1
  9
$FILLMODE
 70
     1
  9
$QTEXTMODE
 70
     0
  9
$MIRRTEXT
 70
     1
  9
$DRAGMODE
 70
     2
  9
$LTSCALE
 40
5.0
  9
$OSMODE
 70
    37
  9
$ATTMODE
 70
     2
  9
$TEXTSIZE
 40
3.5
  9
$TRACEWID
 40
0.05
  9
$TEXTSTYLE
  7
STANDARD
  9
$CLAYER
  8
最小図面
  9
$CELTYPE
  6
CONTINUOUS
  9
$CECOLOR
 62
   256
  9
$CELTSCALE
 40
1.0
  9
$DELOBJ
 70
     1
  9
$DISPSILH
 70
     0
  9
$DIMSCALE
 40
5.0
  9
$DIMASZ
 40
3.0
  9
$DIMEXO
 40
1.0
  9
$DIMDLI
 40
10.0
  9
$DIMRND
 40
0.0
  9
$DIMDLE
 40
0.0
  9
$DIMEXE
 40
1.0
  9
$DIMTP
 40
0.1
  9
$DIMTM
 40
0.1
  9
$DIMTXT
 40
3.5
  9
$DIMCEN
 40
0.0
  9
$DIMTSZ
 40
0.0
  9
$DIMTOL
 70
     0
  9
$DIMLIM
 70
     0
  9
$DIMTIH
 70
     0
  9
$DIMTOH
 70
     0
  9
$DIMSE1
 70
     0
  9
$DIMSE2
 70
     0
  9
$DIMTAD
 70
     1
  9
$DIMZIN
 70
     8
  9
$DIMBLK
  1
OPEN
  9
$DIMASO
 70
     1
  9
$DIMSHO
 70
     1
  9
$DIMPOST
  1
<>
  9
$DIMAPOST
  1
"
  9
$DIMALT
 70
     0
  9
$DIMALTD
 70
     2
  9
$DIMALTF
 40
0.0393701
  9
$DIMLFAC
 40
1.0
  9
$DIMTOFL
 70
     1
  9
$DIMTVP
 40
0.0
  9
$DIMTIX
 70
     0
  9
$DIMSOXD
 70
     0
  9
$DIMSAH
 70
     1
  9
$DIMBLK1
  1

  9
$DIMBLK2
  1

  9
$DIMSTYLE
  2
GEN-ISO
  9
$DIMCLRD
 70
   256
  9
$DIMCLRE
 70
   256
  9
$DIMCLRT
 70
   256
  9
$DIMTFAC
 40
0.71
  9
$DIMGAP
 40
1.5
  9
$DIMJUST
 70
     0
  9
$DIMSD1
 70
     0
  9
$DIMSD2
 70
     0
  9
$DIMTOLJ
 70
     0
  9
$DIMTZIN
 70
     8
  9
$DIMALTZ
 70
     0
  9
$DIMALTTZ
 70
     0
  9
$DIMFIT
 70
     3
  9
$DIMUPT
 70
     0
  9
$DIMUNIT
 70
     2
  9
$DIMDEC
 70
     2
  9
$DIMTDEC
 70
     3
  9
$DIMALTU
 70
     2
  9
$DIMALTTD
 70
     4
  9
$DIMTXSTY
  7
STANDARD
  9
$DIMAUNIT
 70
     0
  9
$LUNITS
 70
     2
  9
$LUPREC
 70
     4
  9
$SKETCHINC
 40
0.1
  9
$FILLETRAD
 40
0.0
  9
$AUNITS
 70
     0
  9
$AUPREC
 70
     0
  9
$MENU
  1
.
  9
$ELEVATION
 40
0.0
  9
$PELEVATION
 40
0.0
  9
$THICKNESS
 40
0.0
  9
$LIMCHECK
 70
     0
  9
$BLIPMODE
 70
     0
  9
$CHAMFERA
 40
0.0
  9
$CHAMFERB
 40
0.0
  9
$CHAMFERC
 40
0.0
  9
$CHAMFERD
 40
0.0
  9
$SKPOLY
 70
     0
  9
$TDCREATE
 40
2451332.598188681
  9
$TDUPDATE
 40
2457218.778870764
  9
$TDINDWG
 40
0.6619141088
  9
$TDUSRTIMER
 40
0.6619130208
  9
$USRTIMER
 70
     1
  9
$ANGBASE
 50
0.0
  9
$ANGDIR
 70
     0
  9
$PDMODE
 70
     0
  9
$PDSIZE
 40
0.0
  9
$PLINEWID
 40
0.0
  9
$COORDS
 70
     0
  9
$SPLFRAME
 70
     0
  9
$SPLINETYPE
 70
     6
  9
$SPLINESEGS
 70
     8
  9
$ATTDIA
 70
     0
  9
$ATTREQ
 70
     1
  9
$HANDLING
 70
-16383
  9
$HANDSEED
  5
6F16
  9
$SURFTAB1
 70
     6
  9
$SURFTAB2
 70
     6
  9
$SURFTYPE
 70
     6
  9
$SURFU
 70
     6
  9
$SURFV
 70
     6
  9
$UCSNAME
  2

  9
$UCSORG
 10
0.0
 20
0.0
 30
0.0
  9
$UCSXDIR
 10
1.0
 20
0.0
 30
0.0
  9
$UCSYDIR
 10
0.0
 20
1.0
 30
0.0
  9
$PUCSNAME
  2

  9
$PUCSORG
 10
0.0
 20
0.0
 30
0.0
  9
$PUCSXDIR
 10
1.0
 20
0.0
 30
0.0
  9
$PUCSYDIR
 10
0.0
 20
1.0
 30
0.0
  9
$USERI1
 70
     0
  9
$USERI2
 70
     0
  9
$USERI3
 70
     0
  9
$USERI4
 70
     0
  9
$USERI5
 70
     0
  9
$USERR1
 40
0.0
  9
$USERR2
 40
0.0
  9
$USERR3
 40
0.0
  9
$USERR4
 40
0.0
  9
$USERR5
 40
0.0
  9
$WORLDVIEW
 70
     1
  9
$SHADEDGE
 70
     3
  9
$SHADEDIF
 70
    70
  9
$TILEMODE
 70
     1
  9
$MAXACTVP
 70
    48
  9
$PINSBASE
 10
0.0
 20
0.0
 30
0.0
  9
$PLIMCHECK
 70
     0
  9
$PEXTMIN
 10
1.000000000000000E+20
 20
1.000000000000000E+20
 30
1.000000000000000E+20
  9
$PEXTMAX
 10
-1.000000000000000E+20
 20
-1.000000000000000E+20
 30
-1.000000000000000E+20
  9
$PLIMMIN
 10
0.0
 20
0.0
  9
$PLIMMAX
 10
12.0
 20
9.0
  9
$UNITMODE
 70
     0
  9
$VISRETAIN
 70
     1
  9
$PLINEGEN
 70
     0
  9
$PSLTSCALE
 70
     1
  9
$TREEDEPTH
 70
  3020
  9
$PICKSTYLE
 70
     1
  9
$CMLSTYLE
  2
STANDARD
  9
$CMLJUST
 70
     0
  9
$CMLSCALE
 40
1.0
  9
$PROXYGRAPHICS
 70
     1
  9
$MEASUREMENT
 70
     1
  0
ENDSEC
  0
SECTION
  2
CLASSES
  0
CLASS
  1
LWPOLYLINE
  2
AcDbPolyline
  3
AutoCAD 2000
 90
        0
280
     0
281
     1
  0
CLASS
  1
ACDBDICTIONARYWDFLT
  2
AcDbDictionaryWithDefault
  3
AutoCAD 2000
 90
        0
280
     0
281
     0
  0
CLASS
  1
ACDBPLACEHOLDER
  2
AcDbPlaceHolder
  3
AutoCAD 2000
 90
        0
280
     0
281
     0
  0
CLASS
  1
LAYOUT
  2
AcDbLayout
  3
AutoCAD 2000
 90
        0
280
     0
281
     0
  0
CLASS
  1
ACME_DOCUMENT
  2
AcMeDbDoc
  3
AcMeServices
 90
        0
280
     0
281
     0
  0
CLASS
  1
ACMESCOPE
  2
AcMeScope
  3
AcMeServices
 90
        0
280
     0
281
     0
  0
CLASS
  1
ACMECOMMANDHISTORY
  2
AcMeCommandHistory
  3
AcMeServices
 90
        0
280
     0
281
     0
  0
CLASS
  1
DICTIONARYVAR
  2
AcDbDictionaryVar
  3
AutoCAD 2000
 90
        0
280
     0
281
     0
  0
CLASS
  1
ACIMSYSVARMAN
  2
AcImSysVarManager
  3
AcMeServices
 90
        0
280
     0
281
     0
  0
CLASS
  1
ACIMREALSYSVAR
  2
AcImRealSysVar
  3
AcMeServices
 90
        0
280
     0
281
     0
  0
CLASS
  1
ACIMINTSYSVAR
  2
AcImIntSysVar
  3
AcMeServices
 90
        0
280
     0
281
     0
  0
CLASS
  1
ACMEDRAWINGMAN
  2
AcMeDrawingMan
  3
AcMeServices
 90
        0
280
     0
281
     0
  0
CLASS
  1
ACMEVIEW
  2
AcMeView
  3
AcMeServices
 90
        0
280
     0
281
     0
  0
CLASS
  1
ACDBENTITYCACHE
  2
AcMeEntityCache
  3
AcMeServices
 90
        0
280
     0
281
     0
  0
CLASS
  1
GSMANAGER
  2
AcMeGSManager
  3
AcMeServices
 90
        0
280
     0
281
     0
  0
CLASS
  1
AMDTINTERNALREACTOR
  2
AmdtInternalReactor
  3
AcMeServices
 90
        0
280
     0
281
     0
  0
CLASS
  1
ACMESTATEMGR
  2
AcMeStateMgr
  3
AcMeServices
 90
        0
280
     0
281
     0
  0
CLASS
  1
ACGREFMASTER
  2
AcGrefMaster
  3
AcAttribServices
 90
        0
280
     0
281
     0
  0
CLASS
  1
ACME_DATABASE
  2
AcMeDbDatabase
  3
AcMeServices
 90
        0
280
     0
281
     0
  0
CLASS
  1
ACRFINSADJUSTERMGR
  2
AcRfInsAdjusterMgr
  3
AcMeServices
 90
        0
280
     0
281
     0
  0
CLASS
  1
ACGREFMASTER
  2
AcGrefacadMaster
  3
AcGrefServices
 90
        0
280
     0
281
     0
  0
CLASS
  1
AMIMASTER
  2
AmiMaster
  3
AmiServices
 90
        0
280
     0
281
     0
  0
CLASS
  1
AMGSETTINGSOBJ
  2
AmgSettingsObj
  3
"AcadM|Product Description: AutoCAD Mechanical 2000|Company: Autodesk"
 90
        0
280
     0
281
     0
  0
CLASS
  1
ACMDATADICTIONARY
  2
AcmDataDictionary
  3
"AcmSymBB|Product Description: AutoCAD Mechanical 2000|Company: Autodesk"
 90
        0
280
     0
281
     0
  0
CLASS
  1
ACMDATAENTRYBLOCK
  2
AcmDataEntryBlock
  3
"AcmSymBB|Product Description: AutoCAD Mechanical 2000|Company: Autodesk"
 90
        0
280
     0
281
     0
  0
CLASS
  1
ACIMSTRSYSVAR
  2
AcImStrSysVar
  3
AcMeServices
 90
        0
280
     0
281
     0
  0
CLASS
  1
ACMSTANDARDISO
  2
AcmStandardISO
  3
"Amdt_StdImp|Product Description: AutoCAD Mechanical 2000|Company: Autodesk"
 90
        0
280
     0
281
     0
  0
CLASS
  1
AMGOBJPROPCFG
  2
AmgObjPropCfg
  3
"AmgLay|Product Description: AutoCAD Mechanical 2000|Company: Autodesk"
 90
        1
280
     0
281
     0
  0
CLASS
  1
AMDTEDGESTANDARDISO
  2
AmdtEdgeStdISO
  3
"Amdt_StdImp|Product Description: AutoCAD Mechanical 2000|Company: Autodesk"
 90
        0
280
     0
281
     0
  0
CLASS
  1
ACMSURFSTANDARDISO
  2
AcmSurfTextStdISO
  3
"Amdt_StdImp|Product Description: AutoCAD Mechanical 2000|Company: Autodesk"
 90
        0
280
     0
281
     0
  0
CLASS
  1
ACMFCFSTANDARDISO
  2
AcmFCFStdISO
  3
"Amdt_StdImp|Product Description: AutoCAD Mechanical 2000|Company: Autodesk"
 90
        0
280
     0
281
     0
  0
CLASS
  1
ACMWELDSTANDARDISO
  2
AcmWeldingStdISO
  3
"Amdt_StdImp|Product Description: AutoCAD Mechanical 2000|Company: Autodesk"
 90
        0
280
     0
281
     0
  0
CLASS
  1
ACMIDSTANDARDISO
  2
AcmIdStdISO
  3
"Amdt_StdImp|Product Description: AutoCAD Mechanical 2000|Company: Autodesk"
 90
        0
280
     0
281
     0
  0
CLASS
  1
ACMDATUMSTANDARDISO
  2
AcmDatumStdISO
  3
"Amdt_StdImp|Product Description: AutoCAD Mechanical 2000|Company: Autodesk"
 90
        0
280
     0
281
     0
  0
CLASS
  1
ACMBOMSTANDARDISO
  2
AcmBOMStdISO
  3
"Amdt_StdImp|Product Description: AutoCAD Mechanical 2000|Company: Autodesk"
 90
        0
280
     0
281
     0
  0
CLASS
  1
ACMDETAILSTANDARDISO
  2
AmdtDetailSymStdISO
  3
"Amdt_StdImp|Product Description: AutoCAD Mechanical 2000|Company: Autodesk"
 90
        0
280
     0
281
     0
  0
CLASS
  1
ACMSECTIONSTANDARDISO
  2
AmdtSectionSymStdISO
  3
"Amdt_StdImp|Product Description: AutoCAD Mechanical 2000|Company: Autodesk"
 90
        0
280
     0
281
     0
  0
CLASS
  1
ACMCENTERLINESTANDARDISO
  2
AmdtCenterLineStdISO
  3
"Amdt_StdImp|Product Description: AutoCAD Mechanical 2000|Company: Autodesk"
 90
        0
280
     0
281
     0
  0
CLASS
  1
"AcAmgLayStd"
  2
AcAmgLayStd
  3
"AcAmgLayStd|Product Description: AutoCAD Mechanical 2000|Company: Autodesk"
 90
        0
280
     0
281
     0
  0
CLASS
  1
"AcAmgDimStd"
  2
AcAmgDimStd
  3
"AcAmgDimStd|Product Description: AutoCAD Mechanical 2000|Company: Autodesk"
 90
        0
280
     0
281
     0
  0
CLASS
  1
AcAmgTitleStd
  2
AcAmgTitleStd
  3
"TITLEAPP"
 90
        0
280
     0
281
     0
  0
CLASS
  1
ACAMGFILTERDAT
  2
AcAmgFilterDat
  3
"AcadM|Product Description: AutoCAD Mechanical 2000|Company: Autodesk"
 90
        0
280
     0
281
     0
  0
CLASS
  1
LAYER_INDEX
  2
AcDbLayerIndex
  3
AutoCAD 2000
 90
        0
280
     0
281
     0
  0
CLASS
  1
IDBUFFER
  2
AcDbIdBuffer
  3
AutoCAD 2000
 90
        0
280
     0
281
     0
  0
CLASS
  1
AMDTNOTE
  2
AmdtNote
  3
"AcmSymBB|Product Description: AutoCAD Mechanical 2000|Company: Autodesk"
 90
     1023
280
     0
281
     1
  0
CLASS
  1
AMDTFORMULAUPDATEDISPATCHER
  2
AmdtFormulaUpdateDispatcher
  3
AcMeServices
 90
        0
280
     0
281
     0
  0
CLASS
  1
AM_DRAWING_MGR
  2
AcDmDwgMgr
  3
AcMechDwgViewMgmt
 90
        0
280
     0
281
     0
  0
CLASS
  1
AM_DWG_DOCUMENT
  2
AcDmDwgDocument
  3
AcMechDwgViewMgmt
 90
        0
280
     0
281
     0
  0
CLASS
  1
AM_DWG_SHEET
  2
AcDmSheet
  3
AcMechDwgViewMgmt
 90
        0
280
     0
281
     0
  0
CLASS
  1
AM_VIEWDIMPARMAP
  2
AcDmViewDimParMap
  3
AcMechDwgViewMgmt
 90
        0
280
     0
281
     0
  0
CLASS
  1
AM_DWGMGR_NAME
  2
AcDmDwgMgrName
  3
AcMechDwgViewMgmt
 90
        0
280
     0
281
     0
  0
CLASS
  1
AMDTMENUSTATEMGR
  2
AmdtMenuStateMgr
  3
McadcomServices
 90
        0
280
     0
281
     0
  0
CLASS
  1
AMDTMCOMMENUSTATE
  2
AmdtMcomMenuState
  3
McadcomServices
 90
        0
280
     0
281
     0
  0
CLASS
  1
ASAPP
  2
AcAsAppObject
  3
AutoSurfServices
 90
        0
280
     0
281
     0
  0
CLASS
  1
IM_STATIC_MAN
  2
AcImStaticVarManager
  3
AcMeServices
 90
        0
280
     0
281
     0
  0
CLASS
  1
ACIMDBLSTATICVAR
  2
AcImDblStaticVar
  3
AcMeServices
 90
        0
280
     0
281
     0
  0
CLASS
  1
ACIMSTRSTATICVAR
  2
AcImStrStaticVar
  3
AcMeServices
 90
        0
280
     0
281
     0
  0
CLASS
  1
ACIMINTSTATICVAR
  2
AcImIntStaticVar
  3
AcMeServices
 90
        0
280
     0
281
     0
  0
CLASS
  1
ACASGREFMASTER
  2
AcAsGrefMaster
  3
AutoSurfResolverServices
 90
        0
280
     0
281
     0
  0
CLASS
  1
ACADGREFMODULE
  2
AcAdGrefModule
  3
AdGrefServices
 90
        0
280
     0
281
     0
  0
CLASS
  1
AMDTMAPISURFMOUDULE
  2
AmdtMApiSurfModule
  3
MApiSurfServices
 90
        0
280
     0
281
     0
  0
CLASS
  1
MAPIAMMOUDLE
  2
MApiAmModule
  3
MApiAmServices
 90
        0
280
     0
281
     0
  0
CLASS
  1
AMDTADMENUSTATE
  2
AmdtAdMenuState
  3
DesignerServices
 90
        0
280
     0
281
     0
  0
CLASS
  1
ADAPPL
  2
AcAdAppl
  3
DesignerServices
 90
        0
280
     0
281
     0
  0
CLASS
  1
DEPMGR
  2
AcAdDepMgr
  3
DesignerServices
 90
        0
280
     0
281
     0
  0
CLASS
  1
PARAMMGR
  2
AcAdParamMgr
  3
DesignerServices
 90
        0
280
     0
281
     0
  0
CLASS
  1
PARAMSCOPE
  2
AcAdParamScope
  3
DesignerServices
 90
        0
280
     0
281
     0
  0
CLASS
  1
NAMEDAPPL
  2
AcAdNamedAppl
  3
DesignerServices
 90
        0
280
     0
281
     0
  0
CLASS
  1
ADHNTMPLT
  2
AdHoleNoteTemplateMgr
  3
DesignerServices
 90
        0
280
     0
281
     0
  0
CLASS
  1
AM_HNTEMPLATE_MGR_NAME
  2
AdHoleNoteTemplateMgrName
  3
DesignerServices
 90
        0
280
     0
281
     0
  0
CLASS
  1
AMDTDMMENUSTATE
  2
AmdtDmMenuState
  3
AcMechDwgViewMgmt
 90
        0
280
     0
281
     0
  0
CLASS
  1
MAPIADMODULE
  2
MApiAdModule
  3
MApiAdServices
 90
        0
280
     0
281
     0
  0
CLASS
  1
AMDTAMMENUSTATE
  2
AmdtAmMenuState
  3
DesignerAssemblies
 90
        0
280
     0
281
     0
  0
CLASS
  1
ACAMPROJECT
  2
AcAmProject
  3
DesignerAssemblies
 90
        0
280
     0
281
     0
  0
CLASS
  1
ACAMGRCOMPDEF
  2
AcAmGrCompDef
  3
DesignerAssemblies
 90
        0
280
     0
281
     0
  0
CLASS
  1
ACCMCONTEXT
  2
AcCmContext
  3
DesignerAssemblies
 90
        0
280
     0
281
     0
  0
CLASS
  1
ACAMCOMPDEF
  2
AcAmCompDef
  3
DesignerAssemblies
 90
        0
280
     0
281
     0
  0
CLASS
  1
ACAMCOMPDEFMGR
  2
AcAmCompDefMgr
  3
DesignerAssemblies
 90
        0
280
     0
281
     0
  0
CLASS
  1
AMCONTEXTMGR
  2
AcAmContextMgr
  3
DesignerAssemblies
 90
        0
280
     0
281
     0
  0
CLASS
  1
ACAMCONTEXTMODELER
  2
AcAmContextModeler
  3
DesignerAssemblies
 90
        0
280
     0
281
     0
  0
CLASS
  1
CATALOGSTATE
  2
AcAmCatalogState
  3
DesignerAssemblies
 90
        0
280
     0
281
     0
  0
CLASS
  1
ACAMGRCOMPDEFSET
  2
AcAmGrCompDefSet
  3
DesignerAssemblies
 90
        0
280
     0
281
     0
  0
CLASS
  1
AMDTBROWSERDBTAB
  2
AmdtBrowserDbTab
  3
McadcomServices
 90
        0
280
     0
281
     0
  0
CLASS
  1
CBROWSERAPPOBJECT
  2
CBrowserAppObject
  3
McadcomServices
 90
        0
280
     0
281
     0
  0
CLASS
  1
DM_PLACEHOLDER
  2
AcDmSelsetPlaceholder
  3
AcMechDwgViewMgmt
 90
        0
280
     0
281
     0
  0
CLASS
  1
AMDTACMWBLOCKBOMENTITY
  2
AmdtAcmWblockBomEntity
  3
"AcmSymBB|Product Description: AutoCAD Mechanical 2000|Company: Autodesk"
 90
     1023
280
     0
281
     1
  0
CLASS
  1
ACAD_PROXY_OBJECT_WRAPPER
  2
AcDbProxyObjectWrapper
  3
AutoCAD 2000
 90
        0
280
     0
281
     0
  0
CLASS
  1
LONG_TRANSACTION
  2
AcDbLongTransaction
  3
AutoCAD 2000
 90
        0
280
     0
281
     0
  0
CLASS
  1
LWPOLYLINE
  2
AcDbPolyline
  3
AutoCAD 2000
 90
        0
280
     0
281
     1
  0
CLASS
  1
HATCH
  2
AcDbHatch
  3
AutoCAD 2000
 90
        0
280
     0
281
     1
  0
CLASS
  1
XRECORD
  2
AcDbXrecord
  3
AutoCAD 2000
 90
        0
280
     0
281
     0
  0
ENDSEC
  0
SECTION
  2
TABLES
  0
TABLE
  2
VPORT
  5
8
330
0
100
AcDbSymbolTable
 70
     2
  0
VPORT
  5
6EF1
330
8
100
AcDbSymbolTableRecord
100
AcDbViewportTableRecord
  2
*ACTIVE
 70
     0
 10
0.0
 20
0.0
 11
1.0
 21
1.0
 12
435.2724322333597
 22
106.7906886704247
 13
0.0
 23
0.0
 14
12.5
 24
12.5
 15
50.0
 25
50.0
 16
0.0
 26
0.0
 36
1.0
 17
398.7967013373313
 27
368.8346188541383
 37
0.0
 40
1573.938086637892
 41
2.164383561643835
 42
50.0
 43
0.0
 44
0.0
 50
0.0
 51
0.0
 71
     0
 72
   100
 73
     1
 74
     1
 75
     0
 76
     0
 77
     0
 78
     0
  0
ENDTAB
  0
TABLE
  2
LTYPE
  5
5
330
0
100
AcDbSymbolTable
 70
    22
  0
LTYPE
  5
12
330
5
100
AcDbSymbolTableRecord
100
AcDbLinetypeTableRecord
  2
BYBLOCK
 70
     0
  3

 72
    65
 73
     0
 40
0.0
  0
LTYPE
  5
13
330
5
100
AcDbSymbolTableRecord
100
AcDbLinetypeTableRecord
  2
BYLAYER
 70
     0
  3

 72
    65
 73
     0
 40
0.0
  0
LTYPE
  5
14
330
5
100
AcDbSymbolTableRecord
100
AcDbLinetypeTableRecord
  2
CONTINUOUS
 70
     0
  3
実線
 72
    65
 73
     0
 40
0.0
  0
LTYPE
  5
20
330
5
100
AcDbSymbolTableRecord
100
AcDbLinetypeTableRecord
  2
HIDDEN
 70
     0
  3
_ _ _ _ _ _ _ _ _ _ _ _ _ _ _ _ _ _ _ _ _ _ _
 72
    65
 73
     2
 40
0.375
 49
0.25
 74
     0
 49
-0.125
 74
     0
  0
LTYPE
  5
22
330
5
100
AcDbSymbolTableRecord
100
AcDbLinetypeTableRecord
  2
CENTER
 70
     0
  3
____ _ ____ _ ____ _ ____ _ ____ _ ____ _ ____
 72
    65
 73
     4
 40
2.0
 49
1.25
 74
     0
 49
-0.25
 74
     0
 49
0.25
 74
     0
 49
-0.25
 74
     0
  0
LTYPE
  5
120B
330
5
100
AcDbSymbolTableRecord
100
AcDbLinetypeTableRecord
  2
GEN7
 70
     0
  3
____ . ____ . ____ . ____ . ____ . ____ . ____
 72
    65
 73
     4
 40
13.75
 49
9.75
 74
     0
 49
-1.5
 74
     0
 49
1.0
 74
     0
 49
-1.5
 74
     0
  0
LTYPE
  5
1672
330
5
100
AcDbSymbolTableRecord
100
AcDbLinetypeTableRecord
  2
GEN7A
 70
     0
  3
__ . __ . __
 72
    65
 73
     4
 40
6.875
 49
4.75
 74
     0
 49
-0.875
 74
     0
 49
0.375
 74
     0
 49
-0.875
 74
     0
  0
LTYPE
  5
2759
330
5
100
AcDbSymbolTableRecord
100
AcDbLinetypeTableRecord
  2
AM_ISO02W050
 70
     0
  3
__ __ __ __ __ __ __ __ __ __ __ __ __ __ __
 72
    65
 73
     2
 40
7.5
 49
6.0
 74
     0
 49
-1.5
 74
     0
  0
LTYPE
  5
276E
330
5
100
AcDbSymbolTableRecord
100
AcDbLinetypeTableRecord
  2
ACISOWELD
 70
     0
  3
_ _ _ _ _
 72
    65
 73
     2
 40
2.0
 49
2.0
 74
     0
 49
-1.0
 74
     0
  0
LTYPE
  5
276F
330
5
100
AcDbSymbolTableRecord
100
AcDbLinetypeTableRecord
  2
ACISOTGB
 70
     0
  3
__ . . __ . .
 72
    65
 73
     6
 40
9.0
 49
4.0
 74
     0
 49
-1.0
 74
     0
 49
1.0
 74
     0
 49
-1.0
 74
     0
 49
1.0
 74
     0
 49
-1.0
 74
     0
  0
LTYPE
  5
2770
330
5
100
AcDbSymbolTableRecord
100
AcDbLinetypeTableRecord
  2
ACISOTGL
 70
     0
  3
_ _ _ _ _
 72
    65
 73
     2
 40
3.0
 49
2.0
 74
     0
 49
-1.0
 74
     0
  0
LTYPE
  5
2784
330
5
100
AcDbSymbolTableRecord
100
AcDbLinetypeTableRecord
  2
GEN3
 70
     0
  3
-- -- -- -- -- -- -- -- -- -- -- -- -- -- --
 72
    65
 73
     2
 40
6.25
 49
4.75
 74
     0
 49
-1.5
 74
     0
  0
LTYPE
  5
2785
330
5
100
AcDbSymbolTableRecord
100
AcDbLinetypeTableRecord
  2
GEN3A
 70
     0
  3
 - - - - -
 72
    65
 73
     2
 40
3.125
 49
2.25
 74
     0
 49
-0.875
 74
     0
  0
LTYPE
  5
2786
330
5
100
AcDbSymbolTableRecord
100
AcDbLinetypeTableRecord
  2
GEN4A
 70
     0
  3
_____ . . _____ . . _____ . . ____ .. ____
 72
    65
 73
     6
 40
16.25
 49
9.75
 74
     0
 49
-1.5
 74
     0
 49
1.0
 74
     0
 49
-1.5
 74
     0
 49
1.0
 74
     0
 49
-1.5
 74
     0
  0
LTYPE
  5
2789
330
5
100
AcDbSymbolTableRecord
100
AcDbLinetypeTableRecord
  2
GENZIGZAG
 70
     0
  3
/\/-/\/-/\/-/\/-/\/-/\/
 72
    65
 73
     2
 40
12.0001
 49
0.0001
 74
     4
 75
   135
340
2788
 46
2.0
 50
0.0
 44
0.0
 45
0.0
 49
-12.0
 74
     0
  0
LTYPE
  5
5592
330
5
100
AcDbSymbolTableRecord
100
AcDbLinetypeTableRecord
  2
PHANTOM2
 70
     0
  3
Phantom (.5x) ___ _ _ ___ _ _ ___ _ _ ___ _ _
 72
    65
 73
     6
 40
31.75
 49
15.875
 74
     0
 49
-3.174999999999998
 74
     0
 49
3.174999999999998
 74
     0
 49
-3.174999999999998
 74
     0
 49
3.174999999999998
 74
     0
 49
-3.174999999999998
 74
     0
  0
LTYPE
  5
57B4
330
5
100
AcDbSymbolTableRecord
100
AcDbLinetypeTableRecord
  2
ASULTYPE
 70
     0
  3
実線
 72
    65
 73
     2
 40
3.0
 49
2.5
 74
     0
 49
0.5
 74
     0
  0
LTYPE
  5
57B5
330
5
100
AcDbSymbolTableRecord
100
AcDbLinetypeTableRecord
  2
ASVLTYPE
 70
     0
  3
__ __ __ __ __ __ __ __ __ __ __ __ __ __ __ __ __ __ __ __ __
 72
    65
 73
     2
 40
0.75
 49
0.5
 74
     0
 49
-0.25
 74
     0
  0
LTYPE
  5
58E0
330
5
100
AcDbSymbolTableRecord
100
AcDbLinetypeTableRecord
  2
AM_ISO08W050
 70
     0
  3
____ . ____ . ____ . ____ . ____ . ____ . ____
 72
    65
 73
     4
 40
18.0
 49
12.0
 74
     0
 49
-1.5
 74
     0
 49
3.0
 74
     0
 49
-1.5
 74
     0
  0
LTYPE
  5
58E1
330
5
100
AcDbSymbolTableRecord
100
AcDbLinetypeTableRecord
  2
AM_ISO09W050
 70
     0
  3
_____ . . _____ . . _____ . . ____ .. ____
 72
    65
 73
     6
 40
22.5
 49
12.0
 74
     0
 49
-1.5
 74
     0
 49
3.0
 74
     0
 49
-1.5
 74
     0
 49
3.0
 74
     0
 49
-1.5
 74
     0
  0
LTYPE
  5
58E2
330
5
100
AcDbSymbolTableRecord
100
AcDbLinetypeTableRecord
  2
AMCONSTR
 70
     0
  3
_______________________
 72
    65
 73
     2
 40
9999.0
 49
9999.0
 74
     0
 49
0.0
 74
     0
  0
LTYPE
  5
58E3
330
5
100
AcDbSymbolTableRecord
100
AcDbLinetypeTableRecord
  2
AM_ISO08W050X2
 70
     0
  3
__ . __ . __ . __ . __ . __
 72
    65
 73
     4
 40
9.0
 49
6.0
 74
     0
 49
-0.75
 74
     0
 49
1.5
 74
     0
 49
-0.75
 74
     0
  0
LTYPE
  5
58E4
330
5
100
AcDbSymbolTableRecord
100
AcDbLinetypeTableRecord
  2
AM_ISO02W050X2
 70
     0
  3
 _ _ _ _ _ _ _ _ _ _ _ _
 72
    65
 73
     2
 40
3.75
 49
3.0
 74
     0
 49
-0.75
 74
     0
  0
LTYPE
  5
58E5
330
5
100
AcDbSymbolTableRecord
100
AcDbLinetypeTableRecord
  2
AMZIGZAG
 70
     0
  3
/\/-/\/-/\/-/\/-/\/-/\/
 72
    65
 73
     2
 40
11.00009999999999
 49
0.0001
 74
     4
 75
   135
340
58E9
 46
0.04
 50
0.0
 44
0.0
 45
0.0
 49
-11.0
 74
     0
  0
ENDTAB
  0
TABLE
  2
LAYER
  5
2
330
0
100
AcDbSymbolTable
 70
    12
  0
LAYER
  5
E
330
2
100
AcDbSymbolTableRecord
100
AcDbLayerTableRecord
  2
0
 70
     0
 62
     7
  6
CONTINUOUS
  0
LAYER
  5
525
330
2
100
AcDbSymbolTableRecord
100
AcDbLayerTableRecord
  2
最小図面
 70
     0
 62
     7
  6
CONTINUOUS
  0
LAYER
  5
529
330
2
100
AcDbSymbolTableRecord
100
AcDbLayerTableRecord
  2
文字
 70
     0
 62
    70
  6
CONTINUOUS
  0
LAYER
  5
52A
330
2
100
AcDbSymbolTableRecord
100
AcDbLayerTableRecord
  2
補助線
 70
     0
 62
  -111
  6
CONTINUOUS
  0
LAYER
  5
52B
330
2
100
AcDbSymbolTableRecord
100
AcDbLayerTableRecord
  2
枠
 70
     0
 62
     5
  6
CONTINUOUS
  0
LAYER
  5
537
330
2
100
AcDbSymbolTableRecord
100
AcDbLayerTableRecord
  2
DEFPOINTS
 70
     0
 62
     7
  6
CONTINUOUS
  0
LAYER
  5
A3D
330
2
100
AcDbSymbolTableRecord
100
AcDbLayerTableRecord
  2
5
 70
     0
 62
     3
  6
CONTINUOUS
  0
LAYER
  5
28BF
330
2
100
AcDbSymbolTableRecord
100
AcDbLayerTableRecord
  2
細線
 70
     0
 62
   160
  6
CONTINUOUS
  0
LAYER
  5
58E6
330
2
100
AcDbSymbolTableRecord
100
AcDbLayerTableRecord
  2
LAYER0014
 70
     0
 62
     7
  6
CONTINUOUS
  0
LAYER
  5
58E7
330
2
100
AcDbSymbolTableRecord
100
AcDbLayerTableRecord
  2
ZUWAKU
 70
     0
 62
     7
  6
CONTINUOUS
  0
LAYER
  5
5F8D
330
2
100
AcDbSymbolTableRecord
100
AcDbLayerTableRecord
  2
7
 70
     0
 62
     4
  6
GEN7
  0
LAYER
  5
5F8E
330
2
100
AcDbSymbolTableRecord
100
AcDbLayerTableRecord
  2
7A
 70
     0
 62
     4
  6
GEN7A
  0
ENDTAB
  0
TABLE
  2
STYLE
  5
3
330
0
100
AcDbSymbolTable
 70
     6
  0
STYLE
  5
F
330
3
100
AcDbSymbolTableRecord
100
AcDbTextStyleTableRecord
  2
STANDARD
 70
     0
 40
0.0
 41
1.0
 50
0.0
 71
     0
 42
3.5
  3
ISOCP.SHX
  4
extfont.shx
  0
STYLE
  5
2762
330
3
100
AcDbSymbolTableRecord
100
AcDbTextStyleTableRecord
  2
ACISOTS
 70
     0
 40
1.0
 41
1.0
 50
0.0
 71
     0
 42
3.5
  3
isocp.shx
  4
extfont.shx
  0
STYLE
  5
276D
330
3
100
AcDbSymbolTableRecord
100
AcDbTextStyleTableRecord
  2
ACISOGDT
 70
     0
 40
0.0
 41
1.0
 50
0.0
 71
     0
 42
3.5
  3
amgdt.shx
  4

  0
STYLE
  5
2788
330
3
100
AcDbSymbolTableRecord
100
AcDbTextStyleTableRecord
  2

 70
     1
 40
0.0
 41
1.0
 50
0.0
 71
     0
 42
3.5
  3
genltshp.shx
  4

  0
STYLE
  5
58E8
330
3
100
AcDbSymbolTableRecord
100
AcDbTextStyleTableRecord
  2
FDASTYLE0
 70
     0
 40
0.0
 41
0.6638419652256984
 50
0.0
 71
     0
 42
0.2
  3
txt.shx
  4
bigfont
  0
STYLE
  5
58E9
330
3
100
AcDbSymbolTableRecord
100
AcDbTextStyleTableRecord
  2

 70
     1
 40
0.0
 41
1.0
 50
0.0
 71
     0
 42
0.2
  3
ltypeshp.shx
  4

  0
ENDTAB
  0
TABLE
  2
VIEW
  5
6
330
0
100
AcDbSymbolTable
 70
     0
  0
ENDTAB
  0
TABLE
  2
UCS
  5
7
330
0
100
AcDbSymbolTable
 70
     0
  0
ENDTAB
  0
TABLE
  2
APPID
  5
9
330
0
100
AcDbSymbolTable
 70
    41
  0
APPID
  5
10
330
9
100
AcDbSymbolTableRecord
100
AcDbRegAppTableRecord
  2
ACAD
 70
     0
  0
APPID
  5
11E4
330
9
100
AcDbSymbolTableRecord
100
AcDbRegAppTableRecord
  2
GENIUS_GENOENT_13
 70
     0
  0
APPID
  5
123A
330
9
100
AcDbSymbolTableRecord
100
AcDbRegAppTableRecord
  2
GEV_VCCNULL_SWITCH_OFF
 70
     0
  0
APPID
  5
1246
330
9
100
AcDbSymbolTableRecord
100
AcDbRegAppTableRecord
  2
GENIUS_GENDTOL_13
 70
     0
  0
APPID
  5
1341
330
9
100
AcDbSymbolTableRecord
100
AcDbRegAppTableRecord
  2
GENIUS_GENHINW_13
 70
     0
  0
APPID
  5
1342
330
9
100
AcDbSymbolTableRecord
100
AcDbRegAppTableRecord
  2
GENIUS_FIRSTVISTXT_14
 70
     0
  0
APPID
  5
1344
330
9
100
AcDbSymbolTableRecord
100
AcDbRegAppTableRecord
  2
GENIUS_GENODEF_13
 70
     0
  0
APPID
  5
1345
330
9
100
AcDbSymbolTableRecord
100
AcDbRegAppTableRecord
  2
GENIUS_GENOBJ-N-LEADER_13
 70
     0
  0
APPID
  5
1346
330
9
100
AcDbSymbolTableRecord
100
AcDbRegAppTableRecord
  2
GENIUS_GENOREF_13
 70
     0
  0
APPID
  5
1347
330
9
100
AcDbSymbolTableRecord
100
AcDbRegAppTableRecord
  2
GENIUS_GENOLIS_13
 70
     0
  0
APPID
  5
1504
330
9
100
AcDbSymbolTableRecord
100
AcDbRegAppTableRecord
  2
GENIUS_GENDREL_13
 70
     0
  0
APPID
  5
1599
330
9
100
AcDbSymbolTableRecord
100
AcDbRegAppTableRecord
  2
GENIUS_SECONDVISTXT_14
 70
     0
  0
APPID
  5
15BB
330
9
100
AcDbSymbolTableRecord
100
AcDbRegAppTableRecord
  2
GENIUS_GENTRA_14
 70
     0
  0
APPID
  5
15DD
330
9
100
AcDbSymbolTableRecord
100
AcDbRegAppTableRecord
  2
GENIUS_GENOBJ-N-HINW_13
 70
     0
  0
APPID
  5
164A
330
9
100
AcDbSymbolTableRecord
100
AcDbRegAppTableRecord
  2
GENIUS_GENCFG_13
 70
     0
1001
GENIUS_GENCFG0_13
1000
GEN@INFO_POS@XLATE
1001
GENIUS_GENCFG1_13
1000
GEN@INFO_POS
1001
GENIUS_GENCFG2_13
1000
GEN@LAYER@DEFS
1001
GENIUS_GENCFG3_13
1000
GEN@LAYER@ENTSORT
1001
GENIUS_GENCFG4_13
1000
GEN
1001
GENIUS_GEVCFG0_13
1000
GEV
1001
GENIUS_GEFCFG0_13
1000
GEF
  0
APPID
  5
164B
330
9
100
AcDbSymbolTableRecord
100
AcDbRegAppTableRecord
  2
GENIUS_GENCFG0_13
 70
     0
1001
GENIUS_GENCFG_13
1071
938725396
1000
164B
1000
GEN@INFO_POS@XLATE
1070
     7
1000
GenCfgObject
1000
GenCfgShort
1000
GenCfgReal
1000
GenCfgBool
1000
GenCfgString
1000
GenCfgDim
1000
GenCfgAttrInf
1000
ACADM_BOM
1070
     0
1002
{
1000
ACADM_BOM1
1070
     0
1002
{
1000
ITEM
1070
     4
1000
1
1002
{
1002
}
1000
QTY
1070
     4
1000
2
1002
{
1002
}
1000
PALINAME
1070
     4
1000
3
1002
{
1002
}
1000
DESCR
1070
     4
1000
5
1002
{
1002
}
1000
STANDARD
1070
     4
1000
7
1002
{
1002
}
1000
MATERIAL
1070
     4
1000
9
1002
{
1002
}
1000
MASS
1070
     4
1000
12
1002
{
1002
}
1000
NOTE
1070
     4
1000
24
1002
{
1002
}
1000
VENDOR
1070
     4
1000
25
1002
{
1002
}
1000
NAME
1070
     4
1000
28
1002
{
1002
}
1002
}
1002
}
1000
INFOPOINTS
1070
     0
1002
{
1000
GENINF14
1070
     0
1002
{
1000
2GENINF
1070
     4
1000
2
1002
{
1002
}
1000
3GENINF
1070
     4
1000
3
1002
{
1002
}
1000
4GENINF
1070
     4
1000
4
1002
{
1002
}
1000
5GENINF
1070
     4
1000
5
1002
{
1002
}
1000
6GENINF
1070
     4
1000
6
1002
{
1002
}
1000
7GENINF
1070
     4
1000
7
1002
{
1002
}
1000
8GENINF
1070
     4
1000
8
1002
{
1002
}
1000
9GENINF
1070
     4
1000
9
1002
{
1002
}
1000
10GENINF
1070
     4
1000
10
1002
{
1002
}
1000
11GENINF
1070
     4
1000
11
1002
{
1002
}
1000
12GENINF
1070
     4
1000
12
1002
{
1002
}
1000
13GENINF
1070
     4
1000
13
1002
{
1002
}
1000
14GENINF
1070
     4
1000
14
1002
{
1002
}
1000
15GENINF
1070
     4
1000
15
1002
{
1002
}
1000
16GENINF
1070
     4
1000
16
1002
{
1002
}
1000
17GENINF
1070
     4
1000
17
1002
{
1002
}
1000
18GENINF
1070
     4
1000
18
1002
{
1002
}
1000
19GENINF
1070
     4
1000
19
1002
{
1002
}
1000
20GENINF
1070
     4
1000
20
1002
{
1002
}
1000
21GENINF
1070
     4
1000
21
1002
{
1002
}
1000
22GENINF
1070
     4
1000
22
1002
{
1002
}
1000
23GENINF
1070
     4
1000
23
1002
{
1002
}
1000
24GENINF
1070
     4
1000
24
1002
{
1002
}
1000
25GENINF
1070
     4
1000
25
1002
{
1002
}
1000
26GENINF
1070
     4
1000
26
1002
{
1002
}
1000
27GENINF
1070
     4
1000
27
1002
{
1002
}
1000
0GENINF
1070
     4
1000
0
1002
{
1002
}
1002
}
1000
GENINF13
1070
     0
1002
{
1000
2GENINF
1070
     4
1000
2
1002
{
1002
}
1000
3GENINF
1070
     4
1000
3
1002
{
1002
}
1000
4GENINF
1070
     4
1000
4
1002
{
1002
}
1000
5GENINF
1070
     4
1000
5
1002
{
1002
}
1000
6GENINF
1070
     4
1000
6
1002
{
1002
}
1000
7GENINF
1070
     4
1000
7
1002
{
1002
}
1000
8GENINF
1070
     4
1000
8
1002
{
1002
}
1000
9GENINF
1070
     4
1000
9
1002
{
1002
}
1000
10GENINF
1070
     4
1000
10
1002
{
1002
}
1000
11GENINF
1070
     4
1000
11
1002
{
1002
}
1000
12GENINF
1070
     4
1000
12
1002
{
1002
}
1000
13GENINF
1070
     4
1000
13
1002
{
1002
}
1000
14GENINF
1070
     4
1000
14
1002
{
1002
}
1000
15GENINF
1070
     4
1000
15
1002
{
1002
}
1000
16GENINF
1070
     4
1000
16
1002
{
1002
}
1000
17GENINF
1070
     4
1000
17
1002
{
1002
}
1000
18GENINF
1070
     4
1000
18
1002
{
1002
}
1000
19GENINF
1070
     4
1000
19
1002
{
1002
}
1000
20GENINF
1070
     4
1000
20
1002
{
1002
}
1000
21GENINF
1070
     4
1000
21
1002
{
1002
}
1000
22GENINF
1070
     4
1000
22
1002
{
1002
}
1000
23GENINF
1070
     4
1000
23
1002
{
1002
}
1000
24GENINF
1070
     4
1000
24
1002
{
1002
}
1000
0GENINF
1070
     4
1000
0
1002
{
1002
}
1002
}
1000
GENINFO
1070
     0
1002
{
1000
3GENINF
1070
     4
1000
3
1002
{
1002
}
1000
4GENINF
1070
     4
1000
4
1002
{
1002
}
1000
5GENINF
1070
     4
1000
5
1002
{
1002
}
1000
6GENINF
1070
     4
1000
6
1002
{
1002
}
1000
7GENINF
1070
     4
1000
7
1002
{
1002
}
1000
8GENINF
1070
     4
1000
8
1002
{
1002
}
1000
9GENINF
1070
     4
1000
9
1002
{
1002
}
1000
10GENINF
1070
     4
1000
10
1002
{
1002
}
1000
11GENINF
1070
     4
1000
11
1002
{
1002
}
1000
12GENINF
1070
     4
1000
12
1002
{
1002
}
1000
13GENINF
1070
     4
1000
13
1002
{
1002
}
1000
14GENINF
1070
     4
1000
14
1002
{
1002
}
1000
15GENINF
1070
     4
1000
15
1002
{
1002
}
1000
16GENINF
1070
     4
1000
16
1002
{
1002
}
1000
17GENINF
1070
     4
1000
17
1002
{
1002
}
1000
18GENINF
1070
     4
1000
18
1002
{
1002
}
1000
19GENINF
1070
     4
1000
19
1002
{
1002
}
1000
20GENINF
1070
     4
1000
20
1002
{
1002
}
1000
21GENINF
1070
     4
1000
21
1002
{
1002
}
1000
22GENINF
1070
     4
1000
22
1002
{
1002
}
1002
}
1000
DININFO
1070
     0
1002
{
1000
ST-NAME1
1070
     4
1000
5
1002
{
1002
}
1000
ST-NAME2
1070
     4
1000
6
1002
{
1002
}
1000
ST-NORM1
1070
     4
1000
7
1002
{
1002
}
1000
ST-NORM2
1070
     4
1000
8
1002
{
1002
}
1000
ST-MAT1
1070
     4
1000
9
1002
{
1002
}
1000
ST-MAT2
1070
     4
1000
10
1002
{
1002
}
1002
}
1002
}
1000
POS_NUMBERS
1070
     0
1002
{
1000
GENPOS14
1070
     0
1002
{
1000
1GENPOS
1070
     4
1000
1
1002
{
1002
}
1000
2GENPOS
1070
     4
1000
2
1002
{
1002
}
1000
3GENPOS
1070
     4
1000
3
1002
{
1002
}
1000
4GENPOS
1070
     4
1000
4
1002
{
1002
}
1000
5GENPOS
1070
     4
1000
5
1002
{
1002
}
1000
6GENPOS
1070
     4
1000
6
1002
{
1002
}
1000
7GENPOS
1070
     4
1000
7
1002
{
1002
}
1000
8GENPOS
1070
     4
1000
8
1002
{
1002
}
1000
9GENPOS
1070
     4
1000
9
1002
{
1002
}
1000
10GENPOS
1070
     4
1000
10
1002
{
1002
}
1000
11GENPOS
1070
     4
1000
11
1002
{
1002
}
1000
12GENPOS
1070
     4
1000
12
1002
{
1002
}
1000
13GENPOS
1070
     4
1000
13
1002
{
1002
}
1000
14GENPOS
1070
     4
1000
14
1002
{
1002
}
1000
15GENPOS
1070
     4
1000
15
1002
{
1002
}
1000
16GENPOS
1070
     4
1000
16
1002
{
1002
}
1000
17GENPOS
1070
     4
1000
17
1002
{
1002
}
1000
18GENPOS
1070
     4
1000
18
1002
{
1002
}
1000
19GENPOS
1070
     4
1000
19
1002
{
1002
}
1000
20GENPOS
1070
     4
1000
20
1002
{
1002
}
1000
21GENPOS
1070
     4
1000
21
1002
{
1002
}
1000
22GENPOS
1070
     4
1000
22
1002
{
1002
}
1000
23GENPOS
1070
     4
1000
23
1002
{
1002
}
1000
24GENPOS
1070
     4
1000
24
1002
{
1002
}
1000
25GENPOS
1070
     4
1000
25
1002
{
1002
}
1000
26GENPOS
1070
     4
1000
26
1002
{
1002
}
1000
27GENPOS
1070
     4
1000
27
1002
{
1002
}
1000
0GENPOS
1070
     4
1000
0
1002
{
1002
}
1002
}
1000
GENPOS13
1070
     0
1002
{
1000
1GENPOS
1070
     4
1000
1
1002
{
1002
}
1000
2GENPOS
1070
     4
1000
2
1002
{
1002
}
1000
3GENPOS
1070
     4
1000
3
1002
{
1002
}
1000
4GENPOS
1070
     4
1000
4
1002
{
1002
}
1000
5GENPOS
1070
     4
1000
5
1002
{
1002
}
1000
6GENPOS
1070
     4
1000
6
1002
{
1002
}
1000
7GENPOS
1070
     4
1000
7
1002
{
1002
}
1000
8GENPOS
1070
     4
1000
8
1002
{
1002
}
1000
9GENPOS
1070
     4
1000
9
1002
{
1002
}
1000
10GENPOS
1070
     4
1000
10
1002
{
1002
}
1000
11GENPOS
1070
     4
1000
11
1002
{
1002
}
1000
12GENPOS
1070
     4
1000
12
1002
{
1002
}
1000
13GENPOS
1070
     4
1000
13
1002
{
1002
}
1000
14GENPOS
1070
     4
1000
14
1002
{
1002
}
1000
15GENPOS
1070
     4
1000
15
1002
{
1002
}
1000
16GENPOS
1070
     4
1000
16
1002
{
1002
}
1000
17GENPOS
1070
     4
1000
17
1002
{
1002
}
1000
18GENPOS
1070
     4
1000
18
1002
{
1002
}
1000
19GENPOS
1070
     4
1000
19
1002
{
1002
}
1000
20GENPOS
1070
     4
1000
20
1002
{
1002
}
1000
21GENPOS
1070
     4
1000
21
1002
{
1002
}
1000
22GENPOS
1070
     4
1000
22
1002
{
1002
}
1000
23GENPOS
1070
     4
1000
23
1002
{
1002
}
1000
24GENPOS
1070
     4
1000
24
1002
{
1002
}
1000
0GENPOS
1070
     4
1000
0
1002
{
1002
}
1002
}
1000
GENPOS
1070
     0
1002
{
1000
1GENPOS
1070
     4
1000
1
1002
{
1002
}
1000
2GENPOS
1070
     4
1000
2
1002
{
1002
}
1000
3GENPOS
1070
     4
1000
3
1002
{
1002
}
1000
4GENPOS
1070
     4
1000
4
1002
{
1002
}
1000
5GENPOS
1070
     4
1000
5
1002
{
1002
}
1000
6GENPOS
1070
     4
1000
6
1002
{
1002
}
1000
7GENPOS
1070
     4
1000
7
1002
{
1002
}
1000
8GENPOS
1070
     4
1000
8
1002
{
1002
}
1000
9GENPOS
1070
     4
1000
9
1002
{
1002
}
1000
10GENPOS
1070
     4
1000
10
1002
{
1002
}
1000
11GENPOS
1070
     4
1000
11
1002
{
1002
}
1000
12GENPOS
1070
     4
1000
12
1002
{
1002
}
1000
13GENPOS
1070
     4
1000
13
1002
{
1002
}
1000
14GENPOS
1070
     4
1000
14
1002
{
1002
}
1000
15GENPOS
1070
     4
1000
15
1002
{
1002
}
1000
16GENPOS
1070
     4
1000
16
1002
{
1002
}
1000
17GENPOS
1070
     4
1000
17
1002
{
1002
}
1000
18GENPOS
1070
     4
1000
18
1002
{
1002
}
1000
19GENPOS
1070
     4
1000
19
1002
{
1002
}
1000
20GENPOS
1070
     4
1000
20
1002
{
1002
}
1000
21GENPOS
1070
     4
1000
21
1002
{
1002
}
1000
22GENPOS
1070
     4
1000
22
1002
{
1002
}
1000
23GENPOS
1070
     4
1000
23
1002
{
1002
}
1002
}
1000
DIN985
1070
     0
1002
{
1000
POSITION
1070
     4
1000
1
1002
{
1002
}
1000
MENGE
1070
     4
1000
2
1002
{
1002
}
1000
BLATT
1070
     4
1000
3
1002
{
1002
}
1000
BENENN
1070
     4
1000
5
1002
{
1002
}
1000
BENENN2
1070
     4
1000
6
1002
{
1002
}
1000
NORM
1070
     4
1000
7
1002
{
1002
}
1000
NORM2
1070
     4
1000
8
1002
{
1002
}
1000
WERKSTOFF
1070
     4
1000
9
1002
{
1002
}
1000
WERKSTOFF2
1070
     4
1000
10
1002
{
1002
}
1002
}
1000
DIN986
1070
     0
1002
{
1000
POSITION
1070
     4
1000
1
1002
{
1002
}
1000
MENGE
1070
     4
1000
2
1002
{
1002
}
1000
BLATT
1070
     4
1000
3
1002
{
1002
}
1000
BENENN
1070
     4
1000
5
1002
{
1002
}
1000
BENENN2
1070
     4
1000
6
1002
{
1002
}
1000
NORM
1070
     4
1000
7
1002
{
1002
}
1000
NORM2
1070
     4
1000
8
1002
{
1002
}
1000
WERKSTOFF
1070
     4
1000
9
1002
{
1002
}
1000
WERKSTOFF2
1070
     4
1000
10
1002
{
1002
}
1002
}
1000
DIN987
1070
     0
1002
{
1000
POSITION
1070
     4
1000
1
1002
{
1002
}
1000
MENGE
1070
     4
1000
2
1002
{
1002
}
1000
BLATT
1070
     4
1000
3
1002
{
1002
}
1000
BENENN
1070
     4
1000
5
1002
{
1002
}
1000
BENENN2
1070
     4
1000
6
1002
{
1002
}
1000
NORM
1070
     4
1000
7
1002
{
1002
}
1000
NORM2
1070
     4
1000
8
1002
{
1002
}
1000
WERKSTOFF
1070
     4
1000
9
1002
{
1002
}
1000
WERKSTOFF2
1070
     4
1000
10
1002
{
1002
}
1002
}
1002
}
  0
APPID
  5
164C
330
9
100
AcDbSymbolTableRecord
100
AcDbRegAppTableRecord
  2
GENIUS_GENCFG1_13
 70
     0
1001
GENIUS_GENCFG_13
1071
938725396
1000
164C
1000
GEN@INFO_POS
1070
     7
1000
GenCfgObject
1000
GenCfgShort
1000
GenCfgReal
1000
GenCfgBool
1000
GenCfgString
1000
GenCfgDim
1000
GenCfgAttrInf
1000
DescrText
1070
     4
1000
5, ,6, ,7, ,8
1002
{
1002
}
1000
DescrText2
1070
     4
1000
26
1002
{
1002
}
1000
VisibleAttr1
1070
     4
1000
1
1002
{
1002
}
1000
VisibleAttr2
1070
     4
1000
26
1002
{
1002
}
1000
UpdateBlock
1070
     3
1070
     1
1002
{
1002
}
1000
UsedAcadMBom
1070
     4
1000
ACADM_BOM1
1002
{
1002
}
1000
AutoUpdAcadMBom
1070
     3
1070
     1
1002
{
1002
}
1000
Attrib
1070
     0
1002
{
1000
0
1070
     6
1002
{
1000
Prompt
1070
     4
1000
(genmsg gendwg 103)
1002
{
1002
}
1000
Value
1070
     4
1000

1002
{
1002
}
1000
EditFlag
1070
     1
1070
     0
1002
{
1002
}
1000
PosInDDATTE
1070
     1
1070
    27
1002
{
1002
}
1000
FieldLen
1070
     1
1070
    -1
1002
{
1002
}
1002
}
1000
1
1070
     6
1002
{
1000
Prompt
1070
     4
1000
(genmsg gendwg 31)
1002
{
1002
}
1000
Value
1070
     4
1000
1
1002
{
1002
}
1000
EditFlag
1070
     1
1070
     1
1002
{
1002
}
1000
PosInDDATTE
1070
     1
1070
     1
1002
{
1002
}
1000
FieldLen
1070
     1
1070
    -1
1002
{
1002
}
1002
}
1000
2
1070
     6
1002
{
1000
Prompt
1070
     4
1000
(genmsg gendwg 32)
1002
{
1002
}
1000
Value
1070
     4
1000
1
1002
{
1002
}
1000
EditFlag
1070
     1
1070
     1
1002
{
1002
}
1000
PosInDDATTE
1070
     1
1070
     2
1002
{
1002
}
1000
FieldLen
1070
     1
1070
    -1
1002
{
1002
}
1002
}
1000
3
1070
     6
1002
{
1000
Prompt
1070
     4
1000
(genmsg gendwg 33)
1002
{
1002
}
1000
Value
1070
     4
1000

1002
{
1002
}
1000
EditFlag
1070
     1
1070
     1
1002
{
1002
}
1000
PosInDDATTE
1070
     1
1070
     3
1002
{
1002
}
1000
FieldLen
1070
     1
1070
    -1
1002
{
1002
}
1002
}
1000
4
1070
     6
1002
{
1000
Prompt
1070
     4
1000
(genmsg gendwg 34)
1002
{
1002
}
1000
Value
1070
     4
1000

1002
{
1002
}
1000
EditFlag
1070
     1
1070
     1
1002
{
1002
}
1000
PosInDDATTE
1070
     1
1070
     4
1002
{
1002
}
1000
FieldLen
1070
     1
1070
    -1
1002
{
1002
}
1002
}
1000
5
1070
     6
1002
{
1000
Prompt
1070
     4
1000
(genmsg gendwg 35)
1002
{
1002
}
1000
Value
1070
     4
1000

1002
{
1002
}
1000
EditFlag
1070
     1
1070
     1
1002
{
1002
}
1000
PosInDDATTE
1070
     1
1070
     5
1002
{
1002
}
1000
FieldLen
1070
     1
1070
    -1
1002
{
1002
}
1002
}
1000
6
1070
     6
1002
{
1000
Prompt
1070
     4
1000
(genmsg gendwg 36)
1002
{
1002
}
1000
Value
1070
     4
1000

1002
{
1002
}
1000
EditFlag
1070
     1
1070
     1
1002
{
1002
}
1000
PosInDDATTE
1070
     1
1070
     6
1002
{
1002
}
1000
FieldLen
1070
     1
1070
    -1
1002
{
1002
}
1002
}
1000
7
1070
     6
1002
{
1000
Prompt
1070
     4
1000
(genmsg gendwg 37)
1002
{
1002
}
1000
Value
1070
     4
1000

1002
{
1002
}
1000
EditFlag
1070
     1
1070
     1
1002
{
1002
}
1000
PosInDDATTE
1070
     1
1070
     7
1002
{
1002
}
1000
FieldLen
1070
     1
1070
    -1
1002
{
1002
}
1002
}
1000
8
1070
     6
1002
{
1000
Prompt
1070
     4
1000
(genmsg gendwg 38)
1002
{
1002
}
1000
Value
1070
     4
1000

1002
{
1002
}
1000
EditFlag
1070
     1
1070
     1
1002
{
1002
}
1000
PosInDDATTE
1070
     1
1070
     8
1002
{
1002
}
1000
FieldLen
1070
     1
1070
    -1
1002
{
1002
}
1002
}
1000
9
1070
     6
1002
{
1000
Prompt
1070
     4
1000
(genmsg gendwg 39)
1002
{
1002
}
1000
Value
1070
     4
1000

1002
{
1002
}
1000
EditFlag
1070
     1
1070
     1
1002
{
1002
}
1000
PosInDDATTE
1070
     1
1070
     9
1002
{
1002
}
1000
FieldLen
1070
     1
1070
    -1
1002
{
1002
}
1002
}
1000
10
1070
     6
1002
{
1000
Prompt
1070
     4
1000
(genmsg gendwg 40)
1002
{
1002
}
1000
Value
1070
     4
1000

1002
{
1002
}
1000
EditFlag
1070
     1
1070
     1
1002
{
1002
}
1000
PosInDDATTE
1070
     1
1070
    10
1002
{
1002
}
1000
FieldLen
1070
     1
1070
    -1
1002
{
1002
}
1002
}
1000
11
1070
     6
1002
{
1000
Prompt
1070
     4
1000
(genmsg gendwg 41)
1002
{
1002
}
1000
Value
1070
     4
1000

1002
{
1002
}
1000
EditFlag
1070
     1
1070
     1
1002
{
1002
}
1000
PosInDDATTE
1070
     1
1070
    11
1002
{
1002
}
1000
FieldLen
1070
     1
1070
    -1
1002
{
1002
}
1002
}
1000
12
1070
     6
1002
{
1000
Prompt
1070
     4
1000
(genmsg gendwg 42)
1002
{
1002
}
1000
Value
1070
     4
1000

1002
{
1002
}
1000
EditFlag
1070
     1
1070
     1
1002
{
1002
}
1000
PosInDDATTE
1070
     1
1070
    12
1002
{
1002
}
1000
FieldLen
1070
     1
1070
    -1
1002
{
1002
}
1002
}
1000
13
1070
     6
1002
{
1000
Prompt
1070
     4
1000
(genmsg gendwg 43)
1002
{
1002
}
1000
Value
1070
     4
1000

1002
{
1002
}
1000
EditFlag
1070
     1
1070
     1
1002
{
1002
}
1000
PosInDDATTE
1070
     1
1070
    13
1002
{
1002
}
1000
FieldLen
1070
     1
1070
    -1
1002
{
1002
}
1002
}
1000
14
1070
     6
1002
{
1000
Prompt
1070
     4
1000
(genmsg gendwg 44)
1002
{
1002
}
1000
Value
1070
     4
1000

1002
{
1002
}
1000
EditFlag
1070
     1
1070
     1
1002
{
1002
}
1000
PosInDDATTE
1070
     1
1070
    14
1002
{
1002
}
1000
FieldLen
1070
     1
1070
    -1
1002
{
1002
}
1002
}
1000
15
1070
     6
1002
{
1000
Prompt
1070
     4
1000
(genmsg gendwg 45)
1002
{
1002
}
1000
Value
1070
     4
1000

1002
{
1002
}
1000
EditFlag
1070
     1
1070
     1
1002
{
1002
}
1000
PosInDDATTE
1070
     1
1070
    15
1002
{
1002
}
1000
FieldLen
1070
     1
1070
    -1
1002
{
1002
}
1002
}
1000
16
1070
     6
1002
{
1000
Prompt
1070
     4
1000
(genmsg gendwg 46)
1002
{
1002
}
1000
Value
1070
     4
1000

1002
{
1002
}
1000
EditFlag
1070
     1
1070
     1
1002
{
1002
}
1000
PosInDDATTE
1070
     1
1070
    16
1002
{
1002
}
1000
FieldLen
1070
     1
1070
    -1
1002
{
1002
}
1002
}
1000
17
1070
     6
1002
{
1000
Prompt
1070
     4
1000
(genmsg gendwg 47)
1002
{
1002
}
1000
Value
1070
     4
1000

1002
{
1002
}
1000
EditFlag
1070
     1
1070
     1
1002
{
1002
}
1000
PosInDDATTE
1070
     1
1070
    17
1002
{
1002
}
1000
FieldLen
1070
     1
1070
    -1
1002
{
1002
}
1002
}
1000
18
1070
     6
1002
{
1000
Prompt
1070
     4
1000
(genmsg gendwg 48)
1002
{
1002
}
1000
Value
1070
     4
1000

1002
{
1002
}
1000
EditFlag
1070
     1
1070
     1
1002
{
1002
}
1000
PosInDDATTE
1070
     1
1070
    18
1002
{
1002
}
1000
FieldLen
1070
     1
1070
    -1
1002
{
1002
}
1002
}
1000
19
1070
     6
1002
{
1000
Prompt
1070
     4
1000
(genmsg gendwg 99)
1002
{
1002
}
1000
Value
1070
     4
1000

1002
{
1002
}
1000
EditFlag
1070
     1
1070
     1
1002
{
1002
}
1000
PosInDDATTE
1070
     1
1070
    19
1002
{
1002
}
1000
FieldLen
1070
     1
1070
    -1
1002
{
1002
}
1002
}
1000
20
1070
     6
1002
{
1000
Prompt
1070
     4
1000
(genmsg gendwg 100)
1002
{
1002
}
1000
Value
1070
     4
1000

1002
{
1002
}
1000
EditFlag
1070
     1
1070
     1
1002
{
1002
}
1000
PosInDDATTE
1070
     1
1070
    20
1002
{
1002
}
1000
FieldLen
1070
     1
1070
    -1
1002
{
1002
}
1002
}
1000
21
1070
     6
1002
{
1000
Prompt
1070
     4
1000
(genmsg gendwg 101)
1002
{
1002
}
1000
Value
1070
     4
1000

1002
{
1002
}
1000
EditFlag
1070
     1
1070
     1
1002
{
1002
}
1000
PosInDDATTE
1070
     1
1070
    21
1002
{
1002
}
1000
FieldLen
1070
     1
1070
    -1
1002
{
1002
}
1002
}
1000
22
1070
     6
1002
{
1000
Prompt
1070
     4
1000
(genmsg gendwg 102)
1002
{
1002
}
1000
Value
1070
     4
1000

1002
{
1002
}
1000
EditFlag
1070
     1
1070
     1
1002
{
1002
}
1000
PosInDDATTE
1070
     1
1070
    22
1002
{
1002
}
1000
FieldLen
1070
     1
1070
    -1
1002
{
1002
}
1002
}
1000
23
1070
     6
1002
{
1000
Prompt
1070
     4
1000
(genmsg gendwg 30)
1002
{
1002
}
1000
Value
1070
     4
1000

1002
{
1002
}
1000
EditFlag
1070
     1
1070
     1
1002
{
1002
}
1000
PosInDDATTE
1070
     1
1070
    23
1002
{
1002
}
1000
FieldLen
1070
     1
1070
    -1
1002
{
1002
}
1002
}
1000
24
1070
     6
1002
{
1000
Prompt
1070
     4
1000
(genmsg gendwg 104)
1002
{
1002
}
1000
Value
1070
     4
1000

1002
{
1002
}
1000
EditFlag
1070
     1
1070
     1
1002
{
1002
}
1000
PosInDDATTE
1070
     1
1070
    24
1002
{
1002
}
1000
FieldLen
1070
     1
1070
    -1
1002
{
1002
}
1002
}
1000
25
1070
     6
1002
{
1000
Prompt
1070
     4
1000
(genmsg gendwg 105)
1002
{
1002
}
1000
Value
1070
     4
1000

1002
{
1002
}
1000
EditFlag
1070
     1
1070
     1
1002
{
1002
}
1000
PosInDDATTE
1070
     1
1070
    25
1002
{
1002
}
1000
FieldLen
1070
     1
1070
    -1
1002
{
1002
}
1002
}
1000
26
1070
     6
1002
{
1000
Prompt
1070
     4
1000
(genmsg gendwg 106)
1002
{
1002
}
1000
Value
1070
     4
1000

1002
{
1002
}
1000
EditFlag
1070
     1
1070
     1
1002
{
1002
}
1000
PosInDDATTE
1070
     1
1070
    26
1002
{
1002
}
1000
FieldLen
1070
     1
1070
    -1
1002
{
1002
}
1002
}
1000
27
1070
     6
1002
{
1000
Prompt
1070
     4
1000
(genmsg gendwg 109)
1002
{
1002
}
1000
Value
1070
     4
1000

1002
{
1002
}
1000
EditFlag
1070
     1
1070
     2
1002
{
1002
}
1000
PosInDDATTE
1070
     1
1070
    27
1002
{
1002
}
1000
FieldLen
1070
     1
1070
    -1
1002
{
1002
}
1002
}
1000
28
1070
     6
1002
{
1000
Prompt
1070
     4
1000
(genmsg gendwg 110)
1002
{
1002
}
1000
Value
1070
     4
1000

1002
{
1002
}
1000
EditFlag
1070
     1
1070
     1
1002
{
1002
}
1000
PosInDDATTE
1070
     1
1070
    28
1002
{
1002
}
1000
FieldLen
1070
     1
1070
    -1
1002
{
1002
}
1002
}
1002
}
1000
Xlate
1070
     0
1002
{
1000
>
1002
}
  0
APPID
  5
164D
330
9
100
AcDbSymbolTableRecord
100
AcDbRegAppTableRecord
  2
GENIUS_GENCFG2_13
 70
     0
1001
GENIUS_GENCFG_13
1071
938725396
1000
164D
1000
GEN@LAYER@DEFS
1070
     9
1000
GenCfgObject
1000
GenCfgShort
1000
GenCfgReal
1000
GenCfgBool
1000
GenCfgString
1000
GenCfgDim
1000
GenCfgAttrInf
1000
GenCfgLaySection
1000
GenCfgLayer
1000
Basic
1070
     0
1002
{
1000
0
1070
     8
1000
0
1002
{
1000
Color
1070
     1
1070
     7
1002
{
1002
}
1000
LType
1070
     4
1000
CONTINUOUS
1002
{
1002
}
1000
Base
1070
     3
1070
     0
1002
{
1002
}
1002
}
1000
1
1070
     8
1000
1
1002
{
1000
Color
1070
     1
1070
    14
1002
{
1002
}
1000
LType
1070
     4
1000
CONTINUOUS
1002
{
1002
}
1000
Base
1070
     3
1070
     0
1002
{
1002
}
1002
}
1000
2
1070
     8
1000
2
1002
{
1000
Color
1070
     1
1070
     5
1002
{
1002
}
1000
LType
1070
     4
1000
CONTINUOUS
1002
{
1002
}
1000
Base
1070
     3
1070
     0
1002
{
1002
}
1002
}
1000
3
1070
     8
1000
3
1002
{
1000
Color
1070
     1
1070
     6
1002
{
1002
}
1000
LType
1070
     4
1000
GEN3
1002
{
1002
}
1000
Base
1070
     3
1070
     0
1002
{
1002
}
1002
}
1000
4
1070
     8
1000
4
1002
{
1000
Color
1070
     1
1070
     3
1002
{
1002
}
1000
LType
1070
     4
1000
CONTINUOUS
1002
{
1002
}
1000
Base
1070
     3
1070
     0
1002
{
1002
}
1002
}
1000
5
1070
     8
1000
5
1002
{
1000
Color
1070
     1
1070
     3
1002
{
1002
}
1000
LType
1070
     4
1000
CONTINUOUS
1002
{
1002
}
1000
Base
1070
     3
1070
     0
1002
{
1002
}
1002
}
1000
6
1070
     8
1000
6
1002
{
1000
Color
1070
     1
1070
     2
1002
{
1002
}
1000
LType
1070
     4
1000
CONTINUOUS
1002
{
1002
}
1000
Base
1070
     3
1070
     0
1002
{
1002
}
1002
}
1000
7
1070
     8
1000
7
1002
{
1000
Color
1070
     1
1070
     4
1002
{
1002
}
1000
LType
1070
     4
1000
GEN7
1002
{
1002
}
1000
Base
1070
     3
1070
     0
1002
{
1002
}
1002
}
1000
8
1070
     8
1000
8
1002
{
1000
Color
1070
     1
1070
     1
1002
{
1002
}
1000
LType
1070
     4
1000
CONTINUOUS
1002
{
1002
}
1000
Base
1070
     3
1070
     0
1002
{
1002
}
1002
}
1000
3A
1070
     8
1000
3A
1002
{
1000
Color
1070
     1
1070
     6
1002
{
1002
}
1000
LType
1070
     4
1000
GEN3A
1002
{
1002
}
1000
Base
1070
     3
1070
     0
1002
{
1002
}
1002
}
1000
7A
1070
     8
1000
7A
1002
{
1000
Color
1070
     1
1070
     4
1002
{
1002
}
1000
LType
1070
     4
1000
GEN7A
1002
{
1002
}
1000
Base
1070
     3
1070
     0
1002
{
1002
}
1002
}
1000
2A
1070
     8
1000
2A
1002
{
1000
Color
1070
     1
1070
     7
1002
{
1002
}
1000
LType
1070
     4
1000
GEN7
1002
{
1002
}
1000
Base
1070
     3
1070
     0
1002
{
1002
}
1002
}
1000
4A
1070
     8
1000
4A
1002
{
1000
Color
1070
     1
1070
     3
1002
{
1002
}
1000
LType
1070
     4
1000
GEN4A
1002
{
1002
}
1000
Base
1070
     3
1070
     0
1002
{
1002
}
1002
}
1000
9
1070
     8
1000
9
1002
{
1000
Color
1070
     1
1070
   253
1002
{
1002
}
1000
LType
1070
     4
1000
CONTINUOUS
1002
{
1002
}
1000
Base
1070
     3
1070
     0
1002
{
1002
}
1002
}
1000
IP
1070
     8
1000
IP
1002
{
1000
Color
1070
     1
1070
     7
1002
{
1002
}
1000
LType
1070
     4
1000
CONTINUOUS
1002
{
1002
}
1000
Base
1070
     3
1070
     0
1002
{
1002
}
1002
}
1002
}
1000
Standard
1070
     0
1002
{
1000
0N
1070
     8
1000
0N
1002
{
1000
Color
1070
     1
1070
     7
1002
{
1002
}
1000
LType
1070
     4
1000
CONTINUOUS
1002
{
1002
}
1000
Base
1070
     3
1070
     0
1002
{
1002
}
1002
}
1000
1N
1070
     8
1000
1N
1002
{
1000
Color
1070
     1
1070
    14
1002
{
1002
}
1000
LType
1070
     4
1000
CONTINUOUS
1002
{
1002
}
1000
Base
1070
     3
1070
     0
1002
{
1002
}
1002
}
1000
2N
1070
     8
1000
2N
1002
{
1000
Color
1070
     1
1070
     5
1002
{
1002
}
1000
LType
1070
     4
1000
CONTINUOUS
1002
{
1002
}
1000
Base
1070
     3
1070
     0
1002
{
1002
}
1002
}
1000
3N
1070
     8
1000
3N
1002
{
1000
Color
1070
     1
1070
     6
1002
{
1002
}
1000
LType
1070
     4
1000
GEN3
1002
{
1002
}
1000
Base
1070
     3
1070
     0
1002
{
1002
}
1002
}
1000
4N
1070
     8
1000
4N
1002
{
1000
Color
1070
     1
1070
     3
1002
{
1002
}
1000
LType
1070
     4
1000
CONTINUOUS
1002
{
1002
}
1000
Base
1070
     3
1070
     0
1002
{
1002
}
1002
}
1000
5N
1070
     8
1000
5N
1002
{
1000
Color
1070
     1
1070
     3
1002
{
1002
}
1000
LType
1070
     4
1000
CONTINUOUS
1002
{
1002
}
1000
Base
1070
     3
1070
     0
1002
{
1002
}
1002
}
1000
6N
1070
     8
1000
6N
1002
{
1000
Color
1070
     1
1070
     2
1002
{
1002
}
1000
LType
1070
     4
1000
CONTINUOUS
1002
{
1002
}
1000
Base
1070
     3
1070
     0
1002
{
1002
}
1002
}
1000
7N
1070
     8
1000
7N
1002
{
1000
Color
1070
     1
1070
     4
1002
{
1002
}
1000
LType
1070
     4
1000
GEN7
1002
{
1002
}
1000
Base
1070
     3
1070
     0
1002
{
1002
}
1002
}
1000
8N
1070
     8
1000
8N
1002
{
1000
Color
1070
     1
1070
     1
1002
{
1002
}
1000
LType
1070
     4
1000
CONTINUOUS
1002
{
1002
}
1000
Base
1070
     3
1070
     0
1002
{
1002
}
1002
}
1000
3AN
1070
     8
1000
3AN
1002
{
1000
Color
1070
     1
1070
     6
1002
{
1002
}
1000
LType
1070
     4
1000
GEN3A
1002
{
1002
}
1000
Base
1070
     3
1070
     0
1002
{
1002
}
1002
}
1000
7AN
1070
     8
1000
7AN
1002
{
1000
Color
1070
     1
1070
     4
1002
{
1002
}
1000
LType
1070
     4
1000
GEN7A
1002
{
1002
}
1000
Base
1070
     3
1070
     0
1002
{
1002
}
1002
}
1000
2AN
1070
     8
1000
2AN
1002
{
1000
Color
1070
     1
1070
     7
1002
{
1002
}
1000
LType
1070
     4
1000
GEN7
1002
{
1002
}
1000
Base
1070
     3
1070
     0
1002
{
1002
}
1002
}
1000
4AN
1070
     8
1000
4AN
1002
{
1000
Color
1070
     1
1070
     3
1002
{
1002
}
1000
LType
1070
     4
1000
GEN4A
1002
{
1002
}
1000
Base
1070
     3
1070
     0
1002
{
1002
}
1002
}
1000
9N
1070
     8
1000
9N
1002
{
1000
Color
1070
     1
1070
   253
1002
{
1002
}
1000
LType
1070
     4
1000
CONTINUOUS
1002
{
1002
}
1000
Base
1070
     3
1070
     0
1002
{
1002
}
1002
}
1000
IPN
1070
     8
1000
IPN
1002
{
1000
Color
1070
     1
1070
     7
1002
{
1002
}
1000
LType
1070
     4
1000
CONTINUOUS
1002
{
1002
}
1000
Base
1070
     3
1070
     0
1002
{
1002
}
1002
}
1002
}
1000
Extra
1070
     0
1002
{
1000
Klin
1070
     8
1000
KLIN
1002
{
1000
Color
1070
     1
1070
     1
1002
{
1002
}
1000
LType
1070
     4
1000
CONTINUOUS
1002
{
1002
}
1000
Base
1070
     3
1070
     1
1002
{
1002
}
1002
}
1000
Info
1070
     8
1000
INFO
1002
{
1000
Color
1070
     1
1070
     4
1002
{
1002
}
1000
LType
1070
     4
1000
CONTINUOUS
1002
{
1002
}
1000
Base
1070
     3
1070
     1
1002
{
1002
}
1002
}
1000
Rahm2
1070
     8
1000
RAHM2
1002
{
1000
Color
1070
     1
1070
     1
1002
{
1002
}
1000
LType
1070
     4
1000
CONTINUOUS
1002
{
1002
}
1000
Base
1070
     3
1070
     1
1002
{
1002
}
1002
}
1000
Rahm3
1070
     8
1000
RAHM3
1002
{
1000
Color
1070
     1
1070
     2
1002
{
1002
}
1000
LType
1070
     4
1000
CONTINUOUS
1002
{
1002
}
1000
Base
1070
     3
1070
     1
1002
{
1002
}
1002
}
1000
Rahm5
1070
     8
1000
RAHM5
1002
{
1000
Color
1070
     1
1070
     7
1002
{
1002
}
1000
LType
1070
     4
1000
CONTINUOUS
1002
{
1002
}
1000
Base
1070
     3
1070
     1
1002
{
1002
}
1002
}
1000
View
1070
     8
1000
VIEW
1002
{
1000
Color
1070
     1
1070
     1
1002
{
1002
}
1000
LType
1070
     4
1000
CONTINUOUS
1002
{
1002
}
1000
Base
1070
     3
1070
     1
1002
{
1002
}
1002
}
1000
Behind
1070
     8
1000
BEHIND
1002
{
1000
Color
1070
     1
1070
   253
1002
{
1002
}
1000
LType
1070
     4
1000
CONTINUOUS
1002
{
1002
}
1000
Base
1070
     3
1070
     1
1002
{
1002
}
1002
}
1002
}
  0
APPID
  5
164E
330
9
100
AcDbSymbolTableRecord
100
AcDbRegAppTableRecord
  2
GENIUS_GENCFG3_13
 70
     0
1001
GENIUS_GENCFG_13
1071
938725396
1000
164E
1000
GEN@LAYER@ENTSORT
1070
    10
1000
GenCfgObject
1000
GenCfgShort
1000
GenCfgReal
1000
GenCfgBool
1000
GenCfgString
1000
GenCfgDim
1000
GenCfgAttrInf
1000
GenCfgLaySection
1000
GenCfgLayer
1000
GenCfgEntSort
1000
ADDL
1070
     9
1000
5
1002
{
1000
Class
1070
     4
1000
SYM
1002
{
1002
}
1000
Color
1070
     1
1070
     1
1002
{
1002
}
1000
LType
1070
     4
1000
BYLAYER
1002
{
1002
}
1002
}
1000
ALTR
1070
     9
1000
4
1002
{
1000
Class
1070
     4
1000

1002
{
1002
}
1000
Color
1070
     1
1070
     7
1002
{
1002
}
1000
LType
1070
     4
1000
GEN3A
1002
{
1002
}
1002
}
1000
BELI
1070
     9
1000
4
1002
{
1000
Class
1070
     4
1000

1002
{
1002
}
1000
Color
1070
     1
1070
   256
1002
{
1002
}
1000
LType
1070
     4
1000
BYLAYER
1002
{
1002
}
1002
}
1000
BHNV
1070
     9
1000
9
1002
{
1000
Class
1070
     4
1000
INV
1002
{
1002
}
1000
Color
1070
     1
1070
   256
1002
{
1002
}
1000
LType
1070
     4
1000
BYLAYER
1002
{
1002
}
1002
}
1000
BHNVS
1070
     9
1000
BEHIND
1002
{
1000
Class
1070
     4
1000
INV
1002
{
1002
}
1000
Color
1070
     1
1070
   256
1002
{
1002
}
1000
LType
1070
     4
1000
BYLAYER
1002
{
1002
}
1002
}
1000
BLID
1070
     9
1000
4A
1002
{
1000
Class
1070
     4
1000

1002
{
1002
}
1000
Color
1070
     1
1070
   256
1002
{
1002
}
1000
LType
1070
     4
1000
BYLAYER
1002
{
1002
}
1002
}
1000
BOAP
1070
     9
1000
4A
1002
{
1000
Class
1070
     4
1000

1002
{
1002
}
1000
Color
1070
     1
1070
   256
1002
{
1002
}
1000
LType
1070
     4
1000
BYLAYER
1002
{
1002
}
1002
}
1000
BOR2
1070
     9
1000
RAHM2
1002
{
1000
Class
1070
     4
1000
SPZ,SYM
1002
{
1002
}
1000
Color
1070
     1
1070
   256
1002
{
1002
}
1000
LType
1070
     4
1000
BYLAYER
1002
{
1002
}
1002
}
1000
BOR3
1070
     9
1000
RAHM3
1002
{
1000
Class
1070
     4
1000
SPZ,SYM
1002
{
1002
}
1000
Color
1070
     1
1070
   256
1002
{
1002
}
1000
LType
1070
     4
1000
BYLAYER
1002
{
1002
}
1002
}
1000
BOR5
1070
     9
1000
RAHM5
1002
{
1000
Class
1070
     4
1000
SPZ,SYM
1002
{
1002
}
1000
Color
1070
     1
1070
   256
1002
{
1002
}
1000
LType
1070
     4
1000
BYLAYER
1002
{
1002
}
1002
}
1000
BOR7
1070
     9
1000
RAHM5
1002
{
1000
Class
1070
     4
1000
SPZ,SYM
1002
{
1002
}
1000
Color
1070
     1
1070
     7
1002
{
1002
}
1000
LType
1070
     4
1000
CONTINUOUS
1002
{
1002
}
1002
}
1000
BPAP
1070
     9
1000
4A
1002
{
1000
Class
1070
     4
1000

1002
{
1002
}
1000
Color
1070
     1
1070
   256
1002
{
1002
}
1000
LType
1070
     4
1000
BYLAYER
1002
{
1002
}
1002
}
1000
BPEX
1070
     9
1000
4A
1002
{
1000
Class
1070
     4
1000

1002
{
1002
}
1000
Color
1070
     1
1070
   256
1002
{
1002
}
1000
LType
1070
     4
1000
BYLAYER
1002
{
1002
}
1002
}
1000
BTDI
1070
     9
1000
5
1002
{
1000
Class
1070
     4
1000
DIM,SYM
1002
{
1002
}
1000
Color
1070
     1
1070
   256
1002
{
1002
}
1000
LType
1070
     4
1000
BYLAYER
1002
{
1002
}
1002
}
1000
CAL2
1070
     9
1000
4
1002
{
1000
Class
1070
     4
1000
SYM
1002
{
1002
}
1000
Color
1070
     1
1070
   256
1002
{
1002
}
1000
LType
1070
     4
1000
BYLAYER
1002
{
1002
}
1002
}
1000
CAL3
1070
     9
1000
4
1002
{
1000
Class
1070
     4
1000
SYM
1002
{
1002
}
1000
Color
1070
     1
1070
     2
1002
{
1002
}
1000
LType
1070
     4
1000
BYLAYER
1002
{
1002
}
1002
}
1000
CAL5
1070
     9
1000
4
1002
{
1000
Class
1070
     4
1000
SYM
1002
{
1002
}
1000
Color
1070
     1
1070
     7
1002
{
1002
}
1000
LType
1070
     4
1000
BYLAYER
1002
{
1002
}
1002
}
1000
CAL7
1070
     9
1000
4
1002
{
1000
Class
1070
     4
1000
SYM
1002
{
1002
}
1000
Color
1070
     1
1070
     5
1002
{
1002
}
1000
LType
1070
     4
1000
BYLAYER
1002
{
1002
}
1002
}
1000
CENN
1070
     9
1000
7A
1002
{
1000
Class
1070
     4
1000
CEN
1002
{
1002
}
1000
Color
1070
     1
1070
   256
1002
{
1002
}
1000
LType
1070
     4
1000
BYLAYER
1002
{
1002
}
1002
}
1000
CENW
1070
     9
1000
7
1002
{
1000
Class
1070
     4
1000
CEN
1002
{
1002
}
1000
Color
1070
     1
1070
   256
1002
{
1002
}
1000
LType
1070
     4
1000
BYLAYER
1002
{
1002
}
1002
}
1000
CLIN
1070
     9
1000
KLIN
1002
{
1000
Class
1070
     4
1000
SPZ
1002
{
1002
}
1000
Color
1070
     1
1070
   256
1002
{
1002
}
1000
LType
1070
     4
1000
BYLAYER
1002
{
1002
}
1002
}
1000
CON1
1070
     9
1000
0
1002
{
1000
Class
1070
     4
1000
CON,BGD
1002
{
1002
}
1000
Color
1070
     1
1070
   256
1002
{
1002
}
1000
LType
1070
     4
1000
BYLAYER
1002
{
1002
}
1002
}
1000
CON2
1070
     9
1000
1
1002
{
1000
Class
1070
     4
1000
CON,BGD
1002
{
1002
}
1000
Color
1070
     1
1070
   256
1002
{
1002
}
1000
LType
1070
     4
1000
BYLAYER
1002
{
1002
}
1002
}
1000
CON3
1070
     9
1000
2
1002
{
1000
Class
1070
     4
1000
CON,BGD
1002
{
1002
}
1000
Color
1070
     1
1070
   256
1002
{
1002
}
1000
LType
1070
     4
1000
BYLAYER
1002
{
1002
}
1002
}
1000
CON4
1070
     9
1000
2
1002
{
1000
Class
1070
     4
1000
CON,BGD
1002
{
1002
}
1000
Color
1070
     1
1070
   256
1002
{
1002
}
1000
LType
1070
     4
1000
BYLAYER
1002
{
1002
}
1002
}
1000
DERP
1070
     9
1000
4
1002
{
1000
Class
1070
     4
1000

1002
{
1002
}
1000
Color
1070
     1
1070
   256
1002
{
1002
}
1000
LType
1070
     4
1000
BYLAYER
1002
{
1002
}
1002
}
1000
DETA
1070
     9
1000
4
1002
{
1000
Class
1070
     4
1000

1002
{
1002
}
1000
Color
1070
     1
1070
   256
1002
{
1002
}
1000
LType
1070
     4
1000
BYLAYER
1002
{
1002
}
1002
}
1000
DIAG
1070
     9
1000
5
1002
{
1000
Class
1070
     4
1000
SYM
1002
{
1002
}
1000
Color
1070
     1
1070
   256
1002
{
1002
}
1000
LType
1070
     4
1000
BYLAYER
1002
{
1002
}
1002
}
1000
DILI
1070
     9
1000
5
1002
{
1000
Class
1070
     4
1000
DIM,SYM
1002
{
1002
}
1000
Color
1070
     1
1070
   256
1002
{
1002
}
1000
LType
1070
     4
1000
BYLAYER
1002
{
1002
}
1002
}
1000
DITO2
1070
     9
1000
5
1002
{
1000
Class
1070
     4
1000
DIM,SYM
1002
{
1002
}
1000
Color
1070
     1
1070
     3
1002
{
1002
}
1000
LType
1070
     4
1000
BYLAYER
1002
{
1002
}
1002
}
1000
DITO3
1070
     9
1000
5
1002
{
1000
Class
1070
     4
1000
DIM,SYM
1002
{
1002
}
1000
Color
1070
     1
1070
     2
1002
{
1002
}
1000
LType
1070
     4
1000
BYLAYER
1002
{
1002
}
1002
}
1000
DITX
1070
     9
1000
5
1002
{
1000
Class
1070
     4
1000
DIM,SYM
1002
{
1002
}
1000
Color
1070
     1
1070
   256
1002
{
1002
}
1000
LType
1070
     4
1000
CONTINUOUS
1002
{
1002
}
1002
}
1000
DIXL
1070
     9
1000
5
1002
{
1000
Class
1070
     4
1000
DIM,SYM
1002
{
1002
}
1000
Color
1070
     1
1070
   256
1002
{
1002
}
1000
LType
1070
     4
1000
BYLAYER
1002
{
1002
}
1002
}
1000
EXMP
1070
     9
1000
4A
1002
{
1000
Class
1070
     4
1000

1002
{
1002
}
1000
Color
1070
     1
1070
   256
1002
{
1002
}
1000
LType
1070
     4
1000
BYLAYER
1002
{
1002
}
1002
}
1000
FEMN
1070
     9
1000
8
1002
{
1000
Class
1070
     4
1000

1002
{
1002
}
1000
Color
1070
     1
1070
   256
1002
{
1002
}
1000
LType
1070
     4
1000
BYLAYER
1002
{
1002
}
1002
}
1000
FEMPN
1070
     9
1000
8
1002
{
1000
Class
1070
     4
1000
SYM
1002
{
1002
}
1000
Color
1070
     1
1070
     3
1002
{
1002
}
1000
LType
1070
     4
1000
BYLAYER
1002
{
1002
}
1002
}
1000
FEMSP
1070
     9
1000
4A
1002
{
1000
Class
1070
     4
1000

1002
{
1002
}
1000
Color
1070
     1
1070
   256
1002
{
1002
}
1000
LType
1070
     4
1000
CONTINUOUS
1002
{
1002
}
1002
}
1000
FEMST
1070
     9
1000
4A
1002
{
1000
Class
1070
     4
1000
SYM
1002
{
1002
}
1000
Color
1070
     1
1070
     3
1002
{
1002
}
1000
LType
1070
     4
1000
BYLAYER
1002
{
1002
}
1002
}
1000
FEMVN
1070
     9
1000
2
1002
{
1000
Class
1070
     4
1000
CON
1002
{
1002
}
1000
Color
1070
     1
1070
   256
1002
{
1002
}
1000
LType
1070
     4
1000
BYLAYER
1002
{
1002
}
1002
}
1000
FEMVT
1070
     9
1000
2
1002
{
1000
Class
1070
     4
1000
SYM
1002
{
1002
}
1000
Color
1070
     1
1070
     3
1002
{
1002
}
1000
LType
1070
     4
1000
BYLAYER
1002
{
1002
}
1002
}
1000
FLAT
1070
     9
1000
0
1002
{
1000
Class
1070
     4
1000

1002
{
1002
}
1000
Color
1070
     1
1070
   256
1002
{
1002
}
1000
LType
1070
     4
1000
BYLAYER
1002
{
1002
}
1002
}
1000
FRAR
1070
     9
1000
4A
1002
{
1000
Class
1070
     4
1000

1002
{
1002
}
1000
Color
1070
     1
1070
   256
1002
{
1002
}
1000
LType
1070
     4
1000
BYLAYER
1002
{
1002
}
1002
}
1000
GRLI
1070
     9
1000
5
1002
{
1000
Class
1070
     4
1000
SYM
1002
{
1002
}
1000
Color
1070
     1
1070
   256
1002
{
1002
}
1000
LType
1070
     4
1000
BYLAYER
1002
{
1002
}
1002
}
1000
GVLI
1070
     9
1000
4A
1002
{
1000
Class
1070
     4
1000

1002
{
1002
}
1000
Color
1070
     1
1070
   256
1002
{
1002
}
1000
LType
1070
     4
1000
BYLAYER
1002
{
1002
}
1002
}
1000
HATC
1070
     9
1000
8
1002
{
1000
Class
1070
     4
1000
HTC,BGD
1002
{
1002
}
1000
Color
1070
     1
1070
   256
1002
{
1002
}
1000
LType
1070
     4
1000
BYLAYER
1002
{
1002
}
1002
}
1000
HIDN
1070
     9
1000
3A
1002
{
1000
Class
1070
     4
1000
HID,BGD
1002
{
1002
}
1000
Color
1070
     1
1070
   256
1002
{
1002
}
1000
LType
1070
     4
1000
BYLAYER
1002
{
1002
}
1002
}
1000
HIDW
1070
     9
1000
3
1002
{
1000
Class
1070
     4
1000
HID,BGD
1002
{
1002
}
1000
Color
1070
     1
1070
   256
1002
{
1002
}
1000
LType
1070
     4
1000
BYLAYER
1002
{
1002
}
1002
}
1000
HLIN
1070
     9
1000
4
1002
{
1000
Class
1070
     4
1000
BGD
1002
{
1002
}
1000
Color
1070
     1
1070
   256
1002
{
1002
}
1000
LType
1070
     4
1000
BYLAYER
1002
{
1002
}
1002
}
1000
HOCN
1070
     9
1000
7A
1002
{
1000
Class
1070
     4
1000
CEN
1002
{
1002
}
1000
Color
1070
     1
1070
   256
1002
{
1002
}
1000
LType
1070
     4
1000
BYLAYER
1002
{
1002
}
1002
}
1000
HOCW
1070
     9
1000
7
1002
{
1000
Class
1070
     4
1000
CEN
1002
{
1002
}
1000
Color
1070
     1
1070
   256
1002
{
1002
}
1000
LType
1070
     4
1000
BYLAYER
1002
{
1002
}
1002
}
1000
INFO
1070
     9
1000
INFO
1002
{
1000
Class
1070
     4
1000
SPZ,SYM
1002
{
1002
}
1000
Color
1070
     1
1070
   256
1002
{
1002
}
1000
LType
1070
     4
1000
BYLAYER
1002
{
1002
}
1002
}
1000
LADI
1070
     9
1000
4
1002
{
1000
Class
1070
     4
1000
BGD
1002
{
1002
}
1000
Color
1070
     1
1070
   256
1002
{
1002
}
1000
LType
1070
     4
1000
BYLAYER
1002
{
1002
}
1002
}
1000
LEAD
1070
     9
1000
5
1002
{
1000
Class
1070
     4
1000
SYM
1002
{
1002
}
1000
Color
1070
     1
1070
   256
1002
{
1002
}
1000
LType
1070
     4
1000
BYLAYER
1002
{
1002
}
1002
}
1000
N_ADDL
1070
     9
1000
5N
1002
{
1000
Class
1070
     4
1000
SYM
1002
{
1002
}
1000
Color
1070
     1
1070
     1
1002
{
1002
}
1000
LType
1070
     4
1000
BYLAYER
1002
{
1002
}
1002
}
1000
N_BHNV
1070
     9
1000
9N
1002
{
1000
Class
1070
     4
1000
INV
1002
{
1002
}
1000
Color
1070
     1
1070
   256
1002
{
1002
}
1000
LType
1070
     4
1000
BYLAYER
1002
{
1002
}
1002
}
1000
N_CON1
1070
     9
1000
0N
1002
{
1000
Class
1070
     4
1000
CON,BGD
1002
{
1002
}
1000
Color
1070
     1
1070
   256
1002
{
1002
}
1000
LType
1070
     4
1000
BYLAYER
1002
{
1002
}
1002
}
1000
N_CON2
1070
     9
1000
1N
1002
{
1000
Class
1070
     4
1000
CON,BGD
1002
{
1002
}
1000
Color
1070
     1
1070
   256
1002
{
1002
}
1000
LType
1070
     4
1000
BYLAYER
1002
{
1002
}
1002
}
1000
N_CON3
1070
     9
1000
2N
1002
{
1000
Class
1070
     4
1000
CON,BGD
1002
{
1002
}
1000
Color
1070
     1
1070
   256
1002
{
1002
}
1000
LType
1070
     4
1000
BYLAYER
1002
{
1002
}
1002
}
1000
N_CON4
1070
     9
1000
2N
1002
{
1000
Class
1070
     4
1000
CON,BGD
1002
{
1002
}
1000
Color
1070
     1
1070
   256
1002
{
1002
}
1000
LType
1070
     4
1000
BYLAYER
1002
{
1002
}
1002
}
1000
N_CENN
1070
     9
1000
7AN
1002
{
1000
Class
1070
     4
1000
CEN
1002
{
1002
}
1000
Color
1070
     1
1070
   256
1002
{
1002
}
1000
LType
1070
     4
1000
BYLAYER
1002
{
1002
}
1002
}
1000
N_CENW
1070
     9
1000
7N
1002
{
1000
Class
1070
     4
1000
CEN
1002
{
1002
}
1000
Color
1070
     1
1070
   256
1002
{
1002
}
1000
LType
1070
     4
1000
BYLAYER
1002
{
1002
}
1002
}
1000
N_DILI
1070
     9
1000
5N
1002
{
1000
Class
1070
     4
1000
DIM,SYM
1002
{
1002
}
1000
Color
1070
     1
1070
   256
1002
{
1002
}
1000
LType
1070
     4
1000
BYLAYER
1002
{
1002
}
1002
}
1000
N_DITX
1070
     9
1000
5N
1002
{
1000
Class
1070
     4
1000
DIM,SYM
1002
{
1002
}
1000
Color
1070
     1
1070
     2
1002
{
1002
}
1000
LType
1070
     4
1000
CONTINUOUS
1002
{
1002
}
1002
}
1000
N_DIXL
1070
     9
1000
5N
1002
{
1000
Class
1070
     4
1000
DIM,SYM
1002
{
1002
}
1000
Color
1070
     1
1070
   256
1002
{
1002
}
1000
LType
1070
     4
1000
BYLAYER
1002
{
1002
}
1002
}
1000
N_HATC
1070
     9
1000
8N
1002
{
1000
Class
1070
     4
1000
HTC,BGD
1002
{
1002
}
1000
Color
1070
     1
1070
   256
1002
{
1002
}
1000
LType
1070
     4
1000
BYLAYER
1002
{
1002
}
1002
}
1000
N_HIDN
1070
     9
1000
3AN
1002
{
1000
Class
1070
     4
1000
HID,BGD
1002
{
1002
}
1000
Color
1070
     1
1070
   256
1002
{
1002
}
1000
LType
1070
     4
1000
BYLAYER
1002
{
1002
}
1002
}
1000
N_HIDW
1070
     9
1000
3N
1002
{
1000
Class
1070
     4
1000
HID,BGD
1002
{
1002
}
1000
Color
1070
     1
1070
   256
1002
{
1002
}
1000
LType
1070
     4
1000
BYLAYER
1002
{
1002
}
1002
}
1000
N_NGIP
1070
     9
1000
IPN
1002
{
1000
Class
1070
     4
1000

1002
{
1002
}
1000
Color
1070
     1
1070
   256
1002
{
1002
}
1000
LType
1070
     4
1000
BYLAYER
1002
{
1002
}
1002
}
1000
N_PHAN
1070
     9
1000
4AN
1002
{
1000
Class
1070
     4
1000

1002
{
1002
}
1000
Color
1070
     1
1070
   256
1002
{
1002
}
1000
LType
1070
     4
1000
BYLAYER
1002
{
1002
}
1002
}
1000
N_POSL
1070
     9
1000
5N
1002
{
1000
Class
1070
     4
1000
SYM
1002
{
1002
}
1000
Color
1070
     1
1070
   256
1002
{
1002
}
1000
LType
1070
     4
1000
BYLAYER
1002
{
1002
}
1002
}
1000
N_TCON
1070
     9
1000
0N
1002
{
1000
Class
1070
     4
1000
CON,BGD
1002
{
1002
}
1000
Color
1070
     1
1070
   256
1002
{
1002
}
1000
LType
1070
     4
1000
BYLAYER
1002
{
1002
}
1002
}
1000
N_THLI
1070
     9
1000
4N
1002
{
1000
Class
1070
     4
1000
BGD
1002
{
1002
}
1000
Color
1070
     1
1070
   256
1002
{
1002
}
1000
LType
1070
     4
1000
BYLAYER
1002
{
1002
}
1002
}
1000
N_TLEN
1070
     9
1000
0N
1002
{
1000
Class
1070
     4
1000
CON,BGD
1002
{
1002
}
1000
Color
1070
     1
1070
   256
1002
{
1002
}
1000
LType
1070
     4
1000
BYLAYER
1002
{
1002
}
1002
}
1000
N_TXT3
1070
     9
1000
6N
1002
{
1000
Class
1070
     4
1000
SYM
1002
{
1002
}
1000
Color
1070
     1
1070
   256
1002
{
1002
}
1000
LType
1070
     4
1000
BYLAYER
1002
{
1002
}
1002
}
1000
N_VPLI
1070
     9
1000
2AN
1002
{
1000
Class
1070
     4
1000

1002
{
1002
}
1000
Color
1070
     1
1070
   256
1002
{
1002
}
1000
LType
1070
     4
1000
BYLAYER
1002
{
1002
}
1002
}
1000
NGIP
1070
     9
1000
IP
1002
{
1000
Class
1070
     4
1000

1002
{
1002
}
1000
Color
1070
     1
1070
   256
1002
{
1002
}
1000
LType
1070
     4
1000
BYLAYER
1002
{
1002
}
1002
}
1000
PAL2
1070
     9
1000
RAHM2
1002
{
1000
Class
1070
     4
1000
SPZ,SYM
1002
{
1002
}
1000
Color
1070
     1
1070
   256
1002
{
1002
}
1000
LType
1070
     4
1000
BYLAYER
1002
{
1002
}
1002
}
1000
PAL3
1070
     9
1000
RAHM3
1002
{
1000
Class
1070
     4
1000
SPZ,SYM
1002
{
1002
}
1000
Color
1070
     1
1070
   256
1002
{
1002
}
1000
LType
1070
     4
1000
BYLAYER
1002
{
1002
}
1002
}
1000
PAL5
1070
     9
1000
RAHM5
1002
{
1000
Class
1070
     4
1000
SPZ,SYM
1002
{
1002
}
1000
Color
1070
     1
1070
   256
1002
{
1002
}
1000
LType
1070
     4
1000
BYLAYER
1002
{
1002
}
1002
}
1000
PAL7
1070
     9
1000
RAHM5
1002
{
1000
Class
1070
     4
1000
SPZ,SYM
1002
{
1002
}
1000
Color
1070
     1
1070
     7
1002
{
1002
}
1000
LType
1070
     4
1000
CONTINUOUS
1002
{
1002
}
1002
}
1000
PHAN
1070
     9
1000
4A
1002
{
1000
Class
1070
     4
1000

1002
{
1002
}
1000
Color
1070
     1
1070
   256
1002
{
1002
}
1000
LType
1070
     4
1000
BYLAYER
1002
{
1002
}
1002
}
1000
POSL
1070
     9
1000
5
1002
{
1000
Class
1070
     4
1000
SYM
1002
{
1002
}
1000
Color
1070
     1
1070
   256
1002
{
1002
}
1000
LType
1070
     4
1000
BYLAYER
1002
{
1002
}
1002
}
1000
POSN
1070
     9
1000
6
1002
{
1000
Class
1070
     4
1000
SYM
1002
{
1002
}
1000
Color
1070
     1
1070
     7
1002
{
1002
}
1000
LType
1070
     4
1000
BYLAYER
1002
{
1002
}
1002
}
1000
POSREF
1070
     9
1000
6
1002
{
1000
Class
1070
     4
1000
SYM
1002
{
1002
}
1000
Color
1070
     1
1070
     5
1002
{
1002
}
1000
LType
1070
     4
1000
BYLAYER
1002
{
1002
}
1002
}
1000
POSX
1070
     9
1000
5
1002
{
1000
Class
1070
     4
1000
SYM
1002
{
1002
}
1000
Color
1070
     1
1070
     2
1002
{
1002
}
1000
LType
1070
     4
1000
CONTINUOUS
1002
{
1002
}
1002
}
1000
PSEC
1070
     9
1000
4A
1002
{
1000
Class
1070
     4
1000

1002
{
1002
}
1000
Color
1070
     1
1070
   256
1002
{
1002
}
1000
LType
1070
     4
1000
BYLAYER
1002
{
1002
}
1002
}
1000
RCGN
1070
     9
1000
7A
1002
{
1000
Class
1070
     4
1000
CEN
1002
{
1002
}
1000
Color
1070
     1
1070
   256
1002
{
1002
}
1000
LType
1070
     4
1000
BYLAYER
1002
{
1002
}
1002
}
1000
RCGW
1070
     9
1000
7
1002
{
1000
Class
1070
     4
1000
CEN
1002
{
1002
}
1000
Color
1070
     1
1070
   256
1002
{
1002
}
1000
LType
1070
     4
1000
BYLAYER
1002
{
1002
}
1002
}
1000
RFDI
1070
     9
1000
4
1002
{
1000
Class
1070
     4
1000
BGD
1002
{
1002
}
1000
Color
1070
     1
1070
   256
1002
{
1002
}
1000
LType
1070
     4
1000
BYLAYER
1002
{
1002
}
1002
}
1000
RQTR
1070
     9
1000
4
1002
{
1000
Class
1070
     4
1000

1002
{
1002
}
1000
Color
1070
     1
1070
     7
1002
{
1002
}
1000
LType
1070
     4
1000
GEN7A
1002
{
1002
}
1002
}
1000
RSBO
1070
     9
1000
4
1002
{
1000
Class
1070
     4
1000
BGD
1002
{
1002
}
1000
Color
1070
     1
1070
   256
1002
{
1002
}
1000
LType
1070
     4
1000
BYLAYER
1002
{
1002
}
1002
}
1000
SBRK
1070
     9
1000
4
1002
{
1000
Class
1070
     4
1000
BGD
1002
{
1002
}
1000
Color
1070
     1
1070
   256
1002
{
1002
}
1000
LType
1070
     4
1000
BYLAYER
1002
{
1002
}
1002
}
1000
SCEN
1070
     9
1000
7
1002
{
1000
Class
1070
     4
1000

1002
{
1002
}
1000
Color
1070
     1
1070
   256
1002
{
1002
}
1000
LType
1070
     4
1000
CONTINUOUS
1002
{
1002
}
1002
}
1000
SECT
1070
     9
1000
4
1002
{
1000
Class
1070
     4
1000
BGD
1002
{
1002
}
1000
Color
1070
     1
1070
   256
1002
{
1002
}
1000
LType
1070
     4
1000
BYLAYER
1002
{
1002
}
1002
}
1000
SELN
1070
     9
1000
7A
1002
{
1000
Class
1070
     4
1000

1002
{
1002
}
1000
Color
1070
     1
1070
   256
1002
{
1002
}
1000
LType
1070
     4
1000
BYLAYER
1002
{
1002
}
1002
}
1000
SELW
1070
     9
1000
7
1002
{
1000
Class
1070
     4
1000

1002
{
1002
}
1000
Color
1070
     1
1070
   256
1002
{
1002
}
1000
LType
1070
     4
1000
BYLAYER
1002
{
1002
}
1002
}
1000
SSYS
1070
     9
1000
0
1002
{
1000
Class
1070
     4
1000

1002
{
1002
}
1000
Color
1070
     1
1070
   256
1002
{
1002
}
1000
LType
1070
     4
1000
BYLAYER
1002
{
1002
}
1002
}
1000
STLI
1070
     9
1000
4
1002
{
1000
Class
1070
     4
1000

1002
{
1002
}
1000
Color
1070
     1
1070
     7
1002
{
1002
}
1000
LType
1070
     4
1000
GEN3A
1002
{
1002
}
1002
}
1000
SYB1
1070
     9
1000
5
1002
{
1000
Class
1070
     4
1000
SYM
1002
{
1002
}
1000
Color
1070
     1
1070
   256
1002
{
1002
}
1000
LType
1070
     4
1000
BYLAYER
1002
{
1002
}
1002
}
1000
SYB2
1070
     9
1000
5
1002
{
1000
Class
1070
     4
1000
SYM
1002
{
1002
}
1000
Color
1070
     1
1070
   256
1002
{
1002
}
1000
LType
1070
     4
1000
BYLAYER
1002
{
1002
}
1002
}
1000
SYB3
1070
     9
1000
6
1002
{
1000
Class
1070
     4
1000
SYM
1002
{
1002
}
1000
Color
1070
     1
1070
   256
1002
{
1002
}
1000
LType
1070
     4
1000
CONTINUOUS
1002
{
1002
}
1002
}
1000
SYB5
1070
     9
1000
5
1002
{
1000
Class
1070
     4
1000
SYM
1002
{
1002
}
1000
Color
1070
     1
1070
     7
1002
{
1002
}
1000
LType
1070
     4
1000
BYLAYER
1002
{
1002
}
1002
}
1000
SYMN
1070
     9
1000
7A
1002
{
1000
Class
1070
     4
1000
CEN
1002
{
1002
}
1000
Color
1070
     1
1070
   256
1002
{
1002
}
1000
LType
1070
     4
1000
BYLAYER
1002
{
1002
}
1002
}
1000
SYMW
1070
     9
1000
7
1002
{
1000
Class
1070
     4
1000
CEN
1002
{
1002
}
1000
Color
1070
     1
1070
   256
1002
{
1002
}
1000
LType
1070
     4
1000
BYLAYER
1002
{
1002
}
1002
}
1000
TCON
1070
     9
1000
0
1002
{
1000
Class
1070
     4
1000
CON,BGD
1002
{
1002
}
1000
Color
1070
     1
1070
   256
1002
{
1002
}
1000
LType
1070
     4
1000
BYLAYER
1002
{
1002
}
1002
}
1000
THLI
1070
     9
1000
4
1002
{
1000
Class
1070
     4
1000
BGD
1002
{
1002
}
1000
Color
1070
     1
1070
   256
1002
{
1002
}
1000
LType
1070
     4
1000
BYLAYER
1002
{
1002
}
1002
}
1000
TIT2
1070
     9
1000
RAHM2
1002
{
1000
Class
1070
     4
1000
SPZ,SYM
1002
{
1002
}
1000
Color
1070
     1
1070
   256
1002
{
1002
}
1000
LType
1070
     4
1000
BYLAYER
1002
{
1002
}
1002
}
1000
TIT3
1070
     9
1000
RAHM3
1002
{
1000
Class
1070
     4
1000
SPZ,SYM
1002
{
1002
}
1000
Color
1070
     1
1070
   256
1002
{
1002
}
1000
LType
1070
     4
1000
BYLAYER
1002
{
1002
}
1002
}
1000
TIT5
1070
     9
1000
RAHM5
1002
{
1000
Class
1070
     4
1000
SPZ,SYM
1002
{
1002
}
1000
Color
1070
     1
1070
   256
1002
{
1002
}
1000
LType
1070
     4
1000
BYLAYER
1002
{
1002
}
1002
}
1000
TIT7
1070
     9
1000
RAHM5
1002
{
1000
Class
1070
     4
1000
SPZ,SYM
1002
{
1002
}
1000
Color
1070
     1
1070
     7
1002
{
1002
}
1000
LType
1070
     4
1000
CONTINUOUS
1002
{
1002
}
1002
}
1000
TLEN
1070
     9
1000
0
1002
{
1000
Class
1070
     4
1000
CON,BGD
1002
{
1002
}
1000
Color
1070
     1
1070
   256
1002
{
1002
}
1000
LType
1070
     4
1000
BYLAYER
1002
{
1002
}
1002
}
1000
TRKN
1070
     9
1000
7A
1002
{
1000
Class
1070
     4
1000

1002
{
1002
}
1000
Color
1070
     1
1070
   256
1002
{
1002
}
1000
LType
1070
     4
1000
BYLAYER
1002
{
1002
}
1002
}
1000
TRKW
1070
     9
1000
7
1002
{
1000
Class
1070
     4
1000

1002
{
1002
}
1000
Color
1070
     1
1070
   256
1002
{
1002
}
1000
LType
1070
     4
1000
BYLAYER
1002
{
1002
}
1002
}
1000
TRLI
1070
     9
1000
4
1002
{
1000
Class
1070
     4
1000
BGD
1002
{
1002
}
1000
Color
1070
     1
1070
   256
1002
{
1002
}
1000
LType
1070
     4
1000
BYLAYER
1002
{
1002
}
1002
}
1000
TXT1
1070
     9
1000
6
1002
{
1000
Class
1070
     4
1000
SYM
1002
{
1002
}
1000
Color
1070
     1
1070
     2
1002
{
1002
}
1000
LType
1070
     4
1000
BYLAYER
1002
{
1002
}
1002
}
1000
TXT2
1070
     9
1000
6
1002
{
1000
Class
1070
     4
1000
SYM
1002
{
1002
}
1000
Color
1070
     1
1070
     2
1002
{
1002
}
1000
LType
1070
     4
1000
BYLAYER
1002
{
1002
}
1002
}
1000
TXT3
1070
     9
1000
6
1002
{
1000
Class
1070
     4
1000
SYM
1002
{
1002
}
1000
Color
1070
     1
1070
   256
1002
{
1002
}
1000
LType
1070
     4
1000
BYLAYER
1002
{
1002
}
1002
}
1000
TXT5
1070
     9
1000
6
1002
{
1000
Class
1070
     4
1000
SYM
1002
{
1002
}
1000
Color
1070
     1
1070
     7
1002
{
1002
}
1000
LType
1070
     4
1000
BYLAYER
1002
{
1002
}
1002
}
1000
TXT7
1070
     9
1000
6
1002
{
1000
Class
1070
     4
1000
SYM
1002
{
1002
}
1000
Color
1070
     1
1070
     7
1002
{
1002
}
1000
LType
1070
     4
1000
BYLAYER
1002
{
1002
}
1002
}
1000
VIEW
1070
     9
1000
VIEW
1002
{
1000
Class
1070
     4
1000
SPZ
1002
{
1002
}
1000
Color
1070
     1
1070
   256
1002
{
1002
}
1000
LType
1070
     4
1000
BYLAYER
1002
{
1002
}
1002
}
1000
VPLI
1070
     9
1000
2A
1002
{
1000
Class
1070
     4
1000

1002
{
1002
}
1000
Color
1070
     1
1070
   256
1002
{
1002
}
1000
LType
1070
     4
1000
BYLAYER
1002
{
1002
}
1002
}
1000
ZIZA
1070
     9
1000
4
1002
{
1000
Class
1070
     4
1000
BGD
1002
{
1002
}
1000
Color
1070
     1
1070
   256
1002
{
1002
}
1000
LType
1070
     4
1000
GENZIGZAG
1002
{
1002
}
1002
}
  0
APPID
  5
164F
330
9
100
AcDbSymbolTableRecord
100
AcDbRegAppTableRecord
  2
GENIUS_GENCFG4_13
 70
     0
1001
GENIUS_GENCFG_13
1071
938725495
1000
164F
1000
GEN
1070
     9
1000
GenCfgObject
1000
GenCfgShort
1000
GenCfgReal
1000
GenCfgBool
1000
GenCfgString
1000
GenCfgDim
1000
GenCfgLaySection
1000
GenCfgLType
1000
GenCfgFilter
1000
Balloon
1070
     0
1002
{
1000
GenIF
1070
     1
1070
     0
1002
{
1002
}
1000
GenPosInc
1070
     1
1070
     1
1002
{
1002
}
1000
GenPosBlk
1070
     1
1070
     3
1002
{
1002
}
1000
GenPosVar
1070
     1
1070
     3
1002
{
1002
}
1000
GenZiCir
1070
     2
1040
1.5
1002
{
1002
}
1000
MaxCharForCenteredText
1070
     1
1070
    30
1002
{
1002
}
1000
Snap
1070
     0
1002
{
1000
ActivationRadius
1070
     2
1040
1.0
1002
{
1002
}
1000
M
1070
     0
1002
{
1000
SnapStepX
1070
     2
1040
15.0
1002
{
1002
}
1000
SnapStepY
1070
     2
1040
15.0
1002
{
1002
}
1002
}
1000
I
1070
     0
1002
{
1000
SnapStepX
1070
     2
1040
1.0
1002
{
1002
}
1000
SnapStepY
1070
     2
1040
0.5
1002
{
1002
}
1002
}
1002
}
1002
}
1000
Centerline
1070
     0
1002
{
1000
ScaleNot
1070
     3
1070
     0
1002
{
1002
}
1000
M
1070
     0
1002
{
1000
GenCenAng
1070
     4
1000
45|90|135
1002
{
1002
}
1000
GenCenDia
1070
     2
1040
10.0
1002
{
1002
}
1000
GenCenDias
1070
     4
1000
10|20|30
1002
{
1002
}
1000
GenCenDist
1070
     2
1040
3.0
1002
{
1002
}
1000
GenCenLen
1070
     2
1040
10.0
1002
{
1002
}
1000
GenCenOff
1070
     2
1040
10.0
1002
{
1002
}
1000
GENCENOFF1
1070
     2
1040
10.0
1002
{
1002
}
1000
GENCENOFF2
1070
     2
1040
10.0
1002
{
1002
}
1002
}
1000
I
1070
     0
1002
{
1000
GenCenAng
1070
     4
1000
45|90|135
1002
{
1002
}
1000
GenCenDia
1070
     2
1040
0.5
1002
{
1002
}
1000
GenCenDias
1070
     4
1000
0.5|1.0|1.5
1002
{
1002
}
1000
GenCenDist
1070
     2
1040
0.125
1002
{
1002
}
1000
GenCenLen
1070
     2
1040
0.5
1002
{
1002
}
1000
GenCenOff
1070
     2
1040
0.5
1002
{
1002
}
1002
}
1002
}
1000
CLine
1070
     0
1002
{
1000
CAngArray
1070
     4
1000
30|45|60
1002
{
1002
}
1000
Typ
1070
     4
1000
XLINE
1002
{
1002
}
1000
M
1070
     0
1002
{
1000
CLinArray
1070
     4
1000
50
1002
{
1002
}
1002
}
1000
I
1070
     0
1002
{
1000
CLinArray
1070
     4
1000
0.125|0.25|0.5
1002
{
1002
}
1002
}
1002
}
1000
Detail
1070
     0
1002
{
1002
}
1000
Dimension
1070
     5
1002
{
1000
DIMALT
1070
     1
1070
     0
1002
{
1002
}
1000
DIMALTD
1070
     1
1070
     2
1002
{
1002
}
1000
DIMALTTD
1070
     1
1070
     4
1002
{
1002
}
1000
DIMALTTZ
1070
     1
1070
     0
1002
{
1002
}
1000
DIMALTU
1070
     1
1070
     2
1002
{
1002
}
1000
DIMALTZ
1070
     1
1070
     0
1002
{
1002
}
1000
DIMAUNIT
1070
     1
1070
     0
1002
{
1002
}
1000
DIMBLK
1070
     4
1000

1002
{
1002
}
1000
DIMBLK1
1070
     4
1000
_OPEN
1002
{
1002
}
1000
DIMBLK2
1070
     4
1000
_OPEN
1002
{
1002
}
1000
DIMCLRD
1070
     1
1070
   256
1002
{
1002
}
1000
DIMCLRE
1070
     1
1070
   256
1002
{
1002
}
1000
DIMCLRT
1070
     1
1070
   256
1002
{
1002
}
1000
DIMDLE
1070
     2
1040
0.0
1002
{
1002
}
1000
DIMFIT
1070
     1
1070
     3
1002
{
1002
}
1000
DIMJUST
1070
     1
1070
     0
1002
{
1002
}
1000
DIMLFAC
1070
     2
1040
1.0
1002
{
1002
}
1000
DIMLIM
1070
     1
1070
     0
1002
{
1002
}
1000
DIMPOST
1070
     4
1000
<>
1002
{
1002
}
1000
DIMRND
1070
     2
1040
0.0
1002
{
1002
}
1000
DIMSAH
1070
     1
1070
     1
1002
{
1002
}
1000
DIMSCALE
1070
     2
1040
10.0
1002
{
1002
}
1000
DIMSD1
1070
     1
1070
     0
1002
{
1002
}
1000
DIMSD2
1070
     1
1070
     0
1002
{
1002
}
1000
DIMSE1
1070
     1
1070
     0
1002
{
1002
}
1000
DIMSE2
1070
     1
1070
     0
1002
{
1002
}
1000
DIMSOXD
1070
     1
1070
     0
1002
{
1002
}
1000
DIMTAD
1070
     1
1070
     0
1002
{
1002
}
1000
DIMTFAC
1070
     2
1040
0.71
1002
{
1002
}
1000
DIMTIH
1070
     1
1070
     0
1002
{
1002
}
1000
DIMTIX
1070
     1
1070
     0
1002
{
1002
}
1000
DIMTM
1070
     2
1040
0.1
1002
{
1002
}
1000
DIMTOFL
1070
     1
1070
     0
1002
{
1002
}
1000
DIMTOH
1070
     1
1070
     0
1002
{
1002
}
1000
DIMTOL
1070
     1
1070
     0
1002
{
1002
}
1000
DIMTOLJ
1070
     1
1070
     1
1002
{
1002
}
1000
DIMTP
1070
     2
1040
0.1
1002
{
1002
}
1000
DIMTSZ
1070
     2
1040
0.0
1002
{
1002
}
1000
DIMTVP
1070
     2
1040
0.0
1002
{
1002
}
1000
DIMTXSTY
1070
     4
1000
STANDARD
1002
{
1002
}
1000
DIMTZIN
1070
     1
1070
     8
1002
{
1002
}
1000
DIMUNIT
1070
     1
1070
     2
1002
{
1002
}
1000
DIMUPT
1070
     1
1070
     0
1002
{
1002
}
1000
M
1070
     0
1002
{
1000
DIMALTF
1070
     2
1040
0.0393701
1002
{
1002
}
1000
DIMAPOST
1070
     4
1000
"
1002
{
1002
}
1000
DIMASZ
1070
     2
1040
3.0
1002
{
1002
}
1000
DIMCEN
1070
     2
1040
0.0
1002
{
1002
}
1000
DIMDEC
1070
     1
1070
     2
1002
{
1002
}
1000
DIMDLI
1070
     2
1040
10.0
1002
{
1002
}
1000
DIMEXE
1070
     2
1040
1.0
1002
{
1002
}
1000
DIMEXO
1070
     2
1040
1.0
1002
{
1002
}
1000
DIMGAP
1070
     2
1040
1.5
1002
{
1002
}
1000
DIMTDEC
1070
     1
1070
     3
1002
{
1002
}
1000
DIMTXT
1070
     2
1040
3.5
1002
{
1002
}
1000
DIMZIN
1070
     1
1070
     8
1002
{
1002
}
1002
}
1000
I
1070
     0
1002
{
1000
DIMALTF
1070
     2
1040
25.4
1002
{
1002
}
1000
DIMAPOST
1070
     4
1000
mm
1002
{
1002
}
1000
DIMASZ
1070
     2
1040
0.1
1002
{
1002
}
1000
DIMCEN
1070
     2
1040
0.0
1002
{
1002
}
1000
DIMDEC
1070
     1
1070
     4
1002
{
1002
}
1000
DIMDLI
1070
     2
1040
0.5
1002
{
1002
}
1000
DIMEXE
1070
     2
1040
0.1
1002
{
1002
}
1000
DIMEXO
1070
     2
1040
0.05
1002
{
1002
}
1000
DIMGAP
1070
     2
1040
0.06
1002
{
1002
}
1000
DIMTDEC
1070
     1
1070
     4
1002
{
1002
}
1000
DIMTXT
1070
     2
1040
0.12
1002
{
1002
}
1000
DIMZIN
1070
     1
1070
     7
1002
{
1002
}
1002
}
1000
GEN-ISO
1070
     5
1002
{
1000
NAME
1070
     4
1000
GEN-ISO
1002
{
1002
}
1000
DIMTAD
1070
     1
1070
     1
1002
{
1002
}
1000
DIMTOLJ
1070
     1
1070
     0
1002
{
1002
}
1000
DIMTOFL
1070
     1
1070
     1
1002
{
1002
}
1000
M
1070
     0
1002
{
1002
}
1000
I
1070
     0
1002
{
1002
}
1002
}
1000
GEN-ISO-POS
1070
     5
1002
{
1000
NAME
1070
     4
1000
GEN-ISO-POS
1002
{
1002
}
1000
DIMTOLJ
1070
     1
1070
     0
1002
{
1002
}
1000
DIMTXSTY
1070
     4
1000
STANDARD
1002
{
1002
}
1000
M
1070
     0
1002
{
1000
DIMASZ
1070
     2
1040
2.5
1002
{
1002
}
1000
DIMTXT
1070
     2
1040
5.0
1002
{
1002
}
1000
DIMGAP
1070
     2
1040
1.5
1002
{
1002
}
1002
}
1000
I
1070
     0
1002
{
1000
DIMASZ
1070
     2
1040
0.1
1002
{
1002
}
1000
DIMGAP
1070
     2
1040
0.06
1002
{
1002
}
1000
DIMTXT
1070
     2
1040
0.2
1002
{
1002
}
1002
}
1002
}
1000
GEN-ISO-CIR
1070
     5
1002
{
1000
NAME
1070
     4
1000
GEN-ISO$3
1002
{
1002
}
1000
DIMFIT
1070
     1
1070
     0
1002
{
1002
}
1000
DIMTAD
1070
     1
1070
     1
1002
{
1002
}
1000
DIMTIH
1070
     1
1070
     0
1002
{
1002
}
1000
DIMTIX
1070
     1
1070
     0
1002
{
1002
}
1000
DIMTOH
1070
     1
1070
     1
1002
{
1002
}
1000
DIMTOLJ
1070
     1
1070
     0
1002
{
1002
}
1000
DIMTOFL
1070
     1
1070
     0
1002
{
1002
}
1000
DIMUPT
1070
     1
1070
     1
1002
{
1002
}
1000
M
1070
     0
1002
{
1002
}
1000
I
1070
     0
1002
{
1002
}
1002
}
1000
GEN-ISO-RAD
1070
     5
1002
{
1000
NAME
1070
     4
1000
GEN-ISO$4
1002
{
1002
}
1000
DIMFIT
1070
     1
1070
     0
1002
{
1002
}
1000
DIMTAD
1070
     1
1070
     1
1002
{
1002
}
1000
DIMTIH
1070
     1
1070
     0
1002
{
1002
}
1000
DIMTIX
1070
     1
1070
     0
1002
{
1002
}
1000
DIMTOH
1070
     1
1070
     1
1002
{
1002
}
1000
DIMTOLJ
1070
     1
1070
     0
1002
{
1002
}
1000
DIMTOFL
1070
     1
1070
     0
1002
{
1002
}
1000
DIMUPT
1070
     1
1070
     1
1002
{
1002
}
1000
M
1070
     0
1002
{
1002
}
1000
I
1070
     0
1002
{
1002
}
1002
}
1000
GEN-ISO-ORD
1070
     5
1002
{
1000
NAME
1070
     4
1000
GEN-ISO$6
1002
{
1002
}
1000
DIMTOLJ
1070
     1
1070
     0
1002
{
1002
}
1000
M
1070
     0
1002
{
1000
DIMASZ
1070
     2
1040
3.0
1002
{
1002
}
1000
DIMGAP
1070
     2
1040
1.0
1002
{
1002
}
1000
DIMTXT
1070
     2
1040
3.0
1002
{
1002
}
1002
}
1000
I
1070
     0
1002
{
1002
}
1002
}
1000
GEN-ISO-AXE-F
1070
     5
1002
{
1000
NAME
1070
     4
1000
GEN-ISO-AXE-F
1002
{
1002
}
1000
DIMSE1
1070
     1
1070
     1
1002
{
1002
}
1000
DIMSE2
1070
     1
1070
     1
1002
{
1002
}
1000
DIMTAD
1070
     1
1070
     1
1002
{
1002
}
1000
DIMTOLJ
1070
     1
1070
     0
1002
{
1002
}
1000
DIMTOFL
1070
     1
1070
     1
1002
{
1002
}
1000
M
1070
     0
1002
{
1002
}
1000
I
1070
     0
1002
{
1002
}
1002
}
1000
GEN-ISO-AXE-H
1070
     5
1002
{
1000
NAME
1070
     4
1000
GEN-ISO-AXE-H
1002
{
1002
}
1000
DIMBLK1
1070
     4
1000
GENAXEH
1002
{
1002
}
1000
DIMLFAC
1070
     2
1040
2.0
1002
{
1002
}
1000
DIMSAH
1070
     1
1070
     1
1002
{
1002
}
1000
DIMSE1
1070
     1
1070
     1
1002
{
1002
}
1000
DIMSE2
1070
     1
1070
     1
1002
{
1002
}
1000
DIMTAD
1070
     1
1070
     1
1002
{
1002
}
1000
DIMTOLJ
1070
     1
1070
     0
1002
{
1002
}
1000
DIMTOFL
1070
     1
1070
     1
1002
{
1002
}
1000
M
1070
     0
1002
{
1002
}
1000
I
1070
     0
1002
{
1002
}
1002
}
1000
GEN-ANSI
1070
     5
1002
{
1000
NAME
1070
     4
1000
GEN-ANSI
1002
{
1002
}
1000
DIMTIH
1070
     1
1070
     1
1002
{
1002
}
1000
DIMTOH
1070
     1
1070
     1
1002
{
1002
}
1000
DIMTAD
1070
     1
1070
     0
1002
{
1002
}
1000
DIMTOLJ
1070
     1
1070
     1
1002
{
1002
}
1000
M
1070
     0
1002
{
1002
}
1000
I
1070
     0
1002
{
1002
}
1002
}
1000
GEN-ANSI-POS
1070
     5
1002
{
1000
NAME
1070
     4
1000
GEN-ANSI-POS
1002
{
1002
}
1000
DIMTOLJ
1070
     1
1070
     1
1002
{
1002
}
1000
DIMTXSTY
1070
     4
1000
STANDARD
1002
{
1002
}
1000
M
1070
     0
1002
{
1000
DIMASZ
1070
     2
1040
2.5
1002
{
1002
}
1000
DIMGAP
1070
     2
1040
1.5
1002
{
1002
}
1000
DIMTXT
1070
     2
1040
5.0
1002
{
1002
}
1002
}
1000
I
1070
     0
1002
{
1000
DIMASZ
1070
     2
1040
0.1
1002
{
1002
}
1000
DIMGAP
1070
     2
1040
0.06
1002
{
1002
}
1000
DIMTXT
1070
     2
1040
0.2
1002
{
1002
}
1002
}
1002
}
1000
GEN-ANSI-CIR
1070
     5
1002
{
1000
NAME
1070
     4
1000
GEN-ANSI$3
1002
{
1002
}
1000
DIMFIT
1070
     1
1070
     0
1002
{
1002
}
1000
DIMTAD
1070
     1
1070
     0
1002
{
1002
}
1000
DIMTIH
1070
     1
1070
     1
1002
{
1002
}
1000
DIMTIX
1070
     1
1070
     0
1002
{
1002
}
1000
DIMTOFL
1070
     1
1070
     0
1002
{
1002
}
1000
DIMTOH
1070
     1
1070
     1
1002
{
1002
}
1000
DIMTOLJ
1070
     1
1070
     1
1002
{
1002
}
1000
DIMUPT
1070
     1
1070
     1
1002
{
1002
}
1000
M
1070
     0
1002
{
1002
}
1000
I
1070
     0
1002
{
1002
}
1002
}
1000
GEN-ANSI-RAD
1070
     5
1002
{
1000
NAME
1070
     4
1000
GEN-ANSI$4
1002
{
1002
}
1000
DIMFIT
1070
     1
1070
     0
1002
{
1002
}
1000
DIMTAD
1070
     1
1070
     0
1002
{
1002
}
1000
DIMTIH
1070
     1
1070
     1
1002
{
1002
}
1000
DIMTIX
1070
     1
1070
     0
1002
{
1002
}
1000
DIMTOFL
1070
     1
1070
     0
1002
{
1002
}
1000
DIMTOH
1070
     1
1070
     1
1002
{
1002
}
1000
DIMTOLJ
1070
     1
1070
     1
1002
{
1002
}
1000
DIMUPT
1070
     1
1070
     1
1002
{
1002
}
1000
M
1070
     0
1002
{
1002
}
1000
I
1070
     0
1002
{
1002
}
1002
}
1000
GEN-ANSI-ORD
1070
     5
1002
{
1000
NAME
1070
     4
1000
GEN-ANSI$6
1002
{
1002
}
1000
DIMTAD
1070
     1
1070
     0
1002
{
1002
}
1000
DIMTIH
1070
     1
1070
     1
1002
{
1002
}
1000
DIMTOH
1070
     1
1070
     1
1002
{
1002
}
1000
DIMTOLJ
1070
     1
1070
     1
1002
{
1002
}
1000
M
1070
     0
1002
{
1002
}
1000
I
1070
     0
1002
{
1002
}
1002
}
1000
GEN-ANSI-AXE-F
1070
     5
1002
{
1000
NAME
1070
     4
1000
GEN-ANSI-AXE-F
1002
{
1002
}
1000
DIMBLK1
1070
     4
1000
GENAXEH
1002
{
1002
}
1000
DIMSAH
1070
     1
1070
     1
1002
{
1002
}
1000
DIMSE1
1070
     1
1070
     1
1002
{
1002
}
1000
DIMSE2
1070
     1
1070
     1
1002
{
1002
}
1000
DIMTAD
1070
     1
1070
     0
1002
{
1002
}
1000
DIMTIH
1070
     1
1070
     1
1002
{
1002
}
1000
DIMTOH
1070
     1
1070
     1
1002
{
1002
}
1000
DIMTOLJ
1070
     1
1070
     1
1002
{
1002
}
1000
M
1070
     0
1002
{
1002
}
1000
I
1070
     0
1002
{
1002
}
1002
}
1000
GEN-ANSI-AXE-H
1070
     5
1002
{
1000
NAME
1070
     4
1000
GEN-ANSI-AXE-H
1002
{
1002
}
1000
DIMBLK1
1070
     4
1000
GENAXEH
1002
{
1002
}
1000
DIMLFAC
1070
     2
1040
2.0
1002
{
1002
}
1000
DIMSAH
1070
     1
1070
     1
1002
{
1002
}
1000
DIMSE1
1070
     1
1070
     1
1002
{
1002
}
1000
DIMSE2
1070
     1
1070
     1
1002
{
1002
}
1000
DIMTAD
1070
     1
1070
     0
1002
{
1002
}
1000
DIMTOFL
1070
     1
1070
     1
1002
{
1002
}
1000
DIMTOLJ
1070
     1
1070
     1
1002
{
1002
}
1000
M
1070
     0
1002
{
1002
}
1000
I
1070
     0
1002
{
1002
}
1002
}
1002
}
1000
DimSet
1070
     0
1002
{
1000
ChainSum
1070
     3
1070
     0
1002
{
1002
}
1000
DimDclTyp0
1070
     4
1000
dim23
1002
{
1002
}
1000
HorBra
1070
     3
1070
     0
1002
{
1002
}
1000
StrDia
1070
     4
1000
%%c<>
1002
{
1002
}
1000
StrRad
1070
     4
1000
R<>
1002
{
1002
}
1000
TextMinus
1070
     4
1000
<>
1002
{
1002
}
1000
TextPlus
1070
     4
1000
<>
1002
{
1002
}
1000
M
1070
     0
1002
{
1000
DimdliFirst
1070
     2
1040
12.0
1002
{
1002
}
1000
PointMakeDist
1070
     2
1040
10.0
1002
{
1002
}
1002
}
1000
I
1070
     0
1002
{
1000
DimdliFirst
1070
     2
1040
0.5
1002
{
1002
}
1000
PointMakeDist
1070
     2
1040
0.5
1002
{
1002
}
1002
}
1000
ordinate
1070
     4
1000
JIS
1002
{
1002
}
1002
}
1000
Drawing
1070
     0
1002
{
1000
ChamferDimMode
1070
     1
1070
     2
1002
{
1002
}
1000
Gen_Fiso
1070
    -3
1040
1.0
1002
{
1002
}
1000
GenDimStil
1070
     4
1000
ISO
1002
{
1002
}
1000
GenDwgUScale
1070
     2
1040
1.0
1002
{
1002
}
1000
GenInch
1070
     4
1000
M
1002
{
1002
}
1000
GenPlotScale
1070
     4
1000
1:1
1002
{
1002
}
1000
Revisi
1070
     4
1000
0
1002
{
1002
}
1000
Version
1070
    -5
1000
14.01a/Sep 23 1998
1002
{
1002
}
1000
Platform
1070
    -5
1000
WINNT
1002
{
1002
}
1002
}
1000
DwgVar
1070
     0
1002
{
1000
M
1070
     0
1002
{
1002
}
1000
I
1070
     0
1002
{
1002
}
1002
}
1000
Hatch
1070
     0
1002
{
1000
GenHtcFlag
1070
     3
1070
     0
1002
{
1002
}
1002
}
1000
Info_Pos
1070
     0
1002
{
1000
>
1002
}
1000
Layer
1070
     6
1002
{
1000
Defs
1070
     0
1002
{
1000
>
1002
}
1000
EntSort
1070
     0
1002
{
1000
>
1002
}
1000
Match
1070
     0
1002
{
1002
}
1000
Settings
1070
     0
1002
{
1000
FocGrNC
1070
     3
1070
     0
1002
{
1002
}
1000
FocGrLo
1070
     3
1070
     0
1002
{
1002
}
1000
FocLoNC
1070
     3
1070
     0
1002
{
1002
}
1000
FocusCol
1070
     1
1070
   253
1002
{
1002
}
1000
GenStdLG
1070
     4
1000

1002
{
1002
}
1000
LayMatch
1070
     3
1070
     0
1002
{
1002
}
1000
LgOff
1070
     3
1070
     0
1002
{
1002
}
1000
CurLG
1070
    -5
1000

1002
{
1002
}
1002
}
1002
}
1000
LType
1070
     0
1002
{
1000
GEN3
1070
     7
1000
genius.lin
1002
{
1002
}
1000
GEN7
1070
     7
1000
genius.lin
1002
{
1002
}
1000
GEN4A
1070
     7
1000
genius.lin
1002
{
1002
}
1000
GEN3A
1070
     7
1000
genius.lin
1002
{
1002
}
1000
GEN7A
1070
     7
1000
genius.lin
1002
{
1002
}
1000
GENZIGZAG
1070
     7
1000
genius.lin
1002
{
1002
}
1002
}
1000
Objecter
1070
     0
1002
{
1000
CreateGroups
1070
     3
1070
     0
1002
{
1002
}
1000
LaySwitch
1070
     3
1070
     1
1002
{
1002
}
1000
LastObj
1070
    -5
1000
269B
1002
{
1002
}
1000
TimeStamp
1070
    -5
1000
19990930.14031158
1002
{
1002
}
1002
}
1000
OSWiz
1070
     0
1002
{
1000
Filter
1070
     0
1002
{
1000
HATCH
1070
     8
1002
{
1000
EntityType
1070
     4
1000
LINE
1002
{
1002
}
1000
Layer
1070
     4
1000
8,8N,*-8,*-8N
1002
{
1002
}
1000
Linetype
1070
     4
1000
*
1002
{
1002
}
1000
Color
1070
     4
1000
*
1002
{
1002
}
1000
ApplyInDims
1070
     3
1070
     1
1002
{
1002
}
1002
}
1000
SYMBOLS
1070
     8
1002
{
1000
EntityType
1070
     4
1000
*
1002
{
1002
}
1000
Layer
1070
     4
1000
[5-6],[5-6]N,*-[5-6],*-[5-6]N,AM_PARDIM,AM_REFDIM
1002
{
1002
}
1000
Linetype
1070
     4
1000
*
1002
{
1002
}
1000
Color
1070
     4
1000
*
1002
{
1002
}
1000
ApplyInDims
1070
     3
1070
     1
1002
{
1002
}
1002
}
1000
FEM
1070
     8
1002
{
1000
EntityType
1070
     4
1000
*
1002
{
1002
}
1000
Layer
1070
     4
1000
4A,4AN,*-4A,*-4AN
1002
{
1002
}
1000
Linetype
1070
     4
1000
*
1002
{
1002
}
1000
Color
1070
     4
1000
*
1002
{
1002
}
1000
ApplyInDims
1070
     3
1070
     1
1002
{
1002
}
1002
}
1002
}
1002
}
1000
PaList
1070
     0
1002
{
1000
AcadMBomWarning
1070
     3
1070
     1
1002
{
1002
}
1000
AutoUpdatePartList
1070
     1
1070
     0
1002
{
1002
}
1000
ReadInfoPoint
1070
     3
1070
     0
1002
{
1002
}
1000
ReadPosNr
1070
     3
1070
     1
1002
{
1002
}
1000
RevStr
1070
     4
1000
0
1002
{
1002
}
1000
rebuildpending
1070
    -4
1070
     1
1002
{
1002
}
1000
rebuildpendingtime
1070
    -5
1000
929490300
1002
{
1002
}
1002
}
1000
Paper
1070
     0
1002
{
1000
Layer
1070
    -5
1000
7A
1002
{
1002
}
1002
}
1000
PartDB
1070
     0
1002
{
1000
GenDbOwner
1070
     4
1000

1002
{
1002
}
1000
stang
1070
     2
1040
0.01
1002
{
1002
}
1002
}
1000
System
1070
     0
1002
{
1002
}
1000
Title
1070
     0
1002
{
1000
MakeView
1070
     1
1070
     2
1002
{
1002
}
1002
}
1000
Tools
1070
     0
1002
{
1000
Trans
1070
     0
1002
{
1000
Drawingtranslation
1070
    -4
1070
     1
1002
{
1002
}
1000
upreserve
1070
     3
1070
     0
1002
{
1002
}
1000
originally_on
1070
    -4
1070
     0
1002
{
1002
}
1000
sourcelang
1070
    -5
1000
J
1002
{
1002
}
1002
}
1002
}
  0
APPID
  5
1650
330
9
100
AcDbSymbolTableRecord
100
AcDbRegAppTableRecord
  2
GENIUS_GEVCFG0_13
 70
     0
1001
GENIUS_GENCFG_13
1071
938725396
1000
1650
1000
GEV
1070
     1
1000
GenCfgObject
1000
VED
1070
     0
1002
{
1002
}
  0
APPID
  5
1675
330
9
100
AcDbSymbolTableRecord
100
AcDbRegAppTableRecord
  2
GENIUS_GENOBJ-N-CEN_13
 70
     0
  0
APPID
  5
2723
330
9
100
AcDbSymbolTableRecord
100
AcDbRegAppTableRecord
  2
GENIUS_GEFCFG0_13
 70
     0
1001
GENIUS_GENCFG_13
1071
938725396
1000
2723
1000
GEF
1070
     5
1000
GenCfgObject
1000
GenCfgString
1000
GenCfgReal
1000
GenCfgShort
1000
GenCfgBool
1000
System
1070
     0
1002
{
1002
}
1000
Prese
1070
     0
1002
{
1000
Funk
1070
     1
1000

1002
{
1002
}
1000
FunkDef
1070
     1
1000

1002
{
1002
}
1000
GefIso
1070
     1
1000
DIN
1002
{
1002
}
1002
}
1000
FEM
1070
     0
1002
{
1000
LayGroup
1070
     1
1000
FEM
1002
{
1002
}
1000
IncrCoef
1070
     2
1040
0.0
1002
{
1002
}
1002
}
1000
Shaft
1070
     0
1002
{
1000
Interrupt
1070
     3
1070
     0
1002
{
1002
}
1002
}
1000
PartDb
1070
     0
1002
{
1000
PartCreate
1070
     0
1002
{
1002
}
1000
SCP
1070
     0
1002
{
1002
}
1000
Symbol
1070
     0
1002
{
1002
}
1002
}
1000
Symbol
1070
     0
1002
{
1000
WeldStyle
1070
     1
1000
JIS
1002
{
1002
}
1000
WeldSize
1070
     2
1040
1.0
1002
{
1002
}
1000
WeldFlag
1070
     4
1070
     1
1002
{
1002
}
1000
WeldOffset
1070
     4
1070
     1
1002
{
1002
}
1000
TolCType
1070
     1
1000
ISO
1002
{
1002
}
1000
TolCSize
1070
     2
1040
1.0
1002
{
1002
}
1000
STextureSize
1070
     2
1040
1.0
1002
{
1002
}
1000
SurfaceType
1070
     1
1000

1002
{
1002
}
1000
M
1070
     0
1002
{
1000
WeldWidth
1070
     2
1040
3.0
1002
{
1002
}
1002
}
1000
I
1070
     0
1002
{
1000
WeldWidth
1070
     2
1040
0.125
1002
{
1002
}
1002
}
1002
}
1000
FEA
1070
     0
1002
{
1000
LayGroup
1070
     1
1000
FEA
1002
{
1002
}
1002
}
  0
APPID
  5
2735
330
9
100
AcDbSymbolTableRecord
100
AcDbRegAppTableRecord
  2
MCAD_NO_VIS
 70
     0
  0
APPID
  5
2736
330
9
100
AcDbSymbolTableRecord
100
AcDbRegAppTableRecord
  2
ACAD_TEMP_GRAPHIC
 70
     0
  0
APPID
  5
2749
330
9
100
AcDbSymbolTableRecord
100
AcDbRegAppTableRecord
  2
ACATTRIBSERVICES
 70
     0
  0
APPID
  5
2823
330
9
100
AcDbSymbolTableRecord
100
AcDbRegAppTableRecord
  2
GENIUS_GENDIMSH_14
 70
     0
  0
APPID
  5
28C0
330
9
100
AcDbSymbolTableRecord
100
AcDbRegAppTableRecord
  2
GENIUS_GENFIL_13
 70
     0
  0
APPID
  5
28C1
330
9
100
AcDbSymbolTableRecord
100
AcDbRegAppTableRecord
  2
GENIUS_GENOBJ-N-CHA_13
 70
     0
  0
APPID
  5
3909
330
9
100
AcDbSymbolTableRecord
100
AcDbRegAppTableRecord
  2
GENIUS_GENREC_14
 70
     0
  0
APPID
  5
390A
330
9
100
AcDbSymbolTableRecord
100
AcDbRegAppTableRecord
  2
GENIUS_GENOBJ-N-REC_13
 70
     0
  0
APPID
  5
3E80
330
9
100
AcDbSymbolTableRecord
100
AcDbRegAppTableRecord
  2
GENIUS_GENOBJ-N-FIL_13
 70
     0
  0
APPID
  5
47F3
330
9
100
AcDbSymbolTableRecord
100
AcDbRegAppTableRecord
  2
GENIUS_GENOBJ-N-CRS_13
 70
     0
  0
APPID
  5
557E
330
9
100
AcDbSymbolTableRecord
100
AcDbRegAppTableRecord
  2
GENIUS_GENDIM_13
 70
     0
  0
APPID
  5
5580
330
9
100
AcDbSymbolTableRecord
100
AcDbRegAppTableRecord
  2
GENIUS_GE3DTOL_13
 70
     0
  0
APPID
  5
55A5
330
9
100
AcDbSymbolTableRecord
100
AcDbRegAppTableRecord
  2
AD_DRAW
 70
     0
  0
APPID
  5
55F1
330
9
100
AcDbSymbolTableRecord
100
AcDbRegAppTableRecord
  2
ASURF_PCURVE_APPNAME
 70
     0
  0
APPID
  5
55F6
330
9
100
AcDbSymbolTableRecord
100
AcDbRegAppTableRecord
  2
AMG_3D2D_5_0
 70
     0
  0
APPID
  5
5624
330
9
100
AcDbSymbolTableRecord
100
AcDbRegAppTableRecord
  2
DESIGNERASSEMBLIES
 70
     0
  0
APPID
  5
5629
330
9
100
AcDbSymbolTableRecord
100
AcDbRegAppTableRecord
  2
ACADM_DIM_EDIT
 70
     0
  0
APPID
  5
562A
330
9
100
AcDbSymbolTableRecord
100
AcDbRegAppTableRecord
  2
AMDT_DM_ADJ
 70
     0
  0
ENDTAB
  0
TABLE
  2
DIMSTYLE
  5
A
330
0
100
AcDbSymbolTable
 70
    15
  0
DIMSTYLE
105
520
330
A
100
AcDbSymbolTableRecord
100
AcDbDimStyleTableRecord
  2
STANDARD
 70
     0
  3

  4

  5

  6

  7

 40
1.0
 41
0.18
 42
0.0625
 43
0.38
 44
0.18
 45
0.0
 46
0.0
 47
0.0
 48
0.0
140
0.18
141
0.09
142
0.0
143
25.4
144
1.0
145
0.0
146
1.0
147
0.09
 71
     0
 72
     0
 73
     1
 74
     1
 75
     0
 76
     0
 77
     0
 78
     0
170
     0
171
     2
172
     0
173
     0
174
     0
175
     0
176
     0
177
     0
178
     0
270
     2
271
     4
272
     4
273
     2
274
     2
340
F
275
     0
280
     0
281
     0
282
     0
283
     1
284
     0
285
     0
286
     0
287
     3
288
     0
  0
DIMSTYLE
105
1210
330
A
100
AcDbSymbolTableRecord
100
AcDbDimStyleTableRecord
  2
GEN-ISO$4
 70
     0
  3
<>
  4
"
  5
OPEN
  6

  7

 40
5.0
 41
3.0
 42
1.0
 43
10.0
 44
1.0
 45
0.0
 46
0.0
 47
0.1
 48
0.1
140
3.5
141
0.0
142
0.0
143
0.0393701
144
1.0
145
0.0
146
0.71
147
1.5
 71
     0
 72
     0
 73
     0
 74
     1
 75
     0
 76
     0
 77
     1
 78
     8
170
     0
171
     2
172
     0
173
     1
174
     0
175
     0
176
   256
177
   256
178
   256
270
     2
271
     2
272
     3
273
     2
274
     4
340
F
275
     0
280
     0
281
     0
282
     0
283
     0
284
     8
285
     0
286
     0
287
     0
288
     1
  0
DIMSTYLE
105
1211
102
{ACAD_REACTORS
330
6C25
102
}
330
A
100
AcDbSymbolTableRecord
100
AcDbDimStyleTableRecord
  2
GEN-ISO$3
 70
     0
  3
<>
  4
"
  5
OPEN
  6

  7

 40
5.0
 41
3.0
 42
1.0
 43
10.0
 44
1.0
 45
0.0
 46
0.0
 47
0.1
 48
0.1
140
3.5
141
0.0
142
0.0
143
0.0393701
144
1.0
145
0.0
146
0.71
147
1.5
 71
     0
 72
     0
 73
     0
 74
     1
 75
     0
 76
     0
 77
     1
 78
     8
170
     0
171
     2
172
     0
173
     1
174
     0
175
     0
176
   256
177
   256
178
   256
270
     2
271
     2
272
     3
273
     2
274
     4
340
F
275
     0
280
     0
281
     0
282
     0
283
     0
284
     8
285
     0
286
     0
287
     0
288
     1
  0
DIMSTYLE
105
1212
102
{ACAD_REACTORS
330
5DA4
330
5DD0
330
5E23
330
5E30
330
5E16
330
5DDD
330
5E00
330
5DB1
330
6C30
102
}
330
A
100
AcDbSymbolTableRecord
100
AcDbDimStyleTableRecord
  2
GEN-ISO
 70
     0
  3
<>
  4
"
  5
OPEN
  6

  7

 40
5.0
 41
3.0
 42
1.0
 43
10.0
 44
1.0
 45
0.0
 46
0.0
 47
0.1
 48
0.1
140
3.5
141
0.0
142
0.0
143
0.0393701
144
1.0
145
0.0
146
0.71
147
1.5
 71
     0
 72
     0
 73
     0
 74
     0
 75
     0
 76
     0
 77
     1
 78
     8
170
     0
171
     2
172
     1
173
     1
174
     0
175
     0
176
   256
177
   256
178
   256
270
     2
271
     2
272
     3
273
     2
274
     4
340
F
275
     0
280
     0
281
     0
282
     0
283
     0
284
     8
285
     0
286
     0
287
     3
288
     0
  0
DIMSTYLE
105
2780
330
A
100
AcDbSymbolTableRecord
100
AcDbDimStyleTableRecord
  2
GEN-ISO$6
 70
     0
  3
<>
  4
"
  5

  6
OPEN
  7
OPEN
 40
5.0
 41
3.0
 42
1.0
 43
10.0
 44
1.0
 45
0.0
 46
0.0
 47
0.1
 48
0.1
140
3.0
141
0.0
142
0.0
143
0.0393701
144
1.0
145
0.0
146
0.71
147
1.0
 71
     0
 72
     0
 73
     0
 74
     0
 75
     0
 76
     0
 77
     0
 78
     8
170
     0
171
     2
172
     0
173
     1
174
     0
175
     0
176
   256
177
   256
178
   256
270
     2
271
     2
272
     3
273
     2
274
     4
340
F
275
     0
280
     0
281
     0
282
     0
283
     0
284
     8
285
     0
286
     0
287
     3
288
     0
  0
DIMSTYLE
105
2781
330
A
100
AcDbSymbolTableRecord
100
AcDbDimStyleTableRecord
  2
GEN-ISO-POS
 70
     0
  3
<>
  4
"
  5

  6
OPEN
  7
OPEN
 40
5.0
 41
2.5
 42
1.0
 43
10.0
 44
1.0
 45
0.0
 46
0.0
 47
0.1
 48
0.1
140
5.0
141
0.0
142
0.0
143
0.0393701
144
1.0
145
0.0
146
0.71
147
1.5
 71
     0
 72
     0
 73
     0
 74
     0
 75
     0
 76
     0
 77
     0
 78
     8
170
     0
171
     2
172
     0
173
     1
174
     0
175
     0
176
   256
177
   256
178
   256
270
     2
271
     2
272
     3
273
     2
274
     4
340
F
275
     0
280
     0
281
     0
282
     0
283
     0
284
     8
285
     0
286
     0
287
     3
288
     0
  0
DIMSTYLE
105
2782
330
A
100
AcDbSymbolTableRecord
100
AcDbDimStyleTableRecord
  2
GEN-ISO-AXE-F
 70
     0
  3
<>
  4
"
  5

  6
OPEN
  7
OPEN
 40
5.0
 41
3.0
 42
1.0
 43
10.0
 44
1.0
 45
0.0
 46
0.0
 47
0.1
 48
0.1
140
3.5
141
0.0
142
0.0
143
0.0393701
144
1.0
145
0.0
146
0.71
147
1.5
 71
     0
 72
     0
 73
     0
 74
     0
 75
     1
 76
     1
 77
     1
 78
     8
170
     0
171
     2
172
     1
173
     1
174
     0
175
     0
176
   256
177
   256
178
   256
270
     2
271
     2
272
     3
273
     2
274
     4
340
F
275
     0
280
     0
281
     0
282
     0
283
     0
284
     8
285
     0
286
     0
287
     3
288
     0
  0
DIMSTYLE
105
2783
330
A
100
AcDbSymbolTableRecord
100
AcDbDimStyleTableRecord
  2
GEN-ISO-AXE-H
 70
     0
  3
<>
  4
"
  5

  6
GENAXEH
  7
OPEN
 40
5.0
 41
3.0
 42
1.0
 43
10.0
 44
1.0
 45
0.0
 46
0.0
 47
0.1
 48
0.1
140
3.5
141
0.0
142
0.0
143
0.0393701
144
2.0
145
0.0
146
0.71
147
1.5
 71
     0
 72
     0
 73
     0
 74
     0
 75
     1
 76
     1
 77
     1
 78
     8
170
     0
171
     2
172
     1
173
     1
174
     0
175
     0
176
   256
177
   256
178
   256
270
     2
271
     2
272
     3
273
     2
274
     4
340
F
275
     0
280
     0
281
     0
282
     0
283
     0
284
     8
285
     0
286
     0
287
     3
288
     0
  0
DIMSTYLE
105
58EA
330
A
100
AcDbSymbolTableRecord
100
AcDbDimStyleTableRecord
  2
AM_ISO
 70
     0
  3

  4
"
  5

  6

  7

 40
1.0
 41
2.5
 42
1.0
 43
10.0
 44
1.0
 45
0.0
 46
0.0
 47
0.1
 48
0.1
140
3.5
141
0.0
142
0.0
143
0.0393701
144
1.0
145
0.0
146
0.71
147
1.5
 71
     0
 72
     0
 73
     0
 74
     0
 75
     0
 76
     0
 77
     1
 78
     8
170
     0
171
     2
172
     1
173
     0
174
     0
175
     0
176
   256
177
   256
178
     2
270
     2
271
     2
272
     3
273
     2
274
     4
340
F
275
     0
280
     0
281
     0
282
     0
283
     0
284
     8
285
     0
286
     0
287
     3
288
     0
  0
DIMSTYLE
105
58EB
330
A
100
AcDbSymbolTableRecord
100
AcDbDimStyleTableRecord
  2
AM_ISO$3
 70
     0
  3

  4
"
  5

  6

  7

 40
1.0
 41
2.5
 42
1.0
 43
10.0
 44
1.0
 45
0.0
 46
0.0
 47
0.1
 48
0.1
140
3.5
141
0.0
142
0.0
143
0.0393701
144
1.0
145
0.0
146
0.71
147
1.5
 71
     0
 72
     0
 73
     0
 74
     1
 75
     0
 76
     0
 77
     1
 78
     8
170
     0
171
     2
172
     0
173
     0
174
     0
175
     0
176
   256
177
   256
178
     2
270
     2
271
     2
272
     3
273
     2
274
     4
340
F
275
     0
280
     0
281
     0
282
     0
283
     0
284
     8
285
     0
286
     0
287
     0
288
     1
  0
DIMSTYLE
105
58EC
330
A
100
AcDbSymbolTableRecord
100
AcDbDimStyleTableRecord
  2
AM_ISO$4
 70
     0
  3

  4
"
  5

  6

  7

 40
1.0
 41
2.5
 42
1.0
 43
10.0
 44
1.0
 45
0.0
 46
0.0
 47
0.1
 48
0.1
140
3.5
141
0.0
142
0.0
143
0.0393701
144
1.0
145
0.0
146
0.71
147
1.5
 71
     0
 72
     0
 73
     0
 74
     1
 75
     0
 76
     0
 77
     1
 78
     8
170
     0
171
     2
172
     0
173
     0
174
     0
175
     0
176
   256
177
   256
178
     2
270
     2
271
     2
272
     3
273
     2
274
     4
340
F
275
     0
280
     0
281
     0
282
     0
283
     0
284
     8
285
     0
286
     0
287
     0
288
     1
  0
DIMSTYLE
105
58ED
330
A
100
AcDbSymbolTableRecord
100
AcDbDimStyleTableRecord
  2
AM_ISO$6
 70
     0
  3

  4
"
  5

  6

  7

 40
1.0
 41
2.5
 42
1.0
 43
10.0
 44
1.0
 45
0.0
 46
0.0
 47
0.1
 48
0.1
140
3.5
141
0.0
142
0.0
143
0.0393701
144
1.0
145
0.0
146
0.71
147
1.5
 71
     0
 72
     0
 73
     0
 74
     0
 75
     0
 76
     0
 77
     0
 78
     8
170
     0
171
     2
172
     1
173
     0
174
     0
175
     0
176
   256
177
   256
178
     2
270
     2
271
     2
272
     3
273
     2
274
     4
340
F
275
     0
280
     0
281
     0
282
     0
283
     0
284
     8
285
     0
286
     0
287
     3
288
     0
  0
DIMSTYLE
105
58EE
330
A
100
AcDbSymbolTableRecord
100
AcDbDimStyleTableRecord
  2
AM_ISO$7
 70
     0
  3

  4
"
  5

  6

  7

 40
1.0
 41
2.5
 42
1.0
 43
10.0
 44
1.0
 45
0.0
 46
0.0
 47
0.1
 48
0.1
140
5.0
141
0.0
142
0.0
143
0.0393701
144
1.0
145
0.0
146
0.71
147
1.5
 71
     0
 72
     0
 73
     0
 74
     0
 75
     0
 76
     0
 77
     1
 78
     8
170
     0
171
     2
172
     1
173
     0
174
     0
175
     0
176
   256
177
   256
178
     2
270
     2
271
     2
272
     3
273
     2
274
     4
340
F
275
     0
280
     0
281
     0
282
     0
283
     0
284
     8
285
     0
286
     0
287
     3
288
     0
  0
DIMSTYLE
105
58EF
330
A
100
AcDbSymbolTableRecord
100
AcDbDimStyleTableRecord
  2
AM_ISO$SF
 70
     0
  3

  4
"
  5

  6

  7

 40
1.0
 41
2.5
 42
1.0
 43
10.0
 44
1.0
 45
0.0
 46
0.0
 47
0.1
 48
0.1
140
3.5
141
0.0
142
0.0
143
0.0393701
144
1.0
145
0.0
146
0.71
147
1.5
 71
     0
 72
     0
 73
     0
 74
     0
 75
     1
 76
     1
 77
     1
 78
     8
170
     0
171
     2
172
     1
173
     0
174
     0
175
     0
176
   256
177
   256
178
     2
270
     2
271
     2
272
     3
273
     2
274
     4
340
F
275
     0
280
     0
281
     0
282
     0
283
     0
284
     8
285
     0
286
     0
287
     3
288
     0
  0
DIMSTYLE
105
58F0
330
A
100
AcDbSymbolTableRecord
100
AcDbDimStyleTableRecord
  2
AM_ISO$SH
 70
     0
  3

  4
"
  5

  6
GENAXEH
  7

 40
1.0
 41
2.5
 42
1.0
 43
10.0
 44
1.0
 45
0.0
 46
0.0
 47
0.1
 48
0.1
140
3.5
141
0.0
142
0.0
143
0.0393701
144
2.0
145
0.0
146
0.71
147
1.5
 71
     0
 72
     0
 73
     0
 74
     0
 75
     1
 76
     1
 77
     1
 78
     8
170
     0
171
     2
172
     1
173
     1
174
     0
175
     0
176
   256
177
   256
178
     2
270
     2
271
     2
272
     3
273
     2
274
     4
340
F
275
     0
280
     0
281
     0
282
     0
283
     0
284
     8
285
     0
286
     0
287
     3
288
     0
  0
ENDTAB
  0
TABLE
  2
BLOCK_RECORD
  5
1
330
0
100
AcDbSymbolTable
 70
    33
  0
BLOCK_RECORD
  5
18
102
{ACAD_XDICTIONARY
360
2793
102
}
330
1
100
AcDbSymbolTableRecord
100
AcDbBlockTableRecord
  2
*MODEL_SPACE
  0
BLOCK_RECORD
  5
15
102
{ACAD_XDICTIONARY
360
6F13
102
}
330
1
100
AcDbSymbolTableRecord
100
AcDbBlockTableRecord
  2
*PAPER_SPACE
  0
BLOCK_RECORD
  5
A07
330
1
100
AcDbSymbolTableRecord
100
AcDbBlockTableRecord
  2
_OPEN
  0
BLOCK_RECORD
  5
277A
330
1
100
AcDbSymbolTableRecord
100
AcDbBlockTableRecord
  2
GENAXEH
  0
BLOCK_RECORD
  5
561B
330
1
100
AcDbSymbolTableRecord
100
AcDbBlockTableRecord
  2
*U2
  0
BLOCK_RECORD
  5
5829
330
1
100
AcDbSymbolTableRecord
100
AcDbBlockTableRecord
  2
DA_IMAGEDIMGROUP_1
  0
BLOCK_RECORD
  5
5832
330
1
100
AcDbSymbolTableRecord
100
AcDbBlockTableRecord
  2
DA_IMAGEDIMGROUP_2
  0
BLOCK_RECORD
  5
5839
330
1
100
AcDbSymbolTableRecord
100
AcDbBlockTableRecord
  2
DA_IMAGEDIMGROUP_3
  0
BLOCK_RECORD
  5
5840
330
1
100
AcDbSymbolTableRecord
100
AcDbBlockTableRecord
  2
DA_IMAGEDIMGROUP_4
  0
BLOCK_RECORD
  5
584B
330
1
100
AcDbSymbolTableRecord
100
AcDbBlockTableRecord
  2
DA_IMAGEDIMGROUP_5
  0
BLOCK_RECORD
  5
5854
330
1
100
AcDbSymbolTableRecord
100
AcDbBlockTableRecord
  2
DA_IMAGEDIMGROUP_6
  0
BLOCK_RECORD
  5
585D
330
1
100
AcDbSymbolTableRecord
100
AcDbBlockTableRecord
  2
DA_IMAGEDIMGROUP_7
  0
BLOCK_RECORD
  5
5866
330
1
100
AcDbSymbolTableRecord
100
AcDbBlockTableRecord
  2
DA_IMAGEDIMGROUP_8
  0
BLOCK_RECORD
  5
586F
330
1
100
AcDbSymbolTableRecord
100
AcDbBlockTableRecord
  2
DA_IMAGEDIMGROUP_9
  0
BLOCK_RECORD
  5
5878
330
1
100
AcDbSymbolTableRecord
100
AcDbBlockTableRecord
  2
DA_IMAGEDIMGROUP_10
  0
BLOCK_RECORD
  5
5881
330
1
100
AcDbSymbolTableRecord
100
AcDbBlockTableRecord
  2
DA_IMAGEDIMGROUP_11
  0
BLOCK_RECORD
  5
588C
330
1
100
AcDbSymbolTableRecord
100
AcDbBlockTableRecord
  2
DA_IMAGEDIMGROUP_12
  0
BLOCK_RECORD
  5
5897
330
1
100
AcDbSymbolTableRecord
100
AcDbBlockTableRecord
  2
DA_IMAGEDIMGROUP_13
  0
BLOCK_RECORD
  5
58A0
330
1
100
AcDbSymbolTableRecord
100
AcDbBlockTableRecord
  2
DA_IMAGEDIMGROUP_14
  0
BLOCK_RECORD
  5
58A9
330
1
100
AcDbSymbolTableRecord
100
AcDbBlockTableRecord
  2
DA_IMAGEDIMGROUP_15
  0
BLOCK_RECORD
  5
58B2
330
1
100
AcDbSymbolTableRecord
100
AcDbBlockTableRecord
  2
DA_IMAGEDIMGROUP_16
  0
BLOCK_RECORD
  5
58C4
330
1
100
AcDbSymbolTableRecord
100
AcDbBlockTableRecord
  2
DA_IMAGEDIMGROUP_17
  0
BLOCK_RECORD
  5
58CF
330
1
100
AcDbSymbolTableRecord
100
AcDbBlockTableRecord
  2
DA_IMAGEDIMGROUP_18
  0
BLOCK_RECORD
  5
58DA
330
1
100
AcDbSymbolTableRecord
100
AcDbBlockTableRecord
  2
_OPEN30
  0
BLOCK_RECORD
  5
5DA5
330
1
100
AcDbSymbolTableRecord
100
AcDbBlockTableRecord
  2
*D22
  0
BLOCK_RECORD
  5
5DB2
330
1
100
AcDbSymbolTableRecord
100
AcDbBlockTableRecord
  2
*D23
  0
BLOCK_RECORD
  5
5DD1
330
1
100
AcDbSymbolTableRecord
100
AcDbBlockTableRecord
  2
*D24
  0
BLOCK_RECORD
  5
5DDE
330
1
100
AcDbSymbolTableRecord
100
AcDbBlockTableRecord
  2
*D25
  0
BLOCK_RECORD
  5
5E01
330
1
100
AcDbSymbolTableRecord
100
AcDbBlockTableRecord
  2
*D26
  0
BLOCK_RECORD
  5
5E17
330
1
100
AcDbSymbolTableRecord
100
AcDbBlockTableRecord
  2
*D27
  0
BLOCK_RECORD
  5
5E24
330
1
100
AcDbSymbolTableRecord
100
AcDbBlockTableRecord
  2
*D28
  0
BLOCK_RECORD
  5
5E31
330
1
100
AcDbSymbolTableRecord
100
AcDbBlockTableRecord
  2
*D29
  0
BLOCK_RECORD
  5
5F3A
330
1
100
AcDbSymbolTableRecord
100
AcDbBlockTableRecord
  2
GENDOT
  0
BLOCK_RECORD
  5
6C26
330
1
100
AcDbSymbolTableRecord
100
AcDbBlockTableRecord
  2
*D31
  0
BLOCK_RECORD
  5
6C31
330
1
100
AcDbSymbolTableRecord
100
AcDbBlockTableRecord
  2
*D32
  0
ENDTAB
  0
ENDSEC
  0
SECTION
  2
BLOCKS
  0
BLOCK
  5
19
330
18
100
AcDbEntity
  8
0
100
AcDbBlockBegin
  2
*MODEL_SPACE
 70
     0
 10
0.0
 20
0.0
 30
0.0
  3
*MODEL_SPACE
  1

  0
ENDBLK
  5
1A
330
18
100
AcDbEntity
  8
0
100
AcDbBlockEnd
  0
BLOCK
  5
16
330
15
100
AcDbEntity
 67
     1
  8
0
100
AcDbBlockBegin
  2
*PAPER_SPACE
 70
     0
 10
0.0
 20
0.0
 30
0.0
  3
*PAPER_SPACE
  1

  0
ENDBLK
  5
17
330
15
100
AcDbEntity
 67
     1
  8
0
100
AcDbBlockEnd
  0
BLOCK
  5
A08
330
A07
100
AcDbEntity
  8
0
100
AcDbBlockBegin
  2
_OPEN
 70
     0
 10
0.0
 20
0.0
 30
0.0
  3
_OPEN
  1

  0
LINE
  5
A09
330
A07
100
AcDbEntity
  8
0
  6
BYBLOCK
 62
     0
100
AcDbLine
 10
-1.0
 20
0.1666666666666666
 30
0.0
 11
0.0
 21
0.0
 31
0.0
  0
LINE
  5
A0A
330
A07
100
AcDbEntity
  8
0
  6
BYBLOCK
 62
     0
100
AcDbLine
 10
0.0
 20
0.0
 30
0.0
 11
-1.0
 21
-0.1666666666666666
 31
0.0
  0
LINE
  5
A0B
330
A07
100
AcDbEntity
  8
0
  6
BYBLOCK
 62
     0
100
AcDbLine
 10
0.0
 20
0.0
 30
0.0
 11
-1.0
 21
0.0
 31
0.0
  0
ENDBLK
  5
A0C
330
A07
100
AcDbEntity
  8
0
100
AcDbBlockEnd
  0
BLOCK
  5
277C
330
277A
100
AcDbEntity
  8
0
100
AcDbBlockBegin
  2
GENAXEH
 70
     0
 10
0.0
 20
0.0
 30
0.0
  3
GENAXEH
  1

  0
LINE
  5
277B
330
277A
100
AcDbEntity
  8
0
100
AcDbLine
 10
-1.0
 20
0.0
 30
0.0
 11
1.0
 21
0.0
 31
0.0
  0
ENDBLK
  5
277D
330
277A
100
AcDbEntity
  8
0
100
AcDbBlockEnd
  0
BLOCK
  5
561C
330
561B
100
AcDbEntity
  8
0
100
AcDbBlockBegin
  2
*U2
 70
     1
 10
0.0
 20
0.0
 30
0.0
  3
*U2
  1

  0
ENDBLK
  5
561D
330
561B
100
AcDbEntity
  8
0
100
AcDbBlockEnd
  0
BLOCK
  5
5830
330
5829
100
AcDbEntity
  8
0
100
AcDbBlockBegin
  2
DA_IMAGEDIMGROUP_1
 70
     0
 10
0.0
 20
0.0
 30
0.0
  3
DA_IMAGEDIMGROUP_1
  1

  0
LINE
  5
582A
330
5829
100
AcDbEntity
  8
LAYER0014
  6
CONTINUOUS
 62
     7
100
AcDbLine
 10
-4.527992334285784
 20
69.50255314766564
 30
0.0
 11
-4.527992334285784
 21
68.38114835567958
 31
0.0
  0
LINE
  5
582B
330
5829
100
AcDbEntity
  8
LAYER0014
  6
CONTINUOUS
 62
     7
100
AcDbLine
 10
36.47200766571422
 20
144.3171366405571
 30
0.0
 11
36.47200766571422
 21
68.38114835567958
 31
0.0
  0
LINE
  5
582C
330
5829
100
AcDbEntity
  8
LAYER0014
  6
CONTINUOUS
 62
     7
100
AcDbLine
 10
-4.527992334285784
 20
70.6671483556796
 30
0.0
 11
36.47200766571422
 21
70.6671483556796
 31
0.0
  0
INSERT
  5
582D
330
5829
100
AcDbEntity
  8
LAYER0014
 62
     7
100
AcDbBlockReference
  2
_OPEN30
 10
-4.527992334285784
 20
70.6671483556796
 30
0.0
 41
3.000002787824362
 42
2.999989273978464
 50
180.0
  0
INSERT
  5
582E
330
5829
100
AcDbEntity
  8
LAYER0014
 62
     7
100
AcDbBlockReference
  2
_OPEN30
 10
36.47200766571422
 20
70.6671483556796
 30
0.0
 41
3.000002787824362
 42
2.999989273978464
 50
360.0
  0
TEXT
  5
582F
330
5829
100
AcDbEntity
  8
LAYER0014
 62
     7
100
AcDbText
 10
12.08600765832324
 20
72.26714835567958
 30
0.0
 40
3.200000047683716
  1
123
 41
1.163303552689028
  7
FDASTYLE0
 72
     5
 11
20.77200764783281
 21
72.26714835567958
 31
0.0
100
AcDbText
  0
ENDBLK
  5
5831
330
5829
100
AcDbEntity
  8
0
100
AcDbBlockEnd
  0
BLOCK
  5
5837
330
5832
100
AcDbEntity
  8
0
100
AcDbBlockBegin
  2
DA_IMAGEDIMGROUP_2
 70
     0
 10
0.0
 20
0.0
 30
0.0
  3
DA_IMAGEDIMGROUP_2
  1

  0
LINE
  5
5833
330
5832
100
AcDbEntity
  8
LAYER0014
  6
CONTINUOUS
 62
     7
100
AcDbLine
 10
9.937961201528059
 20
29.95555731112005
 30
0.0
 11
-18.9939458700996
 21
57.09204930332759
 31
0.0
  0
INSERT
  5
5834
330
5832
100
AcDbEntity
  8
LAYER0014
 62
     7
100
AcDbBlockReference
  2
_OPEN30
 10
9.937961201528059
 20
29.95555731112005
 30
0.0
 41
3.000002787824362
 42
2.999989273978464
 50
316.8340913773836
  0
INSERT
  5
5835
330
5832
100
AcDbEntity
  8
LAYER0014
 62
     7
100
AcDbBlockReference
  2
_OPEN30
 10
-18.9939458700996
 20
57.09204930332759
 30
0.0
 41
3.000002787824362
 42
2.999989273978464
 50
136.8340913773837
  0
TEXT
  5
5836
330
5832
100
AcDbEntity
  8
LAYER0014
 62
     7
100
AcDbText
 10
-15.111743136869
 20
55.64889425532093
 30
0.0
 40
3.200000047683716
  1
φ119
 50
316.8
 41
1.160742168014985
  7
FDASTYLE0
 72
     5
 11
-6.447222047675262
 21
47.51236736959417
 31
0.0
100
AcDbText
  0
ENDBLK
  5
5838
330
5832
100
AcDbEntity
  8
0
100
AcDbBlockEnd
  0
BLOCK
  5
583E
330
5839
100
AcDbEntity
  8
0
100
AcDbBlockBegin
  2
DA_IMAGEDIMGROUP_3
 70
     0
 10
0.0
 20
0.0
 30
0.0
  3
DA_IMAGEDIMGROUP_3
  1

  0
LINE
  5
583A
330
5839
100
AcDbEntity
  8
LAYER0014
  6
CONTINUOUS
 62
     7
100
AcDbLine
 10
2.624343323595595
 20
66.43327939544981
 30
0.0
 11
-11.68032799216716
 21
20.61432721899782
 31
0.0
  0
INSERT
  5
583B
330
5839
100
AcDbEntity
  8
LAYER0014
 62
     7
100
AcDbBlockReference
  2
_OPEN30
 10
2.624343323595595
 20
66.43327939544981
 30
0.0
 41
3.000002787824362
 42
2.999989273978464
 50
72.66164251604495
  0
INSERT
  5
583C
330
5839
100
AcDbEntity
  8
LAYER0014
 62
     7
100
AcDbBlockReference
  2
_OPEN30
 10
-11.68032799216716
 20
20.61432721899782
 30
0.0
 41
3.000002787824362
 42
2.999989273978464
 50
252.661642516045
  0
TEXT
  5
583D
330
5839
100
AcDbEntity
  8
LAYER0014
 62
     7
100
AcDbText
 10
-11.22117917910305
 20
27.44156633805723
 30
0.0
 40
3.200000047683716
  1
φ144
 50
72.69999999999999
 41
1.051238189900364
  7
FDASTYLE0
 72
     5
 11
-7.686581432479056
 21
38.78985317955001
 31
0.0
100
AcDbText
  0
ENDBLK
  5
583F
330
5839
100
AcDbEntity
  8
0
100
AcDbBlockEnd
  0
BLOCK
  5
5849
330
5840
100
AcDbEntity
  8
0
100
AcDbBlockBegin
  2
DA_IMAGEDIMGROUP_4
 70
     0
 10
0.0
 20
0.0
 30
0.0
  3
DA_IMAGEDIMGROUP_4
  1

  0
LINE
  5
5841
330
5840
100
AcDbEntity
  8
LAYER0014
  6
CONTINUOUS
 62
     7
100
AcDbLine
 10
-38.26688842089425
 20
-105.8352841850289
 30
0.0
 11
-24.56324862895199
 21
-105.8352841850289
 31
0.0
  0
LINE
  5
5842
330
5840
100
AcDbEntity
  8
LAYER0014
  6
CONTINUOUS
 62
     7
100
AcDbLine
 10
30.73178619643728
 20
-100.835284185029
 30
0.0
 11
-29.13524862895197
 21
-100.835284185029
 31
0.0
  0
LINE
  5
5843
330
5840
100
AcDbEntity
  8
LAYER0014
  6
CONTINUOUS
 62
     7
100
AcDbLine
 10
-26.84924862895198
 20
-105.8352841850289
 30
0.0
 11
-26.84924862895198
 21
-100.835284185029
 31
0.0
  0
LINE
  5
5844
330
5840
100
AcDbEntity
  8
LAYER0014
  6
CONTINUOUS
 62
     7
100
AcDbLine
 10
-26.84924862895198
 20
-105.8352841850289
 30
0.0
 11
-26.84924862895198
 21
-112.1852841850289
 31
0.0
  0
INSERT
  5
5845
330
5840
100
AcDbEntity
  8
LAYER0014
 62
     7
100
AcDbBlockReference
  2
_OPEN30
 10
-26.84924862895198
 20
-105.8352841850289
 30
0.0
 41
3.000002787824362
 42
2.999989273978464
 50
90.0
  0
LINE
  5
5846
330
5840
100
AcDbEntity
  8
LAYER0014
  6
CONTINUOUS
 62
     7
100
AcDbLine
 10
-26.84924862895198
 20
-94.48528418502908
 30
0.0
 11
-26.84924862895198
 21
-100.835284185029
 31
0.0
  0
INSERT
  5
5847
330
5840
100
AcDbEntity
  8
LAYER0014
 62
     7
100
AcDbBlockReference
  2
_OPEN30
 10
-26.84924862895198
 20
-100.835284185029
 30
0.0
 41
3.000002787824362
 42
2.999989273978464
 50
270.0
  0
TEXT
  5
5848
330
5840
100
AcDbEntity
  8
LAYER0014
 62
     7
100
AcDbText
 10
-28.44924862895199
 20
-90.22996950902864
 30
0.0
 40
3.200000047683716
  1
15
 50
90.0
 41
1.285781231175652
  7
FDASTYLE0
 72
     5
 11
-28.44924862895199
 21
-84.74396950759809
 31
0.0
100
AcDbText
  0
ENDBLK
  5
584A
330
5840
100
AcDbEntity
  8
0
100
AcDbBlockEnd
  0
BLOCK
  5
5852
330
584B
100
AcDbEntity
  8
0
100
AcDbBlockBegin
  2
DA_IMAGEDIMGROUP_5
 70
     0
 10
0.0
 20
0.0
 30
0.0
  3
DA_IMAGEDIMGROUP_5
  1

  0
LINE
  5
584C
330
584B
100
AcDbEntity
  8
LAYER0014
  6
CONTINUOUS
 62
     7
100
AcDbLine
 10
39.0120076657141
 20
-120.835284185029
 30
0.0
 11
62.89421552458924
 21
-120.835284185029
 31
0.0
  0
LINE
  5
584D
330
584B
100
AcDbEntity
  8
LAYER0014
  6
CONTINUOUS
 62
     7
100
AcDbLine
 10
35.81178619643729
 20
-100.835284185029
 30
0.0
 11
62.89421552458924
 21
-100.835284185029
 31
0.0
  0
LINE
  5
584E
330
584B
100
AcDbEntity
  8
LAYER0014
  6
CONTINUOUS
 62
     7
100
AcDbLine
 10
60.60821552458921
 20
-120.835284185029
 30
0.0
 11
60.60821552458921
 21
-100.835284185029
 31
0.0
  0
INSERT
  5
584F
330
584B
100
AcDbEntity
  8
LAYER0014
 62
     7
100
AcDbBlockReference
  2
_OPEN30
 10
60.60821552458921
 20
-120.835284185029
 30
0.0
 41
3.000002787824362
 42
2.999989273978464
 50
270.0
  0
INSERT
  5
5850
330
584B
100
AcDbEntity
  8
LAYER0014
 62
     7
100
AcDbBlockReference
  2
_OPEN30
 10
60.60821552458921
 20
-100.835284185029
 30
0.0
 41
3.000002787824362
 42
2.999989273978464
 50
90.0
  0
TEXT
  5
5851
330
584B
100
AcDbEntity
  8
LAYER0014
 62
     7
100
AcDbText
 10
59.00821552458921
 20
-113.1212841983805
 30
0.0
 40
3.200000047683716
  1
60
 50
90.0
 41
1.142916649933904
  7
FDASTYLE0
 72
     5
 11
59.00821552458921
 21
-107.63528419695
 31
0.0
100
AcDbText
  0
ENDBLK
  5
5853
330
584B
100
AcDbEntity
  8
0
100
AcDbBlockEnd
  0
BLOCK
  5
585B
330
5854
100
AcDbEntity
  8
0
100
AcDbBlockBegin
  2
DA_IMAGEDIMGROUP_6
 70
     0
 10
0.0
 20
0.0
 30
0.0
  3
DA_IMAGEDIMGROUP_6
  1

  0
LINE
  5
5855
330
5854
100
AcDbEntity
  8
LAYER0014
  6
CONTINUOUS
 62
     7
100
AcDbLine
 10
35.67867433238084
 20
-63.1428633594429
 30
0.0
 11
60.82558934267185
 21
-63.1428633594429
 31
0.0
  0
LINE
  5
5856
330
5854
100
AcDbEntity
  8
LAYER0014
  6
CONTINUOUS
 62
     7
100
AcDbLine
 10
45.38498163166853
 20
43.52380330722382
 30
0.0
 11
60.82558934267185
 21
43.52380330722382
 31
0.0
  0
LINE
  5
5857
330
5854
100
AcDbEntity
  8
LAYER0014
  6
CONTINUOUS
 62
     7
100
AcDbLine
 10
58.53958934267185
 20
-63.1428633594429
 30
0.0
 11
58.53958934267185
 21
43.52380330722382
 31
0.0
  0
INSERT
  5
5858
330
5854
100
AcDbEntity
  8
LAYER0014
 62
     7
100
AcDbBlockReference
  2
_OPEN30
 10
58.53958934267185
 20
-63.1428633594429
 30
0.0
 41
3.000002787824362
 42
2.999989273978464
 50
270.0
  0
INSERT
  5
5859
330
5854
100
AcDbEntity
  8
LAYER0014
 62
     7
100
AcDbBlockReference
  2
_OPEN30
 10
58.53958934267185
 20
43.52380330722382
 30
0.0
 41
3.000002787824362
 42
2.999989273978464
 50
90.0
  0
TEXT
  5
585A
330
5854
100
AcDbEntity
  8
LAYER0014
 62
     7
100
AcDbText
 10
56.93958934267184
 20
-13.69553003350052
 30
0.0
 40
3.200000047683716
  1
320
 50
90.0
 41
1.085749982509762
  7
FDASTYLE0
 72
     5
 11
56.93958934267184
 21
-5.009530043990933
 31
0.0
100
AcDbText
  0
ENDBLK
  5
585C
330
5854
100
AcDbEntity
  8
0
100
AcDbBlockEnd
  0
BLOCK
  5
5864
330
585D
100
AcDbEntity
  8
0
100
AcDbBlockBegin
  2
DA_IMAGEDIMGROUP_7
 70
     0
 10
0.0
 20
0.0
 30
0.0
  3
DA_IMAGEDIMGROUP_7
  1

  0
LINE
  5
585E
330
585D
100
AcDbEntity
  8
LAYER0014
  6
CONTINUOUS
 62
     7
100
AcDbLine
 10
45.38498163166853
 20
43.52380330722382
 30
0.0
 11
60.82558934267185
 21
43.52380330722382
 31
0.0
  0
LINE
  5
585F
330
585D
100
AcDbEntity
  8
LAYER0014
  6
CONTINUOUS
 62
     7
100
AcDbLine
 10
35.67867433238084
 20
150.1904699738903
 30
0.0
 11
60.82558934267185
 21
150.1904699738903
 31
0.0
  0
LINE
  5
5860
330
585D
100
AcDbEntity
  8
LAYER0014
  6
CONTINUOUS
 62
     7
100
AcDbLine
 10
58.53958934267185
 20
43.52380330722382
 30
0.0
 11
58.53958934267185
 21
150.1904699738903
 31
0.0
  0
INSERT
  5
5861
330
585D
100
AcDbEntity
  8
LAYER0014
 62
     7
100
AcDbBlockReference
  2
_OPEN30
 10
58.53958934267185
 20
43.52380330722382
 30
0.0
 41
3.000002787824362
 42
2.999989273978464
 50
270.0
  0
INSERT
  5
5862
330
585D
100
AcDbEntity
  8
LAYER0014
 62
     7
100
AcDbBlockReference
  2
_OPEN30
 10
58.53958934267185
 20
150.1904699738903
 30
0.0
 41
3.000002787824362
 42
2.999989273978464
 50
90.0
  0
TEXT
  5
5863
330
585D
100
AcDbEntity
  8
LAYER0014
 62
     7
100
AcDbText
 10
56.93958934267184
 20
92.97113663316613
 30
0.0
 40
3.200000047683716
  1
320
 50
90.0
 41
1.085749982509762
  7
FDASTYLE0
 72
     5
 11
56.93958934267184
 21
101.6571366226757
 31
0.0
100
AcDbText
  0
ENDBLK
  5
5865
330
585D
100
AcDbEntity
  8
0
100
AcDbBlockEnd
  0
BLOCK
  5
586D
330
5866
100
AcDbEntity
  8
0
100
AcDbBlockBegin
  2
DA_IMAGEDIMGROUP_8
 70
     0
 10
0.0
 20
0.0
 30
0.0
  3
DA_IMAGEDIMGROUP_8
  1

  0
LINE
  5
5867
330
5866
100
AcDbEntity
  8
LAYER0014
  6
CONTINUOUS
 62
     7
100
AcDbLine
 10
-90.36110751064207
 20
-51.47619669277632
 30
0.0
 11
-90.36110751064207
 21
-3.142863359442986
 31
0.0
  0
INSERT
  5
5868
330
5866
100
AcDbEntity
  8
LAYER0014
 62
     7
100
AcDbBlockReference
  2
_OPEN30
 10
-90.36110751064207
 20
-51.47619669277632
 30
0.0
 41
3.000002787824362
 42
2.999989273978464
 50
270.0
  0
INSERT
  5
5869
330
5866
100
AcDbEntity
  8
LAYER0014
 62
     7
100
AcDbBlockReference
  2
_OPEN30
 10
-90.36110751064207
 20
-3.142863359442986
 30
0.0
 41
3.000002787824362
 42
2.999989273978464
 50
90.0
  0
LINE
  5
586A
330
5866
100
AcDbEntity
  8
LAYER0014
  6
CONTINUOUS
 62
     7
100
AcDbLine
 10
-135.9879921882845
 20
-51.47619669277632
 30
0.0
 11
-89.36110751064207
 21
-51.47619669277632
 31
0.0
  0
LINE
  5
586B
330
5866
100
AcDbEntity
  8
LAYER0014
  6
CONTINUOUS
 62
     7
100
AcDbLine
 10
-135.9879923342856
 20
-3.142863359442988
 30
0.0
 11
-89.36110751064207
 21
-3.142863359442986
 31
0.0
  0
TEXT
  5
586C
330
5866
100
AcDbEntity
  8
LAYER0014
 62
     7
100
AcDbText
 10
-91.96110751064205
 20
-22.19558228040482
 30
0.0
 40
3.200000047683716
  1
145
 50
90.0
 41
1.16330355268903
  7
FDASTYLE0
 72
     5
 11
-91.96110751064205
 21
-13.50958229089524
 31
0.0
100
AcDbText
  0
ENDBLK
  5
586E
330
5866
100
AcDbEntity
  8
0
100
AcDbBlockEnd
  0
BLOCK
  5
5876
330
586F
100
AcDbEntity
  8
0
100
AcDbBlockBegin
  2
DA_IMAGEDIMGROUP_9
 70
     0
 10
0.0
 20
0.0
 30
0.0
  3
DA_IMAGEDIMGROUP_9
  1

  0
LINE
  5
5870
330
586F
100
AcDbEntity
  8
LAYER0014
  6
CONTINUOUS
 62
     7
100
AcDbLine
 10
-90.36110751064207
 20
-3.142863359442986
 30
0.0
 11
-90.36110751064207
 21
90.19046997389065
 31
0.0
  0
INSERT
  5
5871
330
586F
100
AcDbEntity
  8
LAYER0014
 62
     7
100
AcDbBlockReference
  2
_OPEN30
 10
-90.36110751064207
 20
-3.142863359442986
 30
0.0
 41
3.000002787824362
 42
2.999989273978464
 50
270.0
  0
INSERT
  5
5872
330
586F
100
AcDbEntity
  8
LAYER0014
 62
     7
100
AcDbBlockReference
  2
_OPEN30
 10
-90.36110751064207
 20
90.19046997389065
 30
0.0
 41
3.000002787824362
 42
2.999989273978464
 50
90.0
  0
LINE
  5
5873
330
586F
100
AcDbEntity
  8
LAYER0014
  6
CONTINUOUS
 62
     7
100
AcDbLine
 10
-135.9879923342856
 20
-3.142863359442988
 30
0.0
 11
-89.36110751064207
 21
-3.142863359442986
 31
0.0
  0
LINE
  5
5874
330
586F
100
AcDbEntity
  8
LAYER0014
  6
CONTINUOUS
 62
     7
100
AcDbLine
 10
-135.9879923342856
 20
90.19046997389065
 30
0.0
 11
-89.36110751064207
 21
90.19046997389065
 31
0.0
  0
TEXT
  5
5875
330
586F
100
AcDbEntity
  8
LAYER0014
 62
     7
100
AcDbText
 10
-91.96110751064205
 20
57.20314086082297
 30
0.0
 40
3.200000047683716
  1
280
 50
90.0
 41
1.085749982509764
  7
FDASTYLE0
 72
     5
 11
-91.96110751064205
 21
65.88914085033258
 31
0.0
100
AcDbText
  0
ENDBLK
  5
5877
330
586F
100
AcDbEntity
  8
0
100
AcDbBlockEnd
  0
BLOCK
  5
587F
330
5878
100
AcDbEntity
  8
0
100
AcDbBlockBegin
  2
DA_IMAGEDIMGROUP_10
 70
     0
 10
0.0
 20
0.0
 30
0.0
  3
DA_IMAGEDIMGROUP_10
  1

  0
LINE
  5
5879
330
5878
100
AcDbEntity
  8
LAYER0014
  6
CONTINUOUS
 62
     7
100
AcDbLine
 10
-90.36110751064207
 20
90.19046997389065
 30
0.0
 11
-90.36110751064207
 21
138.523803307224
 31
0.0
  0
INSERT
  5
587A
330
5878
100
AcDbEntity
  8
LAYER0014
 62
     7
100
AcDbBlockReference
  2
_OPEN30
 10
-90.36110751064207
 20
90.19046997389065
 30
0.0
 41
3.000002787824362
 42
2.999989273978464
 50
270.0
  0
INSERT
  5
587B
330
5878
100
AcDbEntity
  8
LAYER0014
 62
     7
100
AcDbBlockReference
  2
_OPEN30
 10
-90.36110751064207
 20
138.523803307224
 30
0.0
 41
3.000002787824362
 42
2.999989273978464
 50
90.0
  0
LINE
  5
587C
330
5878
100
AcDbEntity
  8
LAYER0014
  6
CONTINUOUS
 62
     7
100
AcDbLine
 10
-135.9879923342856
 20
90.19046997389065
 30
0.0
 11
-89.36110751064207
 21
90.19046997389065
 31
0.0
  0
LINE
  5
587D
330
5878
100
AcDbEntity
  8
LAYER0014
  6
CONTINUOUS
 62
     7
100
AcDbLine
 10
-135.9879921882845
 20
138.523803307224
 30
0.0
 11
-89.36110751064207
 21
138.523803307224
 31
0.0
  0
TEXT
  5
587E
330
5878
100
AcDbEntity
  8
LAYER0014
 62
     7
100
AcDbText
 10
-91.96110751064205
 20
110.4711366331663
 30
0.0
 40
3.200000047683716
  1
145
 50
90.0
 41
1.163303552689036
  7
FDASTYLE0
 72
     5
 11
-91.96110751064205
 21
119.1571366226759
 31
0.0
100
AcDbText
  0
ENDBLK
  5
5880
330
5878
100
AcDbEntity
  8
0
100
AcDbBlockEnd
  0
BLOCK
  5
588A
330
5881
100
AcDbEntity
  8
0
100
AcDbBlockBegin
  2
DA_IMAGEDIMGROUP_11
 70
     0
 10
0.0
 20
0.0
 30
0.0
  3
DA_IMAGEDIMGROUP_11
  1

  0
LINE
  5
5882
330
5881
100
AcDbEntity
  8
LAYER0014
  6
CONTINUOUS
 62
     7
100
AcDbLine
 10
-31.0100520247597
 20
41.85713664055709
 30
0.0
 11
-110.5758172323759
 21
41.85713664055709
 31
0.0
  0
LINE
  5
5883
330
5881
100
AcDbEntity
  8
LAYER0014
  6
CONTINUOUS
 62
     7
100
AcDbLine
 10
-31.0100520247597
 20
45.19046997389034
 30
0.0
 11
-110.5758172323759
 21
45.19046997389034
 31
0.0
  0
LINE
  5
5884
330
5881
100
AcDbEntity
  8
LAYER0014
  6
CONTINUOUS
 62
     7
100
AcDbLine
 10
-108.289817232376
 20
41.85713664055709
 30
0.0
 11
-108.289817232376
 21
45.19046997389034
 31
0.0
  0
LINE
  5
5885
330
5881
100
AcDbEntity
  8
LAYER0014
  6
CONTINUOUS
 62
     7
100
AcDbLine
 10
-108.289817232376
 20
41.85713664055709
 30
0.0
 11
-108.289817232376
 21
35.50713664055709
 31
0.0
  0
INSERT
  5
5886
330
5881
100
AcDbEntity
  8
LAYER0014
 62
     7
100
AcDbBlockReference
  2
_OPEN30
 10
-108.289817232376
 20
41.85713664055709
 30
0.0
 41
3.000002787824362
 42
2.999989273978464
 50
90.0
  0
LINE
  5
5887
330
5881
100
AcDbEntity
  8
LAYER0014
  6
CONTINUOUS
 62
     7
100
AcDbLine
 10
-108.289817232376
 20
51.54046997389035
 30
0.0
 11
-108.289817232376
 21
45.19046997389034
 31
0.0
  0
INSERT
  5
5888
330
5881
100
AcDbEntity
  8
LAYER0014
 62
     7
100
AcDbBlockReference
  2
_OPEN30
 10
-108.289817232376
 20
45.19046997389034
 30
0.0
 41
3.000002787824362
 42
2.999989273978464
 50
270.0
  0
TEXT
  5
5889
330
5881
100
AcDbEntity
  8
LAYER0014
 62
     7
100
AcDbText
 10
-109.889817232376
 20
25.02817410608553
 30
0.0
 40
3.200000047683716
  1
(10)
 50
90.0
 41
1.48574997505918
  7
FDASTYLE0
 72
     5
 11
-109.889817232376
 21
36.91417408367417
 31
0.0
100
AcDbText
  0
ENDBLK
  5
588B
330
5881
100
AcDbEntity
  8
0
100
AcDbBlockEnd
  0
BLOCK
  5
5895
330
588C
100
AcDbEntity
  8
0
100
AcDbBlockBegin
  2
DA_IMAGEDIMGROUP_12
 70
     0
 10
0.0
 20
0.0
 30
0.0
  3
DA_IMAGEDIMGROUP_12
  1

  0
LINE
  5
588D
330
588C
100
AcDbEntity
  8
LAYER0014
  6
CONTINUOUS
 62
     7
100
AcDbLine
 10
16.59867433238084
 20
-121.5019508516955
 30
0.0
 11
-15.97903966739385
 21
-121.5019508516955
 31
0.0
  0
LINE
  5
588E
330
588C
100
AcDbEntity
  8
LAYER0014
  6
CONTINUOUS
 62
     7
100
AcDbLine
 10
17.26534099904758
 20
-122.5019508516955
 30
0.0
 11
-15.97903966739385
 21
-122.5019508516955
 31
0.0
  0
LINE
  5
588F
330
588C
100
AcDbEntity
  8
LAYER0014
  6
CONTINUOUS
 62
     7
100
AcDbLine
 10
-13.69303966739388
 20
-121.5019508516955
 30
0.0
 11
-13.69303966739388
 21
-122.5019508516955
 31
0.0
  0
LINE
  5
5890
330
588C
100
AcDbEntity
  8
LAYER0014
  6
CONTINUOUS
 62
     7
100
AcDbLine
 10
-13.69303966739388
 20
-121.5019508516955
 30
0.0
 11
-13.69303966739388
 21
-115.1519508516954
 31
0.0
  0
INSERT
  5
5891
330
588C
100
AcDbEntity
  8
LAYER0014
 62
     7
100
AcDbBlockReference
  2
_OPEN30
 10
-13.69303966739388
 20
-121.5019508516955
 30
0.0
 41
3.000002787824362
 42
2.999989273978464
 50
270.0
  0
LINE
  5
5892
330
588C
100
AcDbEntity
  8
LAYER0014
  6
CONTINUOUS
 62
     7
100
AcDbLine
 10
-13.69303966739388
 20
-128.8519508516955
 30
0.0
 11
-13.69303966739388
 21
-122.5019508516955
 31
0.0
  0
INSERT
  5
5893
330
588C
100
AcDbEntity
  8
LAYER0014
 62
     7
100
AcDbBlockReference
  2
_OPEN30
 10
-13.69303966739388
 20
-122.5019508516955
 30
0.0
 41
3.000002787824362
 42
2.999989273978464
 50
90.0
  0
TEXT
  5
5894
330
588C
100
AcDbEntity
  8
LAYER0014
 62
     7
100
AcDbText
 10
-15.29303966739385
 20
-130.2383569833972
 30
0.0
 40
3.200000047683716
  1
3
 50
90.0
 41
1.071562490291081
  7
FDASTYLE0
 72
     5
 11
-15.29303966739385
 21
-127.9523569700455
 31
0.0
100
AcDbText
  0
ENDBLK
  5
5896
330
588C
100
AcDbEntity
  8
0
100
AcDbBlockEnd
  0
BLOCK
  5
589E
330
5897
100
AcDbEntity
  8
0
100
AcDbBlockBegin
  2
DA_IMAGEDIMGROUP_13
 70
     0
 10
0.0
 20
0.0
 30
0.0
  3
DA_IMAGEDIMGROUP_13
  1

  0
LINE
  5
5898
330
5897
100
AcDbEntity
  8
LAYER0014
  6
CONTINUOUS
 62
     7
100
AcDbLine
 10
17.26534099904758
 20
-122.5019508516955
 30
0.0
 11
3.677936378796325
 21
-122.5019508516955
 31
0.0
  0
LINE
  5
5899
330
5897
100
AcDbEntity
  8
LAYER0014
  6
CONTINUOUS
 62
     7
100
AcDbLine
 10
30.73178619643728
 20
-100.835284185029
 30
0.0
 11
3.677936378796325
 21
-100.835284185029
 31
0.0
  0
LINE
  5
589A
330
5897
100
AcDbEntity
  8
LAYER0014
  6
CONTINUOUS
 62
     7
100
AcDbLine
 10
5.963936378796326
 20
-122.5019508516955
 30
0.0
 11
5.963936378796326
 21
-100.835284185029
 31
0.0
  0
INSERT
  5
589B
330
5897
100
AcDbEntity
  8
LAYER0014
 62
     7
100
AcDbBlockReference
  2
_OPEN30
 10
5.963936378796326
 20
-122.5019508516955
 30
0.0
 41
3.000002787824362
 42
2.999989273978464
 50
270.0
  0
INSERT
  5
589C
330
5897
100
AcDbEntity
  8
LAYER0014
 62
     7
100
AcDbBlockReference
  2
_OPEN30
 10
5.963936378796326
 20
-100.835284185029
 30
0.0
 41
3.000002787824362
 42
2.999989273978464
 50
90.0
  0
TEXT
  5
589D
330
5897
100
AcDbEntity
  8
LAYER0014
 62
     7
100
AcDbText
 10
4.363936378796325
 20
-113.9546175317135
 30
0.0
 40
3.200000047683716
  1
65
 50
90.0
 41
1.028624984940492
  7
FDASTYLE0
 72
     5
 11
4.363936378796325
 21
-108.4686175302832
 31
0.0
100
AcDbText
  0
ENDBLK
  5
589F
330
5897
100
AcDbEntity
  8
0
100
AcDbBlockEnd
  0
BLOCK
  5
58A7
330
58A0
100
AcDbEntity
  8
0
100
AcDbBlockBegin
  2
DA_IMAGEDIMGROUP_14
 70
     0
 10
0.0
 20
0.0
 30
0.0
  3
DA_IMAGEDIMGROUP_14
  1

  0
LINE
  5
58A1
330
58A0
100
AcDbEntity
  8
LAYER0014
  6
CONTINUOUS
 62
     7
100
AcDbLine
 10
-209.4013256676189
 20
-63.1428633594429
 30
0.0
 11
-239.2335650264685
 21
-63.1428633594429
 31
0.0
  0
LINE
  5
58A2
330
58A0
100
AcDbEntity
  8
LAYER0014
  6
CONTINUOUS
 62
     7
100
AcDbLine
 10
-209.4013256676189
 20
150.1904699738903
 30
0.0
 11
-239.2335650264685
 21
150.1904699738903
 31
0.0
  0
LINE
  5
58A3
330
58A0
100
AcDbEntity
  8
LAYER0014
  6
CONTINUOUS
 62
     7
100
AcDbLine
 10
-236.9475650264685
 20
-63.1428633594429
 30
0.0
 11
-236.9475650264685
 21
150.1904699738903
 31
0.0
  0
INSERT
  5
58A4
330
58A0
100
AcDbEntity
  8
LAYER0014
 62
     7
100
AcDbBlockReference
  2
_OPEN30
 10
-236.9475650264685
 20
-63.1428633594429
 30
0.0
 41
3.000002787824362
 42
2.999989273978464
 50
270.0
  0
INSERT
  5
58A5
330
58A0
100
AcDbEntity
  8
LAYER0014
 62
     7
100
AcDbBlockReference
  2
_OPEN30
 10
-236.9475650264685
 20
150.1904699738903
 30
0.0
 41
3.000002787824362
 42
2.999989273978464
 50
90.0
  0
TEXT
  5
58A6
330
58A0
100
AcDbEntity
  8
LAYER0014
 62
     7
100
AcDbText
 10
-238.5475650264685
 20
39.852115848987
 30
0.0
 40
3.0
  1
640
 50
90.0
 41
1.100983318826804
  7
FDASTYLE0
 72
     5
 11
-238.5475650264685
 21
48.10949074018804
 31
0.0
100
AcDbText
  0
ENDBLK
  5
58A8
330
58A0
100
AcDbEntity
  8
0
100
AcDbBlockEnd
  0
BLOCK
  5
58B0
330
58A9
100
AcDbEntity
  8
0
100
AcDbBlockBegin
  2
DA_IMAGEDIMGROUP_15
 70
     0
 10
0.0
 20
0.0
 30
0.0
  3
DA_IMAGEDIMGROUP_15
  1

  0
LINE
  5
58AA
330
58A9
100
AcDbEntity
  8
LAYER0014
  6
CONTINUOUS
 62
     7
100
AcDbLine
 10
-210.1946590009521
 20
149.3971366405571
 30
0.0
 11
-210.1946590009521
 21
171.9334325529485
 31
0.0
  0
LINE
  5
58AB
330
58A9
100
AcDbEntity
  8
LAYER0014
  6
CONTINUOUS
 62
     7
100
AcDbLine
 10
36.47200766571422
 20
149.3971366405571
 30
0.0
 11
36.47200766571422
 21
171.9334325529485
 31
0.0
  0
LINE
  5
58AC
330
58A9
100
AcDbEntity
  8
LAYER0014
  6
CONTINUOUS
 62
     7
100
AcDbLine
 10
-210.1946590009521
 20
169.6474325529488
 30
0.0
 11
36.47200766571422
 21
169.6474325529488
 31
0.0
  0
INSERT
  5
58AD
330
58A9
100
AcDbEntity
  8
LAYER0014
 62
     7
100
AcDbBlockReference
  2
_OPEN30
 10
-210.1946590009521
 20
169.6474325529488
 30
0.0
 41
3.000002787824362
 42
2.999989273978464
 50
180.0
  0
INSERT
  5
58AE
330
58A9
100
AcDbEntity
  8
LAYER0014
 62
     7
100
AcDbBlockReference
  2
_OPEN30
 10
36.47200766571422
 20
169.6474325529488
 30
0.0
 41
3.000002787824362
 42
2.999989273978464
 50
360.0
  0
TEXT
  5
58AF
330
58A9
100
AcDbEntity
  8
LAYER0014
 62
     7
100
AcDbText
 10
-90.74732567500999
 20
171.2474325529488
 30
0.0
 40
3.200000047683716
  1
740
 41
1.085749982509758
  7
FDASTYLE0
 72
     5
 11
-82.06132568550044
 21
171.2474325529488
 31
0.0
100
AcDbText
  0
ENDBLK
  5
58B1
330
58A9
100
AcDbEntity
  8
0
100
AcDbBlockEnd
  0
BLOCK
  5
58C2
330
58B2
100
AcDbEntity
  8
0
100
AcDbBlockBegin
  2
DA_IMAGEDIMGROUP_16
 70
     0
 10
0.0
 20
0.0
 30
0.0
  3
DA_IMAGEDIMGROUP_16
  1

  0
LINE
  5
58B3
330
58B2
100
AcDbEntity
  8
LAYER0014
  6
CONTINUOUS
 62
     7
100
AcDbLine
 10
-198.5279923342855
 20
-30.86482444973644
 30
0.0
 11
-131.8613256676189
 21
-30.86482444973644
 31
0.0
  0
INSERT
  5
58B4
330
58B2
100
AcDbEntity
  8
LAYER0014
 62
     7
100
AcDbBlockReference
  2
_OPEN30
 10
-198.5279923342855
 20
-30.86482444973644
 30
0.0
 41
3.000002787824362
 42
2.999989273978464
 50
180.0
  0
INSERT
  5
58B5
330
58B2
100
AcDbEntity
  8
LAYER0014
 62
     7
100
AcDbBlockReference
  2
_OPEN30
 10
-131.8613256676189
 20
-30.86482444973644
 30
0.0
 41
3.000002787824362
 42
2.999989273978464
 50
360.0
  0
LINE
  5
58B6
330
58B2
100
AcDbEntity
  8
LAYER0014
  6
CONTINUOUS
 62
     7
100
AcDbLine
 10
-131.8613256676189
 20
-30.86482444973644
 30
0.0
 11
-61.86132566761894
 21
-30.86482444973644
 31
0.0
  0
INSERT
  5
58B7
330
58B2
100
AcDbEntity
  8
LAYER0014
 62
     7
100
AcDbBlockReference
  2
_OPEN30
 10
-131.8613256676189
 20
-30.86482444973644
 30
0.0
 41
3.000002787824362
 42
2.999989273978464
 50
180.0
  0
INSERT
  5
58B8
330
58B2
100
AcDbEntity
  8
LAYER0014
 62
     7
100
AcDbBlockReference
  2
_OPEN30
 10
-61.86132566761894
 20
-30.86482444973644
 30
0.0
 41
3.000002787824362
 42
2.999989273978464
 50
360.0
  0
LINE
  5
58B9
330
58B2
100
AcDbEntity
  8
LAYER0014
  6
CONTINUOUS
 62
     7
100
AcDbLine
 10
-61.86132566761894
 20
-30.86482444973644
 30
0.0
 11
24.80534099904751
 21
-30.86482444973644
 31
0.0
  0
INSERT
  5
58BA
330
58B2
100
AcDbEntity
  8
LAYER0014
 62
     7
100
AcDbBlockReference
  2
_OPEN30
 10
-61.86132566761894
 20
-30.86482444973644
 30
0.0
 41
3.000002787824362
 42
2.999989273978464
 50
180.0
  0
INSERT
  5
58BB
330
58B2
100
AcDbEntity
  8
LAYER0014
 62
     7
100
AcDbBlockReference
  2
_OPEN30
 10
24.80534099904751
 20
-30.86482444973644
 30
0.0
 41
3.000002787824362
 42
2.999989273978464
 50
360.0
  0
LINE
  5
58BC
330
58B2
100
AcDbEntity
  8
LAYER0014
  6
CONTINUOUS
 62
     7
100
AcDbLine
 10
-198.5279923342855
 20
-31.35335712116777
 30
0.0
 11
-198.5279923342855
 21
-29.86482444973644
 31
0.0
  0
LINE
  5
58BD
330
58B2
100
AcDbEntity
  8
LAYER0014
  6
CONTINUOUS
 62
     7
100
AcDbLine
 10
-131.8613256676189
 20
-31.35335712116777
 30
0.0
 11
-131.8613256676189
 21
-29.86482444973644
 31
0.0
  0
LINE
  5
58BE
330
58B2
100
AcDbEntity
  8
LAYER0014
  6
CONTINUOUS
 62
     7
100
AcDbLine
 10
24.80534099904751
 20
-31.35335712116777
 30
0.0
 11
24.80534099904751
 21
-29.86482444973644
 31
0.0
  0
TEXT
  5
58BF
330
58B2
100
AcDbEntity
  8
LAYER0014
 62
     7
100
AcDbText
 10
-169.6946590009523
 20
-29.86482444973644
 30
0.0
 40
3.0
  1
200
 41
1.285714285714285
  7
FDASTYLE0
 72
     5
 11
-160.6946590009523
 21
-29.86482444973644
 31
0.0
100
AcDbText
  0
TEXT
  5
58C0
330
58B2
100
AcDbEntity
  8
LAYER0014
 62
     7
100
AcDbText
 10
-101.3613256676189
 20
-29.86482444973644
 30
0.0
 40
3.0
  1
210
 41
1.38461538461538
  7
FDASTYLE0
 72
     5
 11
-92.36132566761893
 21
-29.86482444973644
 31
0.0
100
AcDbText
  0
TEXT
  5
58C1
330
58B2
100
AcDbEntity
  8
LAYER0014
 62
     7
100
AcDbText
 10
-14.34970728367235
 20
-29.86482444973644
 30
0.0
 40
3.0
  1
260
 41
1.199999999999999
  7
FDASTYLE0
 72
     5
 11
-5.349707283672355
 21
-29.86482444973644
 31
0.0
100
AcDbText
  0
ENDBLK
  5
58C3
330
58B2
100
AcDbEntity
  8
0
100
AcDbBlockEnd
  0
BLOCK
  5
58CD
330
58C4
100
AcDbEntity
  8
0
100
AcDbBlockBegin
  2
DA_IMAGEDIMGROUP_17
 70
     0
 10
0.0
 20
0.0
 30
0.0
  3
DA_IMAGEDIMGROUP_17
  1

  0
LINE
  5
58C5
330
58C4
100
AcDbEntity
  8
LAYER0014
  6
CONTINUOUS
 62
     7
100
AcDbLine
 10
-203.5279923342856
 20
-63.92953002610962
 30
0.0
 11
-203.5279923342856
 21
-73.32609920349743
 31
0.0
  0
LINE
  5
58C6
330
58C4
100
AcDbEntity
  8
LAYER0014
  6
CONTINUOUS
 62
     7
100
AcDbLine
 10
-210.1946590009521
 20
-60.80953002610964
 30
0.0
 11
-210.1946590009521
 21
-73.32609920349743
 31
0.0
  0
LINE
  5
58C7
330
58C4
100
AcDbEntity
  8
LAYER0014
  6
CONTINUOUS
 62
     7
100
AcDbLine
 10
-210.1946590009521
 20
-72.32609920349744
 30
0.0
 11
-203.5279923342856
 21
-72.32609920349744
 31
0.0
  0
LINE
  5
58C8
330
58C4
100
AcDbEntity
  8
LAYER0014
  6
CONTINUOUS
 62
     7
100
AcDbLine
 10
-192.6302123342855
 20
-72.32609920349744
 30
0.0
 11
-203.5279923342856
 21
-72.32609920349744
 31
0.0
  0
INSERT
  5
58C9
330
58C4
100
AcDbEntity
  8
LAYER0014
 62
     7
100
AcDbBlockReference
  2
_OPEN30
 10
-203.5279923342856
 20
-72.32609920349744
 30
0.0
 41
3.000002787824362
 42
2.999989273978464
 50
180.0
  0
LINE
  5
58CA
330
58C4
100
AcDbEntity
  8
LAYER0014
  6
CONTINUOUS
 62
     7
100
AcDbLine
 10
-215.1946590009523
 20
-72.32609920349744
 30
0.0
 11
-210.1946590009521
 21
-72.32609920349744
 31
0.0
  0
INSERT
  5
58CB
330
58C4
100
AcDbEntity
  8
LAYER0014
 62
     7
100
AcDbBlockReference
  2
_OPEN30
 10
-210.1946590009521
 20
-72.32609920349744
 30
0.0
 41
3.000002787824362
 42
2.999989273978464
 50
360.0
  0
TEXT
  5
58CC
330
58C4
100
AcDbEntity
  8
LAYER0014
 62
     7
100
AcDbText
 10
-199.6302123342855
 20
-71.32609920349743
 30
0.0
 40
3.0
  1
20
 41
1.333333333333333
  7
FDASTYLE0
 72
     5
 11
-193.6302123342855
 21
-71.32609920349743
 31
0.0
100
AcDbText
  0
ENDBLK
  5
58CE
330
58C4
100
AcDbEntity
  8
0
100
AcDbBlockEnd
  0
BLOCK
  5
58D8
330
58CF
100
AcDbEntity
  8
0
100
AcDbBlockBegin
  2
DA_IMAGEDIMGROUP_18
 70
     0
 10
0.0
 20
0.0
 30
0.0
  3
DA_IMAGEDIMGROUP_18
  1

  0
LINE
  5
58D0
330
58CF
100
AcDbEntity
  8
LAYER0014
  6
CONTINUOUS
 62
     7
100
AcDbLine
 10
-210.981325667619
 20
-56.47619669277625
 30
0.0
 11
-217.3917852854498
 21
-56.47619669277625
 31
0.0
  0
LINE
  5
58D1
330
58CF
100
AcDbEntity
  8
LAYER0014
  6
CONTINUOUS
 62
     7
100
AcDbLine
 10
-207.861325667619
 20
-63.1428633594429
 30
0.0
 11
-217.3917852854498
 21
-63.1428633594429
 31
0.0
  0
LINE
  5
58D2
330
58CF
100
AcDbEntity
  8
LAYER0014
  6
CONTINUOUS
 62
     7
100
AcDbLine
 10
-216.3917852854498
 20
-63.1428633594429
 30
0.0
 11
-216.3917852854498
 21
-56.47619669277625
 31
0.0
  0
LINE
  5
58D3
330
58CF
100
AcDbEntity
  8
LAYER0014
  6
CONTINUOUS
 62
     7
100
AcDbLine
 10
-216.3917852854498
 20
-45.57841669277625
 30
0.0
 11
-216.3917852854498
 21
-56.47619669277625
 31
0.0
  0
INSERT
  5
58D4
330
58CF
100
AcDbEntity
  8
LAYER0014
 62
     7
100
AcDbBlockReference
  2
_OPEN30
 10
-216.3917852854498
 20
-56.47619669277625
 30
0.0
 41
3.000002787824362
 42
2.999989273978464
 50
270.0
  0
LINE
  5
58D5
330
58CF
100
AcDbEntity
  8
LAYER0014
  6
CONTINUOUS
 62
     7
100
AcDbLine
 10
-216.3917852854498
 20
-68.1428633594429
 30
0.0
 11
-216.3917852854498
 21
-63.1428633594429
 31
0.0
  0
INSERT
  5
58D6
330
58CF
100
AcDbEntity
  8
LAYER0014
 62
     7
100
AcDbBlockReference
  2
_OPEN30
 10
-216.3917852854498
 20
-63.1428633594429
 30
0.0
 41
3.000002787824362
 42
2.999989273978464
 50
90.0
  0
TEXT
  5
58D7
330
58CF
100
AcDbEntity
  8
LAYER0014
 62
     7
100
AcDbText
 10
-217.3917852854498
 20
-52.57841669277625
 30
0.0
 40
3.0
  1
20
 50
90.0
 41
1.333333333333333
  7
FDASTYLE0
 72
     5
 11
-217.3917852854498
 21
-46.57841669277625
 31
0.0
100
AcDbText
  0
ENDBLK
  5
58D9
330
58CF
100
AcDbEntity
  8
0
100
AcDbBlockEnd
  0
BLOCK
  5
58DE
330
58DA
100
AcDbEntity
  8
0
100
AcDbBlockBegin
  2
_OPEN30
 70
     0
 10
0.0
 20
0.0
 30
0.0
  3
_OPEN30
  1

  0
LINE
  5
58DB
330
58DA
100
AcDbEntity
  8
0
  6
BYBLOCK
 62
     0
100
AcDbLine
 10
-1.0
 20
0.267949
 30
0.0
 11
0.0
 21
0.0
 31
0.0
  0
LINE
  5
58DC
330
58DA
100
AcDbEntity
  8
0
  6
BYBLOCK
 62
     0
100
AcDbLine
 10
0.0
 20
0.0
 30
0.0
 11
-1.0
 21
-0.267949
 31
0.0
  0
LINE
  5
58DD
330
58DA
100
AcDbEntity
  8
0
  6
BYBLOCK
 62
     0
100
AcDbLine
 10
0.0
 20
0.0
 30
0.0
 11
-1.0
 21
0.0
 31
0.0
  0
ENDBLK
  5
58DF
330
58DA
100
AcDbEntity
  8
0
100
AcDbBlockEnd
  0
BLOCK
  5
5DAF
330
5DA5
100
AcDbEntity
  8
0
100
AcDbBlockBegin
  2
*D22
 70
     1
 10
0.0
 20
0.0
 30
0.0
  3
*D22
  1

  0
LINE
  5
6EE8
330
5DA5
100
AcDbEntity
  8
5
100
AcDbLine
 10
-56.26939731239781
 20
699.4441283176037
 30
0.0
 11
-206.4804807517024
 21
699.4441283176037
 31
0.0
  0
LINE
  5
6EE9
330
5DA5
100
AcDbEntity
  8
5
100
AcDbLine
 10
-56.26939731239781
 20
59.44412831760383
 30
0.0
 11
-206.4804807517025
 21
59.44412831760386
 31
0.0
  0
LINE
  5
6EEA
330
5DA5
100
AcDbEntity
  8
5
100
AcDbLine
 10
-201.4804807517024
 20
684.4441283176037
 30
0.0
 11
-201.4804807517025
 21
74.44412831760387
 31
0.0
  0
INSERT
  5
6EEB
330
5DA5
100
AcDbEntity
  8
5
100
AcDbBlockReference
  2
_OPEN
 10
-201.4804807517024
 20
699.4441283176037
 30
0.0
 41
15.0
 42
15.0
 43
15.0
 50
90.0
  0
INSERT
  5
6EEC
330
5DA5
100
AcDbEntity
  8
5
100
AcDbBlockReference
  2
_OPEN
 10
-201.4804807517025
 20
59.44412831760386
 30
0.0
 41
15.0
 42
15.0
 43
15.0
 50
270.0
  0
MTEXT
  5
6EED
330
5DA5
100
AcDbEntity
  8
5
100
AcDbMText
 10
-217.7304807517025
 20
379.4441283176037
 30
0.0
 40
17.5
 41
0.0
 71
     5
 72
     1
  1
640
 11
0.0000000000000001
 21
1.0
 31
0.0
1001
ACAD
1000
MTEXTBEGIN
1070
    73
1070
     1
1070
    44
1040
1.0
1070
    74
1070
     0
1000
MTEXTEND
  0
POINT
  5
6EEE
330
5DA5
100
AcDbEntity
  8
DEFPOINTS
 62
     0
100
AcDbPoint
 10
-51.26939731239781
 20
699.4441283176037
 30
0.0
  0
POINT
  5
6EEF
330
5DA5
100
AcDbEntity
  8
DEFPOINTS
 62
     0
100
AcDbPoint
 10
-51.26939731239781
 20
59.44412831760383
 30
0.0
  0
POINT
  5
6EF0
330
5DA5
100
AcDbEntity
  8
DEFPOINTS
 62
     0
100
AcDbPoint
 10
-201.4804807517025
 20
59.44412831760386
 30
0.0
  0
ENDBLK
  5
5DB0
330
5DA5
100
AcDbEntity
  8
0
100
AcDbBlockEnd
  0
BLOCK
  5
5DBC
330
5DB2
100
AcDbEntity
  8
0
100
AcDbBlockBegin
  2
*D23
 70
     1
 10
0.0
 20
0.0
 30
0.0
  3
*D23
  1

  0
LINE
  5
6E66
330
5DB2
100
AcDbEntity
  8
5
100
AcDbLine
 10
-56.26939731239781
 20
699.4441283176037
 30
0.0
 11
-148.1111089056214
 21
699.4441283176037
 31
0.0
  0
LINE
  5
6E67
330
5DB2
100
AcDbEntity
  8
5
100
AcDbLine
 10
-71.69636365352791
 20
379.4441283176043
 30
0.0
 11
-148.1111089056216
 21
379.4441283176043
 31
0.0
  0
LINE
  5
6E68
330
5DB2
100
AcDbEntity
  8
5
100
AcDbLine
 10
-143.1111089056214
 20
684.4441283176037
 30
0.0
 11
-143.1111089056216
 21
394.4441283176042
 31
0.0
  0
INSERT
  5
6E69
330
5DB2
100
AcDbEntity
  8
5
100
AcDbBlockReference
  2
_OPEN
 10
-143.1111089056214
 20
699.4441283176037
 30
0.0
 41
15.0
 42
15.0
 43
15.0
 50
90.0
  0
INSERT
  5
6E6A
330
5DB2
100
AcDbEntity
  8
5
100
AcDbBlockReference
  2
_OPEN
 10
-143.1111089056216
 20
379.4441283176043
 30
0.0
 41
15.0
 42
15.0
 43
15.0
 50
270.0
  0
MTEXT
  5
6E6B
330
5DB2
100
AcDbEntity
  8
5
100
AcDbMText
 10
-159.3628313465664
 20
539.4441283176039
 30
0.0
 40
17.5
 41
0.0
 71
     5
 72
     1
  1
320
 11
0.0000000000000001
 21
1.0
 31
0.0
1001
ACAD
1000
MTEXTBEGIN
1070
    73
1070
     1
1070
    44
1040
1.0
1070
    74
1070
     0
1000
MTEXTEND
  0
POINT
  5
6E6C
330
5DB2
100
AcDbEntity
  8
DEFPOINTS
 62
     0
100
AcDbPoint
 10
-51.26939731239781
 20
699.4441283176037
 30
0.0
  0
POINT
  5
6E6D
330
5DB2
100
AcDbEntity
  8
DEFPOINTS
 62
     0
100
AcDbPoint
 10
-66.6963636535279
 20
379.4441283176043
 30
0.0
  0
POINT
  5
6E6E
330
5DB2
100
AcDbEntity
  8
DEFPOINTS
 62
     0
100
AcDbPoint
 10
-143.1111089056216
 20
379.4441283176043
 30
0.0
  0
ENDBLK
  5
5DBD
330
5DB2
100
AcDbEntity
  8
0
100
AcDbBlockEnd
  0
BLOCK
  5
5DDB
330
5DD1
100
AcDbEntity
  8
0
100
AcDbBlockBegin
  2
*D24
 70
     1
 10
0.0
 20
0.0
 30
0.0
  3
*D24
  1

  0
LINE
  5
6E54
330
5DD1
100
AcDbEntity
  8
5
100
AcDbLine
 10
-71.69636365352791
 20
379.4441283176043
 30
0.0
 11
-148.1111089056214
 21
379.4441283176043
 31
0.0
  0
LINE
  5
6E55
330
5DD1
100
AcDbEntity
  8
5
100
AcDbLine
 10
-56.26939731239781
 20
59.44412831760383
 30
0.0
 11
-148.1111089056216
 21
59.44412831760385
 31
0.0
  0
LINE
  5
6E56
330
5DD1
100
AcDbEntity
  8
5
100
AcDbLine
 10
-143.1111089056214
 20
364.4441283176043
 30
0.0
 11
-143.1111089056214
 21
74.44412831760384
 31
0.0
  0
INSERT
  5
6E57
330
5DD1
100
AcDbEntity
  8
5
100
AcDbBlockReference
  2
_OPEN
 10
-143.1111089056214
 20
379.4441283176043
 30
0.0
 41
15.0
 42
15.0
 43
15.0
 50
90.0
  0
INSERT
  5
6E58
330
5DD1
100
AcDbEntity
  8
5
100
AcDbBlockReference
  2
_OPEN
 10
-143.1111089056216
 20
59.44412831760384
 30
0.0
 41
15.0
 42
15.0
 43
15.0
 50
270.0
  0
MTEXT
  5
6E59
330
5DD1
100
AcDbEntity
  8
5
100
AcDbMText
 10
-159.3628313465664
 20
219.4441283176039
 30
0.0
 40
17.5
 41
0.0
 71
     5
 72
     1
  1
320
 11
0.0000000000000001
 21
1.0
 31
0.0
1001
ACAD
1000
MTEXTBEGIN
1070
    73
1070
     1
1070
    44
1040
1.0
1070
    74
1070
     0
1000
MTEXTEND
  0
POINT
  5
6E5A
330
5DD1
100
AcDbEntity
  8
DEFPOINTS
 62
     0
100
AcDbPoint
 10
-66.6963636535279
 20
379.4441283176043
 30
0.0
  0
POINT
  5
6E5B
330
5DD1
100
AcDbEntity
  8
DEFPOINTS
 62
     0
100
AcDbPoint
 10
-51.26939731239781
 20
59.44412831760383
 30
0.0
  0
POINT
  5
6E5C
330
5DD1
100
AcDbEntity
  8
DEFPOINTS
 62
     0
100
AcDbPoint
 10
-143.1111089056216
 20
59.44412831760384
 30
0.0
  0
ENDBLK
  5
5DDC
330
5DD1
100
AcDbEntity
  8
0
100
AcDbBlockEnd
  0
BLOCK
  5
5DE8
330
5DDE
100
AcDbEntity
  8
0
100
AcDbBlockBegin
  2
*D25
 70
     1
 10
0.0
 20
0.0
 30
0.0
  3
*D25
  1

  0
LINE
  5
6E78
330
5DDE
100
AcDbEntity
  8
5
100
AcDbLine
 10
-36.26939731239781
 20
649.4441283176037
 30
0.0
 11
-36.26939731239779
 21
757.0950308165072
 31
0.0
  0
LINE
  5
6E79
330
5DDE
100
AcDbEntity
  8
5
100
AcDbLine
 10
653.7306026876012
 20
649.4441283176037
 30
0.0
 11
653.7306026876012
 21
757.0950308165072
 31
0.0
  0
LINE
  5
6E7A
330
5DDE
100
AcDbEntity
  8
5
100
AcDbLine
 10
-21.2693973123978
 20
752.0950308165072
 30
0.0
 11
638.7306026876013
 21
752.0950308165072
 31
0.0
  0
INSERT
  5
6E7B
330
5DDE
100
AcDbEntity
  8
5
100
AcDbBlockReference
  2
_OPEN
 10
-36.26939731239779
 20
752.0950308165072
 30
0.0
 41
15.0
 42
15.0
 43
15.0
 50
180.0
  0
INSERT
  5
6E7C
330
5DDE
100
AcDbEntity
  8
5
100
AcDbBlockReference
  2
_OPEN
 10
653.7306026876012
 20
752.0950308165072
 30
0.0
 41
15.0
 42
15.0
 43
15.0
  0
MTEXT
  5
6E7D
330
5DDE
100
AcDbEntity
  8
5
100
AcDbMText
 10
308.7306026876016
 20
768.3450308165072
 30
0.0
 40
17.5
 41
0.0
 71
     5
 72
     1
  1
690
1001
ACAD
1000
MTEXTBEGIN
1070
    73
1070
     1
1070
    44
1040
1.0
1070
    74
1070
     0
1000
MTEXTEND
  0
POINT
  5
6E7E
330
5DDE
100
AcDbEntity
  8
DEFPOINTS
 62
     0
100
AcDbPoint
 10
-36.26939731239781
 20
644.4441283176037
 30
0.0
  0
POINT
  5
6E7F
330
5DDE
100
AcDbEntity
  8
DEFPOINTS
 62
     0
100
AcDbPoint
 10
653.7306026876012
 20
644.4441283176037
 30
0.0
  0
POINT
  5
6E80
330
5DDE
100
AcDbEntity
  8
DEFPOINTS
 62
     0
100
AcDbPoint
 10
653.7306026876012
 20
752.0950308165072
 30
0.0
  0
ENDBLK
  5
5DE9
330
5DDE
100
AcDbEntity
  8
0
100
AcDbBlockEnd
  0
BLOCK
  5
5E0B
330
5E01
100
AcDbEntity
  8
0
100
AcDbBlockBegin
  2
*D26
 70
     1
 10
0.0
 20
0.0
 30
0.0
  3
*D26
  1

  0
LINE
  5
6E6F
330
5E01
100
AcDbEntity
  8
5
100
AcDbLine
 10
678.7306026876012
 20
694.4441283176037
 30
0.0
 11
678.7306026876012
 21
804.4461387286418
 31
0.0
  0
LINE
  5
6E70
330
5E01
100
AcDbEntity
  8
5
100
AcDbLine
 10
-61.26939731239827
 20
694.4441283176037
 30
0.0
 11
-61.26939731239826
 21
804.4461387286418
 31
0.0
  0
LINE
  5
6E71
330
5E01
100
AcDbEntity
  8
5
100
AcDbLine
 10
663.7306026876013
 20
799.4461387286418
 30
0.0
 11
-46.26939731239826
 21
799.4461387286418
 31
0.0
  0
INSERT
  5
6E72
330
5E01
100
AcDbEntity
  8
5
100
AcDbBlockReference
  2
_OPEN
 10
678.7306026876012
 20
799.4461387286418
 30
0.0
 41
15.0
 42
15.0
 43
15.0
  0
INSERT
  5
6E73
330
5E01
100
AcDbEntity
  8
5
100
AcDbBlockReference
  2
_OPEN
 10
-61.26939731239826
 20
799.4461387286418
 30
0.0
 41
15.0
 42
15.0
 43
15.0
 50
180.0
  0
MTEXT
  5
6E74
330
5E01
100
AcDbEntity
  8
5
100
AcDbMText
 10
308.7306026876015
 20
815.6961387286418
 30
0.0
 40
17.5
 41
0.0
 71
     5
 72
     1
  1
740
1001
ACAD
1000
MTEXTBEGIN
1070
    73
1070
     1
1070
    44
1040
1.0
1070
    74
1070
     0
1000
MTEXTEND
  0
POINT
  5
6E75
330
5E01
100
AcDbEntity
  8
DEFPOINTS
 62
     0
100
AcDbPoint
 10
678.7306026876012
 20
689.4441283176035
 30
0.0
  0
POINT
  5
6E76
330
5E01
100
AcDbEntity
  8
DEFPOINTS
 62
     0
100
AcDbPoint
 10
-61.26939731239827
 20
689.4441283176035
 30
0.0
  0
POINT
  5
6E77
330
5E01
100
AcDbEntity
  8
DEFPOINTS
 62
     0
100
AcDbPoint
 10
-61.26939731239826
 20
799.4461387286418
 30
0.0
  0
ENDBLK
  5
5E0C
330
5E01
100
AcDbEntity
  8
0
100
AcDbBlockEnd
  0
BLOCK
  5
5E21
330
5E17
100
AcDbEntity
  8
0
100
AcDbBlockBegin
  2
*D27
 70
     1
 10
0.0
 20
0.0
 30
0.0
  3
*D27
  1

  0
LINE
  5
6E90
330
5E17
100
AcDbEntity
  8
5
100
AcDbLine
 10
628.7306026876012
 20
674.4441283176037
 30
0.0
 11
770.9594226095454
 21
674.4441283176036
 31
0.0
  0
LINE
  5
6E91
330
5E17
100
AcDbEntity
  8
5
100
AcDbLine
 10
628.7306026876012
 20
84.44412831760383
 30
0.0
 11
770.9594226095454
 21
84.44412831760379
 31
0.0
  0
LINE
  5
6E92
330
5E17
100
AcDbEntity
  8
5
100
AcDbLine
 10
765.9594226095454
 20
659.4441283176037
 30
0.0
 11
765.9594226095454
 21
99.44412831760381
 31
0.0
  0
INSERT
  5
6E93
330
5E17
100
AcDbEntity
  8
5
100
AcDbBlockReference
  2
_OPEN
 10
765.9594226095454
 20
674.4441283176037
 30
0.0
 41
15.0
 42
15.0
 43
15.0
 50
90.0
  0
INSERT
  5
6E94
330
5E17
100
AcDbEntity
  8
5
100
AcDbBlockReference
  2
_OPEN
 10
765.9594226095454
 20
84.44412831760379
 30
0.0
 41
15.0
 42
15.0
 43
15.0
 50
270.0
  0
MTEXT
  5
6E95
330
5E17
100
AcDbEntity
  8
5
100
AcDbMText
 10
749.7094226095454
 20
379.4441283176038
 30
0.0
 40
17.5
 41
0.0
 71
     5
 72
     1
  1
590
 11
0.0000000000000001
 21
1.0
 31
0.0
1001
ACAD
1000
MTEXTBEGIN
1070
    73
1070
     1
1070
    44
1040
1.0
1070
    74
1070
     0
1000
MTEXTEND
  0
POINT
  5
6E96
330
5E17
100
AcDbEntity
  8
DEFPOINTS
 62
     0
100
AcDbPoint
 10
623.7306026876012
 20
674.4441283176037
 30
0.0
  0
POINT
  5
6E97
330
5E17
100
AcDbEntity
  8
DEFPOINTS
 62
     0
100
AcDbPoint
 10
623.7306026876012
 20
84.44412831760383
 30
0.0
  0
POINT
  5
6E98
330
5E17
100
AcDbEntity
  8
DEFPOINTS
 62
     0
100
AcDbPoint
 10
765.9594226095454
 20
84.44412831760379
 30
0.0
  0
ENDBLK
  5
5E22
330
5E17
100
AcDbEntity
  8
0
100
AcDbBlockEnd
  0
BLOCK
  5
5E2E
330
5E24
100
AcDbEntity
  8
0
100
AcDbBlockBegin
  2
*D28
 70
     1
 10
0.0
 20
0.0
 30
0.0
  3
*D28
  1

  0
LINE
  5
6EA4
330
5E24
100
AcDbEntity
  8
5
100
AcDbLine
 10
670.9807291657779
 20
-25.2996650791124
 30
0.0
 11
775.6044631289146
 21
-25.29966507911241
 31
0.0
  0
LINE
  5
6EA5
330
5E24
100
AcDbEntity
  8
5
100
AcDbLine
 10
680.5813935736077
 20
-85.29966507911288
 30
0.0
 11
775.6044631289146
 21
-85.29966507911288
 31
0.0
  0
LINE
  5
6EA6
330
5E24
100
AcDbEntity
  8
5
100
AcDbLine
 10
770.6044631289146
 20
-40.29966507911242
 30
0.0
 11
770.6044631289146
 21
-70.29966507911288
 31
0.0
  0
INSERT
  5
6EA7
330
5E24
100
AcDbEntity
  8
5
100
AcDbBlockReference
  2
_OPEN
 10
770.6044631289146
 20
-25.29966507911241
 30
0.0
 41
15.0
 42
15.0
 43
15.0
 50
90.0
  0
INSERT
  5
6EA8
330
5E24
100
AcDbEntity
  8
5
100
AcDbBlockReference
  2
_OPEN
 10
770.6044631289146
 20
-85.29966507911288
 30
0.0
 41
15.0
 42
15.0
 43
15.0
 50
270.0
  0
MTEXT
  5
6EA9
330
5E24
100
AcDbEntity
  8
5
100
AcDbMText
 10
754.3544631289146
 20
-55.29966507911254
 30
0.0
 40
17.5
 41
0.0
 71
     5
 72
     1
  1
60
 11
0.0000000000000001
 21
1.0
 31
0.0
1001
ACAD
1000
MTEXTBEGIN
1070
    73
1070
     1
1070
    44
1040
1.0
1070
    74
1070
     0
1000
MTEXTEND
  0
POINT
  5
6EAA
330
5E24
100
AcDbEntity
  8
DEFPOINTS
 62
     0
100
AcDbPoint
 10
665.9807291657779
 20
-25.2996650791124
 30
0.0
  0
POINT
  5
6EAB
330
5E24
100
AcDbEntity
  8
DEFPOINTS
 62
     0
100
AcDbPoint
 10
675.5813935736077
 20
-85.29966507911288
 30
0.0
  0
POINT
  5
6EAC
330
5E24
100
AcDbEntity
  8
DEFPOINTS
 62
     0
100
AcDbPoint
 10
770.6044631289146
 20
-85.29966507911288
 30
0.0
  0
ENDBLK
  5
5E2F
330
5E24
100
AcDbEntity
  8
0
100
AcDbBlockEnd
  0
BLOCK
  5
5E3D
330
5E31
100
AcDbEntity
  8
0
100
AcDbBlockBegin
  2
*D29
 70
     1
 10
0.0
 20
0.0
 30
0.0
  3
*D29
  1

  0
LINE
  5
6EB8
330
5E31
100
AcDbEntity
  8
5
100
AcDbLine
 10
655.5813935736077
 20
-20.16980924892707
 30
0.0
 11
655.5813935736077
 21
49.24823597803445
 31
0.0
  0
LINE
  5
6EB9
330
5E31
100
AcDbEntity
  8
5
100
AcDbLine
 10
675.5813935736092
 20
-80.29966507911288
 30
0.0
 11
675.5813935736092
 21
49.24823597803445
 31
0.0
  0
LINE
  5
6EBA
330
5E31
100
AcDbEntity
  8
5
100
AcDbLine
 10
640.5813935736078
 20
44.24823597803444
 30
0.0
 11
625.5813935736077
 21
44.24823597803444
 31
0.0
  0
LINE
  5
6EBB
330
5E31
100
AcDbEntity
  8
5
100
AcDbLine
 10
690.5813935736092
 20
44.24823597803444
 30
0.0
 11
740.2895628649478
 21
44.24823597803444
 31
0.0
  0
LINE
  5
6EBC
330
5E31
100
AcDbEntity
  8
5
100
AcDbLine
 10
655.5813935736077
 20
44.24823597803444
 30
0.0
 11
675.5813935736092
 21
44.24823597803444
 31
0.0
  0
INSERT
  5
6EBD
330
5E31
100
AcDbEntity
  8
5
100
AcDbBlockReference
  2
_OPEN
 10
655.5813935736077
 20
44.24823597803444
 30
0.0
 41
15.0
 42
15.0
 43
15.0
  0
INSERT
  5
6EBE
330
5E31
100
AcDbEntity
  8
5
100
AcDbBlockReference
  2
_OPEN
 10
675.5813935736092
 20
44.24823597803444
 30
0.0
 41
15.0
 42
15.0
 43
15.0
 50
180.0
  0
MTEXT
  5
6EBF
330
5E31
100
AcDbEntity
  8
5
100
AcDbMText
 10
722.9354782192785
 20
60.49995841897934
 30
0.0
 40
17.5
 41
0.0
 71
     5
 72
     1
  1
20
1001
ACAD
1000
MTEXTBEGIN
1070
    73
1070
     1
1070
    44
1040
1.0
1070
    74
1070
     0
1000
MTEXTEND
  0
POINT
  5
6EC0
330
5E31
100
AcDbEntity
  8
DEFPOINTS
 62
     0
100
AcDbPoint
 10
655.5813935736077
 20
-25.16980924892707
 30
0.0
  0
POINT
  5
6EC1
330
5E31
100
AcDbEntity
  8
DEFPOINTS
 62
     0
100
AcDbPoint
 10
675.5813935736092
 20
-85.29966507911288
 30
0.0
  0
POINT
  5
6EC2
330
5E31
100
AcDbEntity
  8
DEFPOINTS
 62
     0
100
AcDbPoint
 10
675.5813935736092
 20
44.24823597803444
 30
0.0
  0
ENDBLK
  5
5E3E
330
5E31
100
AcDbEntity
  8
0
100
AcDbBlockEnd
  0
BLOCK
  5
5F3D
330
5F3A
100
AcDbEntity
  8
0
100
AcDbBlockBegin
  2
GENDOT
 70
     0
 10
0.0
 20
0.0
 30
0.0
  3
GENDOT
  1

  0
LINE
  5
5F3B
330
5F3A
100
AcDbEntity
  8
0
100
AcDbLine
 10
0.0
 20
0.0
 30
0.0
 11
-1.0
 21
0.0
 31
0.0
  0
LWPOLYLINE
  5
5F3C
330
5F3A
100
AcDbEntity
  8
0
100
AcDbPolyline
 90
        2
 70
     1
 43
0.25
 10
-0.125
 20
0.0
 42
1.0
 10
0.125
 20
0.0
 42
1.0
  0
ENDBLK
  5
5F3E
330
5F3A
100
AcDbEntity
  8
0
100
AcDbBlockEnd
  0
BLOCK
  5
6C2D
330
6C26
100
AcDbEntity
  8
0
100
AcDbBlockBegin
  2
*D31
 70
     1
 10
0.0
 20
0.0
 30
0.0
  3
*D31
  1

  0
LINE
  5
6ECF
330
6C26
100
AcDbEntity
  8
5
  6
CONTINUOUS
100
AcDbLine
 10
126.1159788182687
 20
416.9244343530751
 30
0.0
 11
158.9535143275825
 21
436.0399688782123
 31
0.0
  0
LINE
  5
6ED0
330
6C26
100
AcDbEntity
  8
5
  6
CONTINUOUS
100
AcDbLine
 10
158.9535143275825
 20
436.0399688782123
 30
0.0
 11
207.9564002101133
 21
436.0399688782123
 31
0.0
  0
INSERT
  5
6ED1
330
6C26
100
AcDbEntity
  8
5
  6
CONTINUOUS
100
AcDbBlockReference
  2
_OPEN
 10
113.15248026847
 20
409.378064010363
 30
0.0
 41
15.0
 42
15.0
 43
15.0
 50
210.2047341010528
  0
MTEXT
  5
6ED2
330
6C26
100
AcDbEntity
  8
5
  6
CONTINUOUS
100
AcDbMText
 10
187.2049572688479
 20
452.2899688782123
 30
0.0
 40
17.5
 41
0.0
 71
     5
 72
     1
  1
%%C119
1001
ACAD
1000
MTEXTBEGIN
1070
    73
1070
     1
1070
    44
1040
1.0
1070
    74
1070
     0
1000
MTEXTEND
  0
POINT
  5
6ED3
330
6C26
100
AcDbEntity
  8
DEFPOINTS
  6
CONTINUOUS
 62
     0
100
AcDbPoint
 10
113.15248026847
 20
409.378064010363
 30
0.0
  0
POINT
  5
6ED4
330
6C26
100
AcDbEntity
  8
DEFPOINTS
  6
CONTINUOUS
 62
     0
100
AcDbPoint
 10
10.30872510673316
 20
349.5101926248459
 30
0.0
  0
ENDBLK
  5
6C2E
330
6C26
100
AcDbEntity
  8
0
100
AcDbBlockEnd
  0
BLOCK
  5
6C3B
330
6C31
100
AcDbEntity
  8
0
100
AcDbBlockBegin
  2
*D32
 70
     1
 10
0.0
 20
0.0
 30
0.0
  3
*D32
  1

  0
LINE
  5
6E81
330
6C31
100
AcDbEntity
  8
5
100
AcDbLine
 10
-61.26939731239827
 20
384.4441283176042
 30
0.0
 11
-61.26939731239826
 21
526.6873123754987
 31
0.0
  0
LINE
  5
6E82
330
6C31
100
AcDbEntity
  8
5
100
AcDbLine
 10
61.73060268760173
 20
384.4441283176042
 30
0.0
 11
61.73060268760174
 21
526.6873123754987
 31
0.0
  0
LINE
  5
6E83
330
6C31
100
AcDbEntity
  8
5
100
AcDbLine
 10
-46.26939731239826
 20
521.6873123754988
 30
0.0
 11
46.73060268760173
 21
521.6873123754988
 31
0.0
  0
INSERT
  5
6E84
330
6C31
100
AcDbEntity
  8
5
100
AcDbBlockReference
  2
_OPEN
 10
-61.26939731239826
 20
521.6873123754988
 30
0.0
 41
15.0
 42
15.0
 43
15.0
 50
180.0
  0
INSERT
  5
6E85
330
6C31
100
AcDbEntity
  8
5
100
AcDbBlockReference
  2
_OPEN
 10
61.73060268760174
 20
521.6873123754988
 30
0.0
 41
15.0
 42
15.0
 43
15.0
  0
MTEXT
  5
6E86
330
6C31
100
AcDbEntity
  8
5
100
AcDbMText
 10
0.2306026876017394
 20
537.9390348164434
 30
0.0
 40
17.5
 41
0.0
 71
     5
 72
     1
  1
123
1001
ACAD
1000
MTEXTBEGIN
1070
    73
1070
     1
1070
    44
1040
1.0
1070
    74
1070
     0
1000
MTEXTEND
  0
POINT
  5
6E87
330
6C31
100
AcDbEntity
  8
DEFPOINTS
 62
     0
100
AcDbPoint
 10
-61.26939731239827
 20
379.4441283176043
 30
0.0
  0
POINT
  5
6E88
330
6C31
100
AcDbEntity
  8
DEFPOINTS
 62
     0
100
AcDbPoint
 10
61.73060268760173
 20
379.4441283176043
 30
0.0
  0
POINT
  5
6E89
330
6C31
100
AcDbEntity
  8
DEFPOINTS
 62
     0
100
AcDbPoint
 10
61.73060268760174
 20
521.6873123754988
 30
0.0
  0
ENDBLK
  5
6C3C
330
6C31
100
AcDbEntity
  8
0
100
AcDbBlockEnd
  0
ENDSEC
  0
SECTION
  2
ENTITIES
  0
LINE
  5
9C9
330
18
100
AcDbEntity
  8
補助線
100
AcDbLine
 10
-23.86111867351121
 20
-109.9927964534874
 30
0.0
 11
-23.86111867351121
 21
-94.99279645348769
 31
0.0
  0
LINE
  5
27F5
330
18
100
AcDbEntity
  8
補助線
100
AcDbLine
 10
-43.86111867351117
 20
-106.2427964534874
 30
0.0
 11
-8.861118673511157
 21
-106.2427964534874
 31
0.0
  0
LINE
  5
27FB
330
18
100
AcDbEntity
  8
補助線
100
AcDbLine
 10
-43.86111867351117
 20
-98.74279645348769
 30
0.0
 11
-8.861118673511157
 21
-98.74279645348769
 31
0.0
  0
LWPOLYLINE
  5
3911
330
18
100
AcDbEntity
  8
最小図面
100
AcDbPolyline
 90
        4
 70
     1
 43
0.0
 10
-271.7811186678082
 20
-109.9927968984544
 10
-271.7811186678082
 20
847.6072031015451
 10
1042.818881332192
 20
847.6072031015451
 10
1042.818881332192
 20
-109.9927968984548
1001
GENIUS_GENREC_14
1002
{
1000
PYDIR
1011
1042.818881332192
1021
-109.9927968984545
1031
0.0
1002
}
1002
{
1000
PXDIR
1011
-271.7811186678082
1021
847.6072031015451
1031
0.0
1002
}
1002
{
1000
PORI
1011
-271.7811186678082
1021
-109.9927968984544
1031
0.0
1002
}
1002
{
1000
PINS
1011
-271.7811186678082
1021
-109.9927968984544
1031
0.0
1002
}
1002
{
1000
PINS2
1011
1042.818881332192
1021
847.6072031015451
1031
0.0
1002
}
1002
{
1000
C
1070
     1
1002
}
1001
GENIUS_GENODEF_13
1002
{
1000
HIER
1070
     0
1002
}
1002
{
1000
MANEDIT
1070
     0
1002
}
1002
{
1000
NOSEL
1070
     0
1002
}
1002
{
1000
BEHIND
1070
     0
1002
}
1002
{
1000
OTHER
1070
     0
1002
}
1002
{
1000
REACTOR
1002
}
1001
GENIUS_GENOBJ-N-REC_13
1002
{
1000
OWNER
1000
GEN
1002
}
  0
LINE
  5
39BA
330
18
100
AcDbEntity
  8
最小図面
100
AcDbLine
 10
1042.818881332192
 20
-72.49279645348756
 30
0.0
 11
1042.818881326489
 21
40.00720354651242
 31
0.0
  0
LINE
  5
39BB
330
18
100
AcDbEntity
  8
最小図面
100
AcDbLine
 10
867.8188813264888
 20
-72.49279689845479
 30
0.0
 11
1042.818881326489
 21
-72.49279689845479
 31
0.0
  0
LINE
  5
5711
330
18
100
AcDbEntity
  8
最小図面
100
AcDbLine
 10
867.8188813321916
 20
-109.9927964534874
 30
0.0
 11
1042.818881332192
 21
-109.9927964534874
 31
0.0
  0
LINE
  5
5712
330
18
100
AcDbEntity
  8
最小図面
100
AcDbLine
 10
867.8188813321916
 20
-72.49279645348756
 30
0.0
 11
1042.818881332192
 21
-72.49279645348756
 31
0.0
  0
TEXT
  5
5713
330
18
100
AcDbEntity
  8
最小図面
100
AcDbText
 10
873.3188813321916
 20
-108.2427960085202
 30
0.0
 40
15.0
  1
番
 72
     1
 11
880.3188813321916
 21
-100.7427960085202
 31
0.0
100
AcDbText
 73
     2
  0
TEXT
  5
5714
330
18
100
AcDbEntity
  8
最小図面
100
AcDbText
 10
873.3188813321916
 20
-88.24279645348759
 30
0.0
 40
15.0
  1
品
 72
     1
 11
880.3188813321916
 21
-80.74279645348759
 31
0.0
100
AcDbText
 73
     2
  0
LINE
  5
5715
330
18
100
AcDbEntity
  8
最小図面
  6
CONTINUOUS
100
AcDbLine
 10
867.8188813321916
 20
-72.49279645348756
 30
0.0
 11
867.8188813321916
 21
-109.9927968984545
 31
0.0
  0
LINE
  5
5716
330
18
100
AcDbEntity
  8
最小図面
  6
CONTINUOUS
100
AcDbLine
 10
892.8188813321916
 20
-72.49279645348756
 30
0.0
 11
892.8188813321916
 21
-109.9927968984545
 31
0.0
  0
LINE
  5
5717
330
18
100
AcDbEntity
  8
最小図面
  6
CONTINUOUS
100
AcDbLine
 10
1042.818881334093
 20
-72.49279645348756
 30
0.0
 11
1042.818881332192
 21
-109.9927968984548
 31
0.0
  0
TEXT
  5
5719
330
18
100
AcDbEntity
  8
最小図面
100
AcDbText
 10
920.8188813321916
 20
-100.5869051635463
 30
0.0
 40
20.0
  1
MB7464
 72
     1
 11
967.8188813321916
 21
-90.58690516354635
 31
0.0
100
AcDbText
 73
     2
  0
CIRCLE
  5
5B4D
330
18
100
AcDbEntity
  8
0
  6
CONTINUOUS
 62
     7
100
AcDbCircle
 10
61.73060268760173
 20
379.4441283176043
 30
0.0
 40
59.49999999999999
  0
CIRCLE
  5
5B4E
330
18
100
AcDbEntity
  8
0
  6
CONTINUOUS
 62
     7
100
AcDbCircle
 10
61.73060268760173
 20
379.4441283176043
 30
0.0
 40
72.0
  0
LINE
  5
5B6C
330
18
100
AcDbEntity
  8
0
  6
CONTINUOUS
 62
     7
100
AcDbLine
 10
215.7392026876009
 20
487.0148874152683
 30
0.0
 11
-1.533222703722911
 21
487.0148874152683
 31
0.0
  0
LINE
  5
5B6D
330
18
100
AcDbEntity
  8
0
  6
CONTINUOUS
 62
     7
100
AcDbLine
 10
215.7392026876009
 20
271.8733692199401
 30
0.0
 11
-1.533222703722911
 21
271.8733692199401
 31
0.0
  0
LINE
  5
5B6F
330
18
100
AcDbEntity
  8
0
  6
CONTINUOUS
 62
     7
100
AcDbLine
 10
131.5813935736084
 20
-90.29966507911241
 30
0.0
 11
-14.41860642639221
 21
-90.29966507911241
 31
0.0
  0
LINE
  5
5B71
330
18
100
AcDbEntity
  8
0
  6
CONTINUOUS
 62
     7
100
AcDbLine
 10
665.9807291657779
 20
-25.29966507911284
 30
0.0
 11
-54.81794201856065
 21
-25.29966507911284
 31
0.0
  0
LINE
  5
5B74
330
18
100
AcDbEntity
  8
0
  6
CONTINUOUS
 62
     7
100
AcDbLine
 10
623.7306026876012
 20
84.44412831760383
 30
0.0
 11
-6.269397312397812
 21
84.44412831760383
 31
0.0
  0
LINE
  5
5B75
330
18
100
AcDbEntity
  8
0
  6
CONTINUOUS
 62
     7
100
AcDbLine
 10
623.7306026876012
 20
674.4441283176037
 30
0.0
 11
-6.269397312397812
 21
674.4441283176037
 31
0.0
  0
LINE
  5
5B78
330
18
100
AcDbEntity
  8
0
  6
CONTINUOUS
 62
     7
100
AcDbLine
 10
668.7306026876012
 20
699.4441283176037
 30
0.0
 11
-51.26939731239781
 21
699.4441283176037
 31
0.0
  0
LINE
  5
5B79
330
18
100
AcDbEntity
  8
0
  6
CONTINUOUS
 62
     7
100
AcDbLine
 10
668.7306026876012
 20
59.44412831760407
 30
0.0
 11
-51.26939731239781
 21
59.44412831760407
 31
0.0
  0
ARC
  5
5B7E
330
18
100
AcDbEntity
  8
0
  6
CONTINUOUS
 62
     7
100
AcDbCircle
 10
215.7392026876009
 20
221.8733692199401
 30
0.0
 40
50.0
100
AcDbArc
 50
0.000000000000007
 51
90.0
  0
ARC
  5
5B80
330
18
100
AcDbEntity
  8
0
  6
CONTINUOUS
 62
     7
100
AcDbCircle
 10
464.1283806906638
 20
221.8733692199401
 30
0.0
 40
50.0
100
AcDbArc
 50
90.0
 51
180.0
  0
LINE
  5
5B86
330
18
100
AcDbEntity
  8
0
  6
CONTINUOUS
 62
     7
100
AcDbLine
 10
653.7306026876012
 20
644.4441283176037
 30
0.0
 11
653.7306026876012
 21
114.4441283176037
 31
0.0
  0
LINE
  5
5B88
330
18
100
AcDbEntity
  8
0
  6
CONTINUOUS
 62
     7
100
AcDbLine
 10
678.7306026876012
 20
689.4441283176035
 30
0.0
 11
678.7306026876012
 21
69.44412831760383
 31
0.0
  0
LINE
  5
5B8E
330
18
100
AcDbEntity
  8
0
  6
CONTINUOUS
 62
     7
100
AcDbLine
 10
675.5813935736077
 20
-85.29966507911288
 30
0.0
 11
134.581393573608
 21
-85.29966507911288
 31
0.0
  0
LINE
  5
5B93
330
18
100
AcDbEntity
  8
0
  6
CONTINUOUS
 62
     7
100
AcDbLine
 10
675.5813935736092
 20
-85.29966507911288
 30
0.0
 11
670.9634579570026
 21
-29.88443767984369
 31
0.0
  0
ARC
  5
5B98
330
18
100
AcDbEntity
  8
0
  6
CONTINUOUS
 62
     7
100
AcDbCircle
 10
665.9807291657779
 20
-30.2996650791124
 30
0.0
 40
5.0
100
AcDbArc
 50
4.763641690727252
 51
90.0
  0
CIRCLE
  5
5BAA
330
18
100
AcDbEntity
  8
0
  6
CONTINUOUS
 62
     7
100
AcDbCircle
 10
658.7306026876013
 20
79.44412831760394
 30
0.0
 40
9.199999999999999
  0
ARC
  5
5BAC
330
18
100
AcDbEntity
  8
0
  6
CONTINUOUS
 62
     7
100
AcDbCircle
 10
668.7306026876012
 20
69.44412831760383
 30
0.0
 40
10.0
100
AcDbArc
 50
270.0
 51
0.000000000000007
  0
ARC
  5
5BB1
330
18
100
AcDbEntity
  8
0
  6
CONTINUOUS
 62
     7
100
AcDbCircle
 10
623.7306026876012
 20
114.4441283176037
 30
0.0
 40
30.0
100
AcDbArc
 50
270.0
 51
0.000000000000007
  0
ARC
  5
5C0A
330
18
100
AcDbEntity
  8
0
  6
CONTINUOUS
 62
     7
100
AcDbCircle
 10
131.5813935736084
 20
-87.29966507911241
 30
0.0
 40
3.0
100
AcDbArc
 50
270.0
 51
0.000000000000007
  0
LINE
  5
5C0E
330
18
100
AcDbEntity
  8
0
  6
CONTINUOUS
 62
     7
100
AcDbLine
 10
134.5813935736084
 20
-85.29966507911288
 30
0.0
 11
134.5813935736084
 21
-87.29966507911241
 31
0.0
  0
LINE
  5
5C13
330
18
100
AcDbEntity
  8
0
  6
CONTINUOUS
 62
     7
100
AcDbLine
 10
265.739202687601
 20
221.8733692199401
 30
0.0
 11
265.739202687601
 21
114.4441283176037
 31
0.0
  0
LINE
  5
5C14
330
18
100
AcDbEntity
  8
0
  6
CONTINUOUS
 62
     7
100
AcDbLine
 10
414.1283806906638
 20
221.8733692199401
 30
0.0
 11
414.1283806906638
 21
114.4441283176037
 31
0.0
  0
ARC
  5
5C15
330
18
100
AcDbEntity
  8
0
  6
CONTINUOUS
 62
     7
100
AcDbCircle
 10
384.1283806906639
 20
114.4441283176037
 30
0.0
 40
30.0
100
AcDbArc
 50
270.0
 51
0.000000000000007
  0
ARC
  5
5C16
330
18
100
AcDbEntity
  8
0
  6
CONTINUOUS
 62
     7
100
AcDbCircle
 10
295.7392026876011
 20
114.4441283176037
 30
0.0
 40
30.0
100
AcDbArc
 50
180.0
 51
270.0
  0
ARC
  5
5C5A
330
18
100
AcDbEntity
  8
0
  6
CONTINUOUS
 62
     7
100
AcDbCircle
 10
464.1283806906638
 20
537.0148874152683
 30
0.0
 40
50.0
100
AcDbArc
 50
180.0
 51
270.0
  0
LINE
  5
5C6A
330
18
100
AcDbEntity
  8
0
  6
CONTINUOUS
 62
     7
100
AcDbLine
 10
619.8603312087134
 20
487.0148874152683
 30
0.0
 11
464.1283806906638
 21
487.0148874152683
 31
0.0
  0
LINE
  5
5C6C
330
18
100
AcDbEntity
  8
0
  6
CONTINUOUS
 62
     7
100
AcDbLine
 10
619.8603312087134
 20
271.8733692199401
 30
0.0
 11
464.1283806906638
 21
271.8733692199401
 31
0.0
  0
LINE
  5
5C6D
330
18
100
AcDbEntity
  8
0
  6
CONTINUOUS
 62
     7
100
AcDbLine
 10
649.8603312087134
 20
379.4441283176043
 30
0.0
 11
649.8603312087134
 21
457.0148874152683
 31
0.0
  0
LINE
  5
5C6E
330
18
100
AcDbEntity
  8
0
  6
CONTINUOUS
 62
     7
100
AcDbLine
 10
649.8603312087134
 20
379.4441283176043
 30
0.0
 11
649.8603312087134
 21
301.8733692199401
 31
0.0
  0
ARC
  5
5C6F
330
18
100
AcDbEntity
  8
0
  6
CONTINUOUS
 62
     7
100
AcDbCircle
 10
619.8603312087134
 20
301.8733692199401
 30
0.0
 40
30.0
100
AcDbArc
 50
270.0
 51
0.000000000000007
  0
ARC
  5
5C72
330
18
100
AcDbEntity
  8
0
  6
CONTINUOUS
 62
     7
100
AcDbCircle
 10
619.8603312087134
 20
457.0148874152683
 30
0.0
 40
30.0
100
AcDbArc
 50
0.000000000000007
 51
90.0
  0
ARC
  5
5C7F
330
18
100
AcDbEntity
  8
0
  6
CONTINUOUS
 62
     7
100
AcDbCircle
 10
623.7306026876012
 20
644.4441283176037
 30
0.0
 40
30.0
100
AcDbArc
 50
0.000000000000007
 51
90.0
  0
CIRCLE
  5
5C8F
330
18
100
AcDbEntity
  8
0
  6
CONTINUOUS
 62
     7
100
AcDbCircle
 10
658.7306026876013
 20
679.4441283176037
 30
0.0
 40
9.199999999999999
  0
ARC
  5
5C92
330
18
100
AcDbEntity
  8
0
  6
CONTINUOUS
 62
     7
100
AcDbCircle
 10
668.7306026876012
 20
689.4441283176035
 30
0.0
 40
10.0
100
AcDbArc
 50
0.000000000000007
 51
90.0
  0
ARC
  5
5CD3
330
18
100
AcDbEntity
  8
0
  6
CONTINUOUS
 62
     7
100
AcDbCircle
 10
215.7392026876009
 20
537.0148874152683
 30
0.0
 40
50.0
100
AcDbArc
 50
270.0
 51
0.000000000000007
  0
ARC
  5
5CE4
330
18
100
AcDbEntity
  8
0
  6
CONTINUOUS
 62
     7
100
AcDbCircle
 10
295.7392026876011
 20
644.4441283176037
 30
0.0
 40
30.0
100
AcDbArc
 50
90.0
 51
180.0
  0
ARC
  5
5CE5
330
18
100
AcDbEntity
  8
0
  6
CONTINUOUS
 62
     7
100
AcDbCircle
 10
384.1283806906639
 20
644.4441283176047
 30
0.0
 40
30.0
100
AcDbArc
 50
0.000000000000007
 51
90.0
  0
LINE
  5
5CE6
330
18
100
AcDbEntity
  8
0
  6
CONTINUOUS
 62
     7
100
AcDbLine
 10
414.1283806906638
 20
537.0148874152683
 30
0.0
 11
414.1283806906638
 21
644.4441283176047
 31
0.0
  0
LINE
  5
5CEA
330
18
100
AcDbEntity
  8
0
  6
CONTINUOUS
 62
     7
100
AcDbLine
 10
265.739202687601
 20
644.4441283176037
 30
0.0
 11
265.739202687601
 21
537.0148874152683
 31
0.0
  0
LINE
  5
5D22
330
18
100
AcDbEntity
  8
0
  6
CONTINUOUS
 62
     7
100
AcDbLine
 10
-36.26939731239781
 20
644.4441283176037
 30
0.0
 11
-36.26939731239781
 21
114.4441283176037
 31
0.0
  0
LINE
  5
5D24
330
18
100
AcDbEntity
  8
0
  6
CONTINUOUS
 62
     7
100
AcDbLine
 10
-61.26939731239827
 20
689.4441283176035
 30
0.0
 11
-61.26939731239827
 21
69.44412831760383
 31
0.0
  0
LINE
  5
5D25
330
18
100
AcDbEntity
  8
0
  6
CONTINUOUS
 62
     7
100
AcDbLine
 10
-17.41860642639221
 20
-85.29966507911288
 30
0.0
 11
-64.41860642639174
 21
-85.29966507911288
 31
0.0
  0
ARC
  5
5D2F
330
18
100
AcDbEntity
  8
0
  6
CONTINUOUS
 62
     7
100
AcDbCircle
 10
-14.4186064263913
 20
-87.29966507911241
 30
0.0
 40
3.0
100
AcDbArc
 50
180.0
 51
270.0
  0
LINE
  5
5D33
330
18
100
AcDbEntity
  8
0
  6
CONTINUOUS
 62
     7
100
AcDbLine
 10
-17.4186064263913
 20
-85.29966507911288
 30
0.0
 11
-17.4186064263913
 21
-87.29966507911241
 31
0.0
  0
LINE
  5
5D39
330
18
100
AcDbEntity
  8
0
  6
CONTINUOUS
 62
     7
100
AcDbLine
 10
-64.41860642639174
 20
-85.29966507911252
 30
0.0
 11
-59.80067080978642
 21
-29.88443767984494
 31
0.0
  0
ARC
  5
5D3B
330
18
100
AcDbEntity
  8
0
  6
CONTINUOUS
 62
     7
100
AcDbCircle
 10
-54.81794201856111
 20
-30.2996650791124
 30
0.0
 40
5.0
100
AcDbArc
 50
90.0
 51
175.2363583092727
  0
CIRCLE
  5
5D41
330
18
100
AcDbEntity
  8
0
  6
CONTINUOUS
 62
     7
100
AcDbCircle
 10
-41.26939731239781
 20
79.44412831760394
 30
0.0
 40
9.199999999999999
  0
ARC
  5
5D49
330
18
100
AcDbEntity
  8
0
  6
CONTINUOUS
 62
     7
100
AcDbCircle
 10
-6.269397312397812
 20
114.4441283176037
 30
0.0
 40
30.0
100
AcDbArc
 50
180.0
 51
270.0
  0
ARC
  5
5D4B
330
18
100
AcDbEntity
  8
0
  6
CONTINUOUS
 62
     7
100
AcDbCircle
 10
-51.26939731239781
 20
69.44412831760383
 30
0.0
 40
10.0
100
AcDbArc
 50
180.0
 51
270.0
  0
LINE
  5
5D67
330
18
100
AcDbEntity
  8
0
  6
CONTINUOUS
 62
     7
100
AcDbLine
 10
-31.53322270372289
 20
457.0148874152683
 30
0.0
 11
-31.53322270372289
 21
379.4441283176049
 31
0.0
  0
LINE
  5
5D68
330
18
100
AcDbEntity
  8
0
  6
CONTINUOUS
 62
     7
100
AcDbLine
 10
-31.53322270372289
 20
301.8733692199401
 30
0.0
 11
-31.53322270372289
 21
379.4441283176035
 31
0.0
  0
POINT
  5
5D69
330
18
100
AcDbEntity
  8
ZUWAKU
  6
CONTINUOUS
 62
     5
100
AcDbPoint
 10
18.14662568474432
 20
263.8727183959324
 30
0.0
  0
ARC
  5
5D6A
330
18
100
AcDbEntity
  8
0
  6
CONTINUOUS
 62
     7
100
AcDbCircle
 10
-1.533222703722911
 20
301.8733692199401
 30
0.0
 40
30.0
100
AcDbArc
 50
180.0
 51
270.0
  0
ARC
  5
5D6C
330
18
100
AcDbEntity
  8
0
  6
CONTINUOUS
 62
     7
100
AcDbCircle
 10
-1.533222703722911
 20
457.0148874152683
 30
0.0
 40
30.0
100
AcDbArc
 50
90.0
 51
180.0
  0
ARC
  5
5D6F
330
18
100
AcDbEntity
  8
0
  6
CONTINUOUS
 62
     7
100
AcDbCircle
 10
-6.269397312397812
 20
644.4441283176037
 30
0.0
 40
30.0
100
AcDbArc
 50
90.0
 51
180.0
  0
CIRCLE
  5
5D89
330
18
100
AcDbEntity
  8
0
  6
CONTINUOUS
 62
     7
100
AcDbCircle
 10
-41.26939731239781
 20
679.4441283176037
 30
0.0
 40
9.199999999999999
  0
ARC
  5
5D90
330
18
100
AcDbEntity
  8
0
  6
CONTINUOUS
 62
     7
100
AcDbCircle
 10
-51.26939731239781
 20
689.4441283176035
 30
0.0
 40
10.0
100
AcDbArc
 50
90.0
 51
180.0
  0
DIMENSION
  5
5DA4
330
18
100
AcDbEntity
  8
5
100
AcDbDimension
  2
*D22
 10
-201.4804807517025
 20
59.44412831760386
 30
0.0
 11
-217.7304807517025
 21
379.4441283176037
 31
0.0
 70
    32
  3
GEN-ISO
100
AcDbAlignedDimension
 13
-51.26939731239781
 23
699.4441283176037
 33
0.0
 14
-51.26939731239781
 24
59.44412831760383
 34
0.0
 50
90.0
100
AcDbRotatedDimension
1001
ACAD
1000
DSTYLE
1002
{
1070
   178
1070
   256
1002
}
  0
DIMENSION
  5
5DB1
330
18
100
AcDbEntity
  8
5
100
AcDbDimension
  2
*D23
 10
-143.1111089056216
 20
379.4441283176043
 30
0.0
 11
-159.3628313465664
 21
539.4441283176039
 31
0.0
 70
    32
  3
GEN-ISO
100
AcDbAlignedDimension
 13
-51.26939731239781
 23
699.4441283176037
 33
0.0
 14
-66.6963636535279
 24
379.4441283176043
 34
0.0
 50
90.0
100
AcDbRotatedDimension
1001
ACAD
1000
DSTYLE
1002
{
1070
   178
1070
   256
1002
}
  0
DIMENSION
  5
5DD0
330
18
100
AcDbEntity
  8
5
100
AcDbDimension
  2
*D24
 10
-143.1111089056216
 20
59.44412831760384
 30
0.0
 11
-159.3628313465664
 21
219.4441283176039
 31
0.0
 70
    32
  3
GEN-ISO
100
AcDbAlignedDimension
 13
-66.6963636535279
 23
379.4441283176043
 33
0.0
 14
-51.26939731239781
 24
59.44412831760383
 34
0.0
 50
90.0
100
AcDbRotatedDimension
1001
ACAD
1000
DSTYLE
1002
{
1070
   178
1070
   256
1002
}
  0
DIMENSION
  5
5DDD
330
18
100
AcDbEntity
  8
5
100
AcDbDimension
  2
*D25
 10
653.7306026876012
 20
752.0950308165072
 30
0.0
 11
308.7306026876016
 21
768.3450308165072
 31
0.0
 70
    32
  3
GEN-ISO
100
AcDbAlignedDimension
 13
-36.26939731239781
 23
644.4441283176037
 33
0.0
 14
653.7306026876012
 24
644.4441283176037
 34
0.0
100
AcDbRotatedDimension
1001
ACAD
1000
DSTYLE
1002
{
1070
   178
1070
   256
1002
}
  0
DIMENSION
  5
5E00
330
18
100
AcDbEntity
  8
5
100
AcDbDimension
  2
*D26
 10
-61.26939731239826
 20
799.4461387286418
 30
0.0
 11
308.7306026876015
 21
815.6961387286418
 31
0.0
 70
    32
  3
GEN-ISO
100
AcDbAlignedDimension
 13
678.7306026876012
 23
689.4441283176035
 33
0.0
 14
-61.26939731239827
 24
689.4441283176035
 34
0.0
100
AcDbRotatedDimension
1001
ACAD
1000
DSTYLE
1002
{
1070
   178
1070
   256
1002
}
  0
DIMENSION
  5
5E16
330
18
100
AcDbEntity
  8
5
100
AcDbDimension
  2
*D27
 10
765.9594226095454
 20
84.44412831760379
 30
0.0
 11
749.7094226095454
 21
379.4441283176038
 31
0.0
 70
    32
  3
GEN-ISO
100
AcDbAlignedDimension
 13
623.7306026876012
 23
674.4441283176037
 33
0.0
 14
623.7306026876012
 24
84.44412831760383
 34
0.0
 50
90.0
100
AcDbRotatedDimension
1001
ACAD
1000
DSTYLE
1002
{
1070
   178
1070
   256
1002
}
  0
DIMENSION
  5
5E23
330
18
100
AcDbEntity
  8
5
100
AcDbDimension
  2
*D28
 10
770.6044631289146
 20
-85.29966507911288
 30
0.0
 11
754.3544631289146
 21
-55.29966507911254
 31
0.0
 70
    32
  3
GEN-ISO
100
AcDbAlignedDimension
 13
665.9807291657779
 23
-25.2996650791124
 33
0.0
 14
675.5813935736077
 24
-85.29966507911288
 34
0.0
 50
90.0
100
AcDbRotatedDimension
1001
ACAD
1000
DSTYLE
1002
{
1070
   178
1070
   256
1002
}
  0
DIMENSION
  5
5E30
330
18
100
AcDbEntity
  8
5
100
AcDbDimension
  2
*D29
 10
675.5813935736092
 20
44.24823597803444
 30
0.0
 11
722.9354782192785
 21
60.49995841897934
 31
0.0
 70
    32
  3
GEN-ISO
100
AcDbAlignedDimension
 13
655.5813935736077
 23
-25.16980924892707
 33
0.0
 14
675.5813935736092
 24
-85.29966507911288
 34
0.0
100
AcDbRotatedDimension
1001
ACAD
1000
DSTYLE
1002
{
1070
   178
1070
   256
1002
}
  0
DIMENSION
  5
6C25
330
18
100
AcDbEntity
  8
5
  6
CONTINUOUS
100
AcDbDimension
  2
*D31
 10
10.30872510673316
 20
349.5101926248459
 30
0.0
 11
187.2049572688479
 21
436.0399688782123
 31
0.0
 70
   163
  1
%%C<>
  3
GEN-ISO$3
100
AcDbDiametricDimension
 15
113.15248026847
 25
409.378064010363
 35
0.0
 40
0.0
1001
ACAD
1000
DSTYLE
1002
{
1070
   178
1070
   256
1002
}
  0
DIMENSION
  5
6C30
330
18
100
AcDbEntity
  8
5
100
AcDbDimension
  2
*D32
 10
61.73060268760174
 20
521.6873123754988
 30
0.0
 11
0.2306026876017394
 21
537.9390348164434
 31
0.0
 70
    32
  3
GEN-ISO
100
AcDbAlignedDimension
 13
-61.26939731239827
 23
379.4441283176043
 33
0.0
 14
61.73060268760173
 24
379.4441283176043
 34
0.0
100
AcDbRotatedDimension
1001
ACAD
1000
DSTYLE
1002
{
1070
   178
1070
   256
1002
}
  0
ENDSEC
  0
SECTION
  2
OBJECTS
  0
DICTIONARY
  5
C
330
0
100
AcDbDictionary
  3
ACAD_GROUP
350
D
  3
ACAD_LAYOUT
350
272B
  3
ACAD_MLINESTYLE
350
1B
  3
ACAD_PLOTSETTINGS
350
272C
  3
ACAD_PLOTSTYLENAME
350
2729
  3
ACAMCATALOGSTATE
350
5626
  3
ACASAPPOBJECT
350
55AA
  3
ACASGREF_MASTER
350
55F2
  3
ACDBHEADERROUNDTRIPXREC
350
6EF2
  3
ACDBVARIABLEDICTIONARY
350
2739
  3
ACDMSYSVARMGR
350
558A
  3
ACGREF_MASTER
350
2746
  3
ACGREFACAD_MASTER
350
274A
  3
ACMDICTIONARY
350
2750
  3
ACME_BOM_MANAGER_NAME
350
273F
  3
ACME_COMMAND_HISTORY
350
2738
  3
ACME_SCOPE_NAME
350
2737
  3
ACMESTATEMGR
350
2744
  3
ACMESYSVARMANAGER
350
273B
  3
ACMSYSTEMVARIABLEMANAGER
350
2754
  3
AD_APPL
350
560A
  3
AD_GREF_MODULE
350
55F3
  3
AD_HOLENOTE_REPOSITORY
350
560C
  3
AD_MAPI_MODULE
350
560F
  3
ADSYSVARMGR
350
55FC
  3
AMDTNAMEDDWGMGR
350
55A4
  3
AMG
350
274C
  3
AMGSNAPSETTINGS
350
278B
  3
AMI_MASTER
350
274B
  3
ASURF_STATIC_VARS
350
55AB
  3
AUTOCAD_ASSEMBLIES_PROJECT
350
561A
  3
AUTOSURF_SYSVARS
350
55AC
  3
DESIGNER_ASSEMBLIES_SYSVARS
350
5611
  3
DWGPROPS
350
5E61
  3
GREFAM_MODULE
350
55F5
  3
MAPISURF_MODULE
350
55F4
  0
DICTIONARY
  5
2793
330
18
100
AcDbDictionary
280
     1
  3
ACAD_INDEX
360
2794
  3
ACAD_LAYOUTSELFREF
360
6F15
  0
DICTIONARY
  5
6F13
330
15
100
AcDbDictionary
280
     1
  3
ACAD_LAYOUTSELFREF
360
6F14
  0
DICTIONARY
  5
D
102
{ACAD_REACTORS
330
C
102
}
330
C
100
AcDbDictionary
  0
DICTIONARY
  5
272B
102
{ACAD_REACTORS
330
C
102
}
330
C
100
AcDbDictionary
  0
DICTIONARY
  5
1B
102
{ACAD_REACTORS
330
C
102
}
330
C
100
AcDbDictionary
  3
STANDARD
350
1C
  0
DICTIONARY
  5
272C
102
{ACAD_REACTORS
330
C
102
}
330
C
100
AcDbDictionary
  0
ACDBDICTIONARYWDFLT
  5
2729
102
{ACAD_REACTORS
330
C
102
}
330
C
100
AcDbDictionary
281
     1
  3
Normal
350
272A
100
AcDbDictionaryWithDefault
340
272A
  0
ACAD_PROXY_OBJECT
  5
5626
102
{ACAD_REACTORS
330
C
102
}
330
C
100
AcDbProxyObject
 90
      499
 91
      586
 93
      392
310
3FFFFFFFE00A028140292219D2E494348DD4BB82E21A0A241B340ADC1AF2E41A541AF41C6C1A7BB37B61A9AAE1818C00AA00
 94
        0
1001
ACAD
1000
AcadProxyRoundTripData
1071
      580
1071
   655383
1070
     0
  0
ACAD_PROXY_OBJECT
  5
55AA
102
{ACAD_REACTORS
330
C
102
}
330
C
100
AcDbProxyObject
 90
      499
 91
      586
 93
       10
310
4044
 94
        0
1001
ACAD
1000
AcadProxyRoundTripData
1071
      553
1071
   655383
1070
     0
  0
ACAD_PROXY_OBJECT
  5
55F2
102
{ACAD_REACTORS
330
C
102
}
330
C
100
AcDbProxyObject
 90
      499
 91
      586
 93
       34
310
0100004065
 94
        0
1001
ACAD
1000
AcadProxyRoundTripData
1071
      558
1071
   655383
1070
     0
  0
DICTIONARY
  5
6EF2
102
{ACAD_REACTORS
330
C
102
}
330
C
100
AcDbDictionary
  3
CEPSNTYPE
350
6EFC
  3
DIMSTYLEDATA
350
6F00
  3
FINGERPRINTGUID
350
6EFD
  3
HYPERLINKBASE
350
6EF5
  3
INSUNITS
350
6EFB
  3
LAYOUTDICT
350
6EF7
  3
LWETCUNION
350
6EFA
  3
PLOTSETDICT
350
6EF8
  3
PLOTSTYLNAMDICT
350
6EF9
  3
PSVPSCALE
350
6EFF
  3
PUCSBASE
350
6F03
  3
PUCSORGBACK
350
6F09
  3
PUCSORGBOTTOM
350
6F05
  3
PUCSORGFRONT
350
6F08
  3
PUCSORGLEFT
350
6F06
  3
PUCSORGRIGHT
350
6F07
  3
PUCSORGTOP
350
6F04
  3
PUCSORTHOREF
350
6F01
  3
PUCSORTHOVIEW
350
6F02
  3
STYLESHEET
350
6EF6
  3
TSTACKALIGN
350
6EF3
  3
TSTACKSIZE
350
6EF4
  3
UCSBASE
350
6F0C
  3
UCSORGBACK
350
6F12
  3
UCSORGBOTTOM
350
6F0E
  3
UCSORGFRONT
350
6F11
  3
UCSORGLEFT
350
6F0F
  3
UCSORGRIGHT
350
6F10
  3
UCSORGTOP
350
6F0D
  3
UCSORTHOREF
350
6F0A
  3
UCSORTHOVIEW
350
6F0B
  3
VERSIONGUID
350
6EFE
  0
DICTIONARY
  5
2739
102
{ACAD_REACTORS
330
C
102
}
330
C
100
AcDbDictionary
  3
INDEXCTL
350
273A
  0
ACAD_PROXY_OBJECT
  5
558A
102
{ACAD_REACTORS
330
C
102
}
330
C
100
AcDbProxyObject
 90
      499
 91
      586
 93
      224
310
4C51847200000000000000000000000000000000000000000000000000
330
558B
330
558C
330
558D
330
558E
330
558F
330
5590
330
5591
330
5593
330
5594
330
5595
330
5596
330
5597
330
5598
330
5599
330
559A
330
559B
330
559C
330
559D
330
559E
330
559F
330
55A0
330
55A1
330
55A2
330
55A3
 94
        0
1001
ACAD
1000
AcadProxyRoundTripData
1071
      508
1071
   655383
1070
     0
  0
ACAD_PROXY_OBJECT
  5
2746
102
{ACAD_REACTORS
330
C
102
}
330
C
100
AcDbProxyObject
 90
      499
 91
      586
 93
       34
310
04000042A5
 94
        0
1001
ACAD
1000
AcadProxyRoundTripData
1071
      517
1071
   655383
1070
     0
  0
ACAD_PROXY_OBJECT
  5
274A
102
{ACAD_REACTORS
330
C
102
}
330
C
100
AcDbProxyObject
 90
      499
 91
      586
 93
      114
310
04000041C000000000000000000000
 94
        0
1001
ACAD
1000
AcadProxyRoundTripData
1071
      520
1071
   655383
1070
     0
  0
DICTIONARY
  5
2750
102
{ACAD_REACTORS
330
C
102
}
330
C
100
AcDbDictionary
  3
ACMBOMDATA
350
2751
  3
ACMSTDDICTIONARY
350
2756
  0
ACAD_PROXY_OBJECT
  5
273F
102
{ACAD_REACTORS
330
C
102
}
330
C
100
AcDbProxyObject
 90
      499
 91
      586
 93
       50
310
00010040400000
330
0
330
0
330
2740
 94
        0
1001
ACAD
1000
AcadProxyRoundTripData
1071
      511
1071
   655383
1070
     0
  0
ACAD_PROXY_OBJECT
  5
2738
102
{ACAD_REACTORS
330
C
102
}
330
C
100
AcDbProxyObject
 90
      499
 91
      586
 93
     1802
310
47805044D4F5645805045A4F4F4D805094D4154434850524F508050155805094D4154434850524F508050155805094D4154434850524F50805094D4154434850524F508050C475249505F5354524554434880504554E444F80504554E444F80504554E444F8050644444544495480504554E444F80504554E444F80504554E
310
444F80506444445444954805045A4F4F4D805045A4F4F4D805045A4F4F4D805045A4F4F4D8050545524153458050350414E8050545524153458050350414E8050545524153458050350414E805054552415345805045A4F4F4D8050653415645415380
 94
        0
1001
ACAD
1000
AcadProxyRoundTripData
1071
      506
1071
   655383
1070
     0
  0
ACAD_PROXY_OBJECT
  5
2737
102
{ACAD_REACTORS
330
C
102
}
330
C
100
AcDbProxyObject
 90
      499
 91
      586
 93
     1234
310
05000044000000000000000000001856260000000000000000000000000000000000000000000000000000000000000000000000000000000000000000000000000000000000000000000000000000000000000000000000000000000000000000000000000000000000000000000000000000000000000000000000000000
310
0000000000000000000000000000000000000000000000AAA406AA80
360
273C
360
273D
360
273E
360
2740
360
2755
360
29E9
360
5585
360
5586
360
5587
360
5588
360
558B
360
558C
360
558D
360
558E
360
558F
360
5590
360
5591
360
5593
360
5594
360
5595
360
5596
360
5597
360
5598
360
5599
360
559A
360
559B
360
559C
360
559D
360
559E
360
559F
360
55A0
360
55A1
360
55A2
360
55A3
360
55AD
360
55AE
360
55AF
360
55B0
360
55B1
360
55B2
360
55B3
360
55B4
360
55B5
360
55B6
360
55B7
360
55B8
360
55B9
360
55BA
360
55BB
360
55BC
360
55BD
360
55BE
360
55BF
360
55C0
360
55C1
360
55C2
360
55C3
360
55C4
360
55C5
360
55C6
360
55C7
360
55C8
360
55C9
360
55CA
360
55CB
360
55CC
360
55CD
360
55CE
360
55CF
360
55D0
360
55D1
360
55D2
360
55D3
360
55D4
360
55D5
360
55D6
360
55D7
360
55D8
360
55D9
360
55DA
360
55DB
360
55DC
360
55DD
360
55DE
360
55DF
360
55E0
360
55E1
360
55E2
360
55E3
360
55E4
360
55E5
360
55E6
360
55E7
360
55E8
360
55E9
360
55EA
360
55EB
360
55EC
360
55ED
360
55EE
360
55F8
360
55F9
360
55FA
360
55FB
360
55FD
360
55FE
360
55FF
360
5600
360
5601
360
5602
360
5603
360
5604
360
5605
360
5606
360
5607
360
5608
360
5609
360
560B
360
560D
360
5612
360
5613
360
5614
360
5615
360
5616
360
5617
360
5618
360
5619
360
561E
360
561F
360
5620
360
5621
360
5622
360
5623
 94
        0
1001
ACAD
1000
AcadProxyRoundTripData
1071
      505
1071
   655383
1070
     0
  0
ACAD_PROXY_OBJECT
  5
2744
102
{ACAD_REACTORS
330
C
102
}
330
C
100
AcDbProxyObject
 90
      499
 91
      586
 93
       50
310
05000041241280
 94
        0
1001
ACAD
1000
AcadProxyRoundTripData
1071
      516
1071
   655383
1070
     0
  0
ACAD_PROXY_OBJECT
  5
273B
102
{ACAD_REACTORS
330
C
102
}
330
C
100
AcDbProxyObject
 90
      499
 91
      586
 93
       48
310
90341200000011
330
273C
330
273D
330
273E
 94
        0
1001
ACAD
1000
AcadProxyRoundTripData
1071
      508
1071
   655383
1070
     0
  0
ACAD_PROXY_OBJECT
  5
2754
102
{ACAD_REACTORS
330
C
102
}
330
C
100
AcDbProxyObject
 90
      499
 91
      586
 93
       32
310
90140A00C6
330
2755
 94
        0
1001
ACAD
1000
AcadProxyRoundTripData
1071
      508
1071
   655383
1070
     0
  0
ACAD_PROXY_OBJECT
  5
560A
102
{ACAD_REACTORS
330
C
102
}
330
C
100
AcDbProxyObject
 90
      499
 91
      586
 93
       42
310
000500004381
330
55F8
 94
        0
1001
ACAD
1000
AcadProxyRoundTripData
1071
      567
1071
   655383
1070
     0
  0
ACAD_PROXY_OBJECT
  5
55F3
102
{ACAD_REACTORS
330
C
102
}
330
C
100
AcDbProxyObject
 90
      499
 91
      586
 93
      114
310
000000438000000000000000000000
 94
        0
1001
ACAD
1000
AcadProxyRoundTripData
1071
      559
1071
   655383
1070
     0
  0
ACAD_PROXY_OBJECT
  5
560C
102
{ACAD_REACTORS
330
C
102
}
330
C
100
AcDbProxyObject
 90
      499
 91
      586
 93
        8
310
0000
330
560B
 94
        0
1001
ACAD
1000
AcadProxyRoundTripData
1071
      569
1071
   655383
1070
     0
  0
ACAD_PROXY_OBJECT
  5
560F
102
{ACAD_REACTORS
330
C
102
}
330
C
100
AcDbProxyObject
 90
      499
 91
      586
 93
       34
310
05000044E5
 94
        0
1001
ACAD
1000
AcadProxyRoundTripData
1071
      571
1071
   655383
1070
     0
  0
ACAD_PROXY_OBJECT
  5
55FC
102
{ACAD_REACTORS
330
C
102
}
330
C
100
AcDbProxyObject
 90
      499
 91
      586
 93
      136
310
90E44A000000000000000000000000000000
330
55FD
330
55FE
330
55FF
330
5600
330
5601
330
5602
330
5603
330
5604
330
5605
330
5606
330
5607
330
5608
330
5609
330
560D
 94
        0
1001
ACAD
1000
AcadProxyRoundTripData
1071
      508
1071
   655383
1070
     0
  0
ACAD_PROXY_OBJECT
  5
55A4
102
{ACAD_REACTORS
330
C
102
}
330
C
100
AcDbProxyObject
 90
      499
 91
      586
 93
       42
310
000100005581
330
5585
 94
        0
1001
ACAD
1000
AcadProxyRoundTripData
1071
      550
1071
   655383
1070
     0
  0
DICTIONARY
  5
274C
102
{ACAD_REACTORS
330
C
102
}
330
C
100
AcDbDictionary
  3
ACMGSETTINGS
350
274D
  3
AMGLAYCFG
350
2758
  0
DICTIONARY
  5
278B
102
{ACAD_REACTORS
330
C
102
}
330
C
100
AcDbDictionary
  3
DIMENSION
350
2790
  3
FEA
350
278F
  3
HATCH__1_
350
278C
  3
HATCH__2_
350
278D
  3
SIMPLE_WELD
350
2791
  3
SYMBOLS
350
278E
  0
ACAD_PROXY_OBJECT
  5
274B
102
{ACAD_REACTORS
330
C
102
}
330
C
100
AcDbProxyObject
 90
      499
 91
      586
 93
       34
310
05000042A5
 94
        0
1001
ACAD
1000
AcadProxyRoundTripData
1071
      521
1071
   655383
1070
     0
  0
ACAD_PROXY_OBJECT
  5
55AB
102
{ACAD_REACTORS
330
C
102
}
330
C
100
AcDbProxyObject
 90
      499
 91
      586
 93
      424
310
585314D60000000000000000000000000000000000000000000000000000000000000000000000000000000000000000000000000000
330
55BE
330
55BF
330
55C0
330
55C1
330
55C2
330
55C3
330
55C4
330
55C5
330
55C6
330
55C7
330
55C8
330
55C9
330
55CA
330
55CB
330
55CC
330
55CD
330
55CE
330
55CF
330
55D0
330
55D1
330
55D2
330
55D3
330
55D4
330
55D5
330
55D6
330
55D7
330
55D8
330
55D9
330
55DA
330
55DB
330
55DC
330
55DD
330
55DE
330
55DF
330
55E0
330
55E1
330
55E2
330
55E3
330
55E4
330
55E5
330
55E6
330
55E7
330
55E8
330
55E9
330
55EA
330
55EB
330
55EC
330
55ED
330
55EE
 94
        0
1001
ACAD
1000
AcadProxyRoundTripData
1071
      554
1071
   655383
1070
     0
  0
ACAD_PROXY_OBJECT
  5
561A
102
{ACAD_REACTORS
330
C
102
}
330
C
100
AcDbProxyObject
 90
      499
 91
      586
 93
       74
310
05000049800000000000
330
5621
330
0
330
5622
330
0
330
0
 94
        0
1001
ACAD
1000
AcadProxyRoundTripData
1071
      573
1071
   655383
1070
     0
  0
ACAD_PROXY_OBJECT
  5
55AC
102
{ACAD_REACTORS
330
C
102
}
330
C
100
AcDbProxyObject
 90
      499
 91
      586
 93
      168
310
4C511456000000000000000000000000000000000000
330
55AD
330
55AE
330
55AF
330
55B0
330
55B1
330
55B2
330
55B3
330
55B4
330
55B5
330
55B6
330
55B7
330
55B8
330
55B9
330
55BA
330
55BB
330
55BC
330
55BD
 94
        0
1001
ACAD
1000
AcadProxyRoundTripData
1071
      508
1071
   655383
1070
     0
  0
ACAD_PROXY_OBJECT
  5
5611
102
{ACAD_REACTORS
330
C
102
}
330
C
100
AcDbProxyObject
 90
      499
 91
      586
 93
       88
310
908432000000000000000000
330
5612
330
5613
330
5614
330
5615
330
5616
330
5617
330
5618
330
5619
 94
        0
1001
ACAD
1000
AcadProxyRoundTripData
1071
      508
1071
   655383
1070
     0
  0
XRECORD
  5
5E61
102
{ACAD_REACTORS
330
C
102
}
330
C
100
AcDbXrecord
  1
DWGPROPS COOKIE
  2

  3

  4

  6

  7

  8

  9

300
AmdtFileType=84
301
=
302
=
303
=
304
=
305
=
306
=
307
=
308
=
309
=
 40
0.3805684953703703
 41
2451332.598188681
 42
2454491.37667074
  1

 90
        1
  0
ACAD_PROXY_OBJECT
  5
55F5
102
{ACAD_REACTORS
330
C
102
}
330
C
100
AcDbProxyObject
 90
      499
 91
      586
 93
        8
310
0500
 94
        0
1001
ACAD
1000
AcadProxyRoundTripData
1071
      561
1071
   655383
1070
     0
  0
ACAD_PROXY_OBJECT
  5
55F4
102
{ACAD_REACTORS
330
C
102
}
330
C
100
AcDbProxyObject
 90
      499
 91
      586
 93
        8
310
0400
 94
        0
1001
ACAD
1000
AcadProxyRoundTripData
1071
      560
1071
   655383
1070
     0
  0
DICTIONARY
  5
2794
102
{ACAD_REACTORS
330
2793
102
}
330
2793
100
AcDbDictionary
  3
*A1
350
2795
  0
XRECORD
  5
6F15
102
{ACAD_REACTORS
330
2793
102
}
330
2793
100
AcDbXrecord
340
18
  0
XRECORD
  5
6F14
102
{ACAD_REACTORS
330
6F13
102
}
330
6F13
100
AcDbXrecord
340
15
  0
MLINESTYLE
  5
1C
102
{ACAD_REACTORS
330
1B
102
}
330
1B
100
AcDbMlineStyle
  2
STANDARD
 70
     0
  3

 62
   256
 51
90.0
 52
90.0
 71
     2
 49
0.5
 62
   256
  6
BYLAYER
 49
-0.5
 62
   256
  6
BYLAYER
  0
ACDBPLACEHOLDER
  5
272A
102
{ACAD_REACTORS
330
2729
102
}
330
2729
100
AcDbPlaceHolder
280
     0
  0
XRECORD
  5
6EFC
102
{ACAD_REACTORS
330
6EF2
102
}
330
6EF2
100
AcDbXrecord
 90
        0
  0
XRECORD
  5
6F00
102
{ACAD_REACTORS
330
6EF2
102
}
330
6EF2
100
AcDbXrecord
1000
DSTYLE
1002
{
1070
   341
340
A07
1070
   342
340
A07
1002
}
  0
XRECORD
  5
6EFD
102
{ACAD_REACTORS
330
6EF2
102
}
330
6EF2
100
AcDbXrecord
  1
{935A57F6-5EC8-447F-B215-0075650EC403}
  0
XRECORD
  5
6EF5
102
{ACAD_REACTORS
330
6EF2
102
}
330
6EF2
100
AcDbXrecord
  1

  0
XRECORD
  5
6EFB
102
{ACAD_REACTORS
330
6EF2
102
}
330
6EF2
100
AcDbXrecord
 90
        0
  0
XRECORD
  5
6EF7
102
{ACAD_REACTORS
330
6EF2
102
}
330
6EF2
100
AcDbXrecord
340
272B
  0
XRECORD
  5
6EFA
102
{ACAD_REACTORS
330
6EF2
102
}
330
6EF2
100
AcDbXrecord
 90
    10781
  0
XRECORD
  5
6EF8
102
{ACAD_REACTORS
330
6EF2
102
}
330
6EF2
100
AcDbXrecord
340
272C
  0
XRECORD
  5
6EF9
102
{ACAD_REACTORS
330
6EF2
102
}
330
6EF2
100
AcDbXrecord
340
2729
  0
XRECORD
  5
6EFF
102
{ACAD_REACTORS
330
6EF2
102
}
330
6EF2
100
AcDbXrecord
 40
0.0
  0
XRECORD
  5
6F03
102
{ACAD_REACTORS
330
6EF2
102
}
330
6EF2
100
AcDbXrecord
340
0
  0
XRECORD
  5
6F09
102
{ACAD_REACTORS
330
6EF2
102
}
330
6EF2
100
AcDbXrecord
 10
0.0
 20
0.0
 30
0.0
  0
XRECORD
  5
6F05
102
{ACAD_REACTORS
330
6EF2
102
}
330
6EF2
100
AcDbXrecord
 10
0.0
 20
0.0
 30
0.0
  0
XRECORD
  5
6F08
102
{ACAD_REACTORS
330
6EF2
102
}
330
6EF2
100
AcDbXrecord
 10
0.0
 20
0.0
 30
0.0
  0
XRECORD
  5
6F06
102
{ACAD_REACTORS
330
6EF2
102
}
330
6EF2
100
AcDbXrecord
 10
0.0
 20
0.0
 30
0.0
  0
XRECORD
  5
6F07
102
{ACAD_REACTORS
330
6EF2
102
}
330
6EF2
100
AcDbXrecord
 10
0.0
 20
0.0
 30
0.0
  0
XRECORD
  5
6F04
102
{ACAD_REACTORS
330
6EF2
102
}
330
6EF2
100
AcDbXrecord
 10
0.0
 20
0.0
 30
0.0
  0
XRECORD
  5
6F01
102
{ACAD_REACTORS
330
6EF2
102
}
330
6EF2
100
AcDbXrecord
340
0
  0
XRECORD
  5
6F02
102
{ACAD_REACTORS
330
6EF2
102
}
330
6EF2
100
AcDbXrecord
 70
     0
  0
XRECORD
  5
6EF6
102
{ACAD_REACTORS
330
6EF2
102
}
330
6EF2
100
AcDbXrecord
  1
monochrome.ctb
  0
XRECORD
  5
6EF3
102
{ACAD_REACTORS
330
6EF2
102
}
330
6EF2
100
AcDbXrecord
 90
        1
  0
XRECORD
  5
6EF4
102
{ACAD_REACTORS
330
6EF2
102
}
330
6EF2
100
AcDbXrecord
 90
       70
  0
XRECORD
  5
6F0C
102
{ACAD_REACTORS
330
6EF2
102
}
330
6EF2
100
AcDbXrecord
340
0
  0
XRECORD
  5
6F12
102
{ACAD_REACTORS
330
6EF2
102
}
330
6EF2
100
AcDbXrecord
 10
0.0
 20
0.0
 30
0.0
  0
XRECORD
  5
6F0E
102
{ACAD_REACTORS
330
6EF2
102
}
330
6EF2
100
AcDbXrecord
 10
0.0
 20
0.0
 30
0.0
  0
XRECORD
  5
6F11
102
{ACAD_REACTORS
330
6EF2
102
}
330
6EF2
100
AcDbXrecord
 10
0.0
 20
0.0
 30
0.0
  0
XRECORD
  5
6F0F
102
{ACAD_REACTORS
330
6EF2
102
}
330
6EF2
100
AcDbXrecord
 10
0.0
 20
0.0
 30
0.0
  0
XRECORD
  5
6F10
102
{ACAD_REACTORS
330
6EF2
102
}
330
6EF2
100
AcDbXrecord
 10
0.0
 20
0.0
 30
0.0
  0
XRECORD
  5
6F0D
102
{ACAD_REACTORS
330
6EF2
102
}
330
6EF2
100
AcDbXrecord
 10
0.0
 20
0.0
 30
0.0
  0
XRECORD
  5
6F0A
102
{ACAD_REACTORS
330
6EF2
102
}
330
6EF2
100
AcDbXrecord
340
0
  0
XRECORD
  5
6F0B
102
{ACAD_REACTORS
330
6EF2
102
}
330
6EF2
100
AcDbXrecord
 70
     0
  0
XRECORD
  5
6EFE
102
{ACAD_REACTORS
330
6EF2
102
}
330
6EF2
100
AcDbXrecord
  1
{BB3672AA-3771-4395-B440-CACD5C516544}
  0
DICTIONARYVAR
  5
273A
102
{ACAD_REACTORS
330
2739
102
}
330
2739
100
DictionaryVariables
280
     0
  1
1
  0
ACAD_PROXY_OBJECT
  5
2751
102
{ACAD_REACTORS
330
2750
102
}
330
2750
100
AcDbProxyObject
 90
      499
 91
      586
 93
      118
310
405010040CA904C415CD5B075450B8
350
2752
 94
        0
1001
ACAD
1000
AcadProxyRoundTripData
1071
      523
1071
   655383
1070
     0
  0
DICTIONARY
  5
2756
102
{ACAD_REACTORS
330
2750
102
}
330
2750
100
AcDbDictionary
  3
ISO
350
2757
  0
ACAD_PROXY_OBJECT
  5
273C
330
0
100
AcDbProxyObject
 90
      499
 91
      586
 93
      156
310
00010143D050D351505391D5531054925390D490
330
2737
 94
        0
1001
ACAD
1000
AcadProxyRoundTripData
1071
      509
1071
   655383
1070
     0
  0
ACAD_PROXY_OBJECT
  5
273D
330
0
100
AcDbProxyObject
 90
      499
 91
      586
 93
      148
310
000101439050D351531253915054925390D494
330
2737
 94
        0
1001
ACAD
1000
AcadProxyRoundTripData
1071
      509
1071
   655383
1070
     0
  0
ACAD_PROXY_OBJECT
  5
273E
330
0
100
AcDbProxyObject
 90
      499
 91
      586
 93
      156
310
000101439050D35154D6535093D314D256915080
330
2737
 94
        0
1001
ACAD
1000
AcadProxyRoundTripData
1071
      510
1071
   655383
1070
     0
  0
ACAD_PROXY_OBJECT
  5
2740
330
0
100
AcDbProxyObject
 90
      499
 91
      586
 93
      120
310
000101422565255A6557080C402B0000
330
2737
330
0
330
0
 94
        0
1001
ACAD
1000
AcadProxyRoundTripData
1071
      512
1071
   655383
1070
     0
  0
ACAD_PROXY_OBJECT
  5
2755
330
0
100
AcDbProxyObject
 90
      499
 91
      586
 93
      140
310
00010142105350D55494D5110050349534F1
330
2737
 94
        0
1001
ACAD
1000
AcadProxyRoundTripData
1071
      525
1071
   655383
1070
     0
  0
ACAD_PROXY_OBJECT
  5
29E9
330
0
100
AcDbProxyObject
 90
      499
 91
      586
 93
       28
310
00014062
330
2737
 94
        0
1001
ACAD
1000
AcadProxyRoundTripData
1071
      545
1071
   655383
1070
     0
  0
ACAD_PROXY_OBJECT
  5
5585
330
0
100
AcDbProxyObject
 90
      499
 91
      586
 93
      366
310
0001014124FEA55D00507352E312E342E31014124FEA55D00508352E312E322E313340501000041505391D311658
330
2737
330
5586
330
558A
 94
        0
1001
ACAD
1000
AcadProxyRoundTripData
1071
      546
1071
   655383
1070
     0
  0
ACAD_PROXY_OBJECT
  5
5586
330
0
100
AcDbProxyObject
 90
      499
 91
      586
 93
       48
310
000190140A0011
330
2737
330
5587
 94
        0
1001
ACAD
1000
AcadProxyRoundTripData
1071
      547
1071
   655383
1070
     0
  0
ACAD_PROXY_OBJECT
  5
5587
330
0
100
AcDbProxyObject
 90
      499
 91
      586
 93
       48
310
0001AA00000011
330
2737
330
272E
330
5588
330
0
 94
        0
1001
ACAD
1000
AcadProxyRoundTripData
1071
      548
1071
   655383
1070
     0
  0
ACAD_PROXY_OBJECT
  5
5588
330
0
100
AcDbProxyObject
 90
      499
 91
      586
 93
       28
310
0001AAA2
330
2737
 94
        0
1001
ACAD
1000
AcadProxyRoundTripData
1071
      549
1071
   655383
1070
     0
  0
ACAD_PROXY_OBJECT
  5
558B
330
0
100
AcDbProxyObject
 90
      499
 91
      586
 93
      108
310
000101421053521310D05310D018
330
2737
 94
        0
1001
ACAD
1000
AcadProxyRoundTripData
1071
      510
1071
   655383
1070
     0
  0
ACAD_PROXY_OBJECT
  5
558C
330
0
100
AcDbProxyObject
 90
      499
 91
      586
 93
      124
310
00010142905354915554D15112535010
330
2737
 94
        0
1001
ACAD
1000
AcadProxyRoundTripData
1071
      510
1071
   655383
1070
     0
  0
ACAD_PROXY_OBJECT
  5
558D
330
0
100
AcDbProxyObject
 90
      499
 91
      586
 93
      132
310
00010143105354D150D51253D391125360
330
2737
 94
        0
1001
ACAD
1000
AcadProxyRoundTripData
1071
      510
1071
   655383
1070
     0
  0
ACAD_PROXY_OBJECT
  5
558E
330
0
100
AcDbProxyObject
 90
      499
 91
      586
 93
      124
310
00010142905355941093D49111549013
330
2737
 94
        0
1001
ACAD
1000
AcadProxyRoundTripData
1071
      510
1071
   655383
1070
     0
  0
ACAD_PROXY_OBJECT
  5
558F
330
0
100
AcDbProxyObject
 90
      499
 91
      586
 93
      116
310
0001014290535115D1D0D3D313D4A0
330
2737
 94
        0
1001
ACAD
1000
AcadProxyRoundTripData
1071
      510
1071
   655383
1070
     0
  0
ACAD_PROXY_OBJECT
  5
5590
330
0
100
AcDbProxyObject
 90
      499
 91
      586
 93
      148
310
00010143505355925155D49151949154D21010
330
2737
 94
        0
1001
ACAD
1000
AcadProxyRoundTripData
1071
      510
1071
   655383
1070
     0
  0
ACAD_PROXY_OBJECT
  5
5591
330
0
100
AcDbProxyObject
 90
      499
 91
      586
 93
      172
310
00010144105350539393D51154149154D1549591501A
330
2737
 94
        0
1001
ACAD
1000
AcadProxyRoundTripData
1071
      510
1071
   655383
1070
     0
  0
ACAD_PROXY_OBJECT
  5
5593
330
0
100
AcDbProxyObject
 90
      499
 91
      586
 93
      172
310
00010144105350555513D11253505494905391D1501A
330
2737
 94
        0
1001
ACAD
1000
AcadProxyRoundTripData
1071
      510
1071
   655383
1070
     0
  0
ACAD_PROXY_OBJECT
  5
5594
330
0
100
AcDbProxyObject
 90
      499
 91
      586
 93
      124
310
00010142D05351561514915191125364
330
2737
 94
        0
1001
ACAD
1000
AcadProxyRoundTripData
1071
      510
1071
   655383
1070
     0
  0
ACAD_PROXY_OBJECT
  5
5595
330
0
100
AcDbProxyObject
 90
      499
 91
      586
 93
      132
310
00010142D05355105410539393D5115010
330
2737
 94
        0
1001
ACAD
1000
AcadProxyRoundTripData
1071
      510
1071
   655383
1070
     0
  0
ACAD_PROXY_OBJECT
  5
5596
330
0
100
AcDbProxyObject
 90
      499
 91
      586
 93
      108
310
00010142105350555513D0D31015
330
2737
 94
        0
1001
ACAD
1000
AcadProxyRoundTripData
1071
      510
1071
   655383
1070
     0
  0
ACAD_PROXY_OBJECT
  5
5597
330
0
100
AcDbProxyObject
 90
      499
 91
      586
 93
      108
310
00010142105350D3119150551055
330
2737
 94
        0
1001
ACAD
1000
AcadProxyRoundTripData
1071
      510
1071
   655383
1070
     0
  0
ACAD_PROXY_OBJECT
  5
5598
330
0
100
AcDbProxyObject
 90
      499
 91
      586
 93
      108
310
00010142105350D315925155D3F5
330
2737
 94
        0
1001
ACAD
1000
AcadProxyRoundTripData
1071
      510
1071
   655383
1070
     0
  0
ACAD_PROXY_OBJECT
  5
5599
330
0
100
AcDbProxyObject
 90
      499
 91
      586
 93
      148
310
0001014350535212511156915493D112535011
330
2737
 94
        0
1001
ACAD
1000
AcadProxyRoundTripData
1071
      510
1071
   655383
1070
     0
  0
ACAD_PROXY_OBJECT
  5
559A
330
0
100
AcDbProxyObject
 90
      499
 91
      586
 93
      116
310
00010142905352105510D21254D3E1
330
2737
 94
        0
1001
ACAD
1000
AcadProxyRoundTripData
1071
      510
1071
   655383
1070
     0
  0
ACAD_PROXY_OBJECT
  5
559B
330
0
100
AcDbProxyObject
 90
      499
 91
      586
 93
      148
310
00010143905354D25391D31152105513105661
330
2737
 94
        0
1001
ACAD
1000
AcadProxyRoundTripData
1071
      510
1071
   655383
1070
     0
  0
ACAD_PROXY_OBJECT
  5
559C
330
0
100
AcDbProxyObject
 90
      499
 91
      586
 93
      124
310
00010142D0535115D1D193111254D423
330
2737
 94
        0
1001
ACAD
1000
AcadProxyRoundTripData
1071
      510
1071
   655383
1070
     0
  0
ACAD_PROXY_OBJECT
  5
559D
330
0
100
AcDbProxyObject
 90
      499
 91
      586
 93
      100
310
00010142105350555513D213A2
330
2737
 94
        0
1001
ACAD
1000
AcadProxyRoundTripData
1071
      510
1071
   655383
1070
     0
  0
ACAD_PROXY_OBJECT
  5
559E
330
0
100
AcDbProxyObject
 90
      499
 91
      586
 93
      116
310
000101425053521390D3D553951014
330
2737
 94
        0
1001
ACAD
1000
AcadProxyRoundTripData
1071
      510
1071
   655383
1070
     0
  0
ACAD_PROXY_OBJECT
  5
559F
330
0
100
AcDbProxyObject
 90
      499
 91
      586
 93
      108
310
0001014210535213941493D29010
330
2737
 94
        0
1001
ACAD
1000
AcadProxyRoundTripData
1071
      510
1071
   655383
1070
     0
  0
ACAD_PROXY_OBJECT
  5
55A0
330
0
100
AcDbProxyObject
 90
      499
 91
      586
 93
      108
310
0001014210535213951654115070
330
2737
 94
        0
1001
ACAD
1000
AcadProxyRoundTripData
1071
      510
1071
   655383
1070
     0
  0
ACAD_PROXY_OBJECT
  5
55A1
330
0
100
AcDbProxyObject
 90
      499
 91
      586
 93
      108
310
000101421053521395925155D0F0
330
2737
 94
        0
1001
ACAD
1000
AcadProxyRoundTripData
1071
      510
1071
   655383
1070
     0
  0
ACAD_PROXY_OBJECT
  5
55A2
330
0
100
AcDbProxyObject
 90
      499
 91
      586
 93
      140
310
00010143505354D150D51253D390D3D41666
330
2737
 94
        0
1001
ACAD
1000
AcadProxyRoundTripData
1071
      510
1071
   655383
1070
     0
  0
ACAD_PROXY_OBJECT
  5
55A3
330
0
100
AcDbProxyObject
 90
      499
 91
      586
 93
      108
310
00010142105350D3141493D29030
330
2737
 94
        0
1001
ACAD
1000
AcadProxyRoundTripData
1071
      510
1071
   655383
1070
     0
  0
ACAD_PROXY_OBJECT
  5
55AD
330
0
100
AcDbProxyObject
 90
      499
 91
      586
 93
      116
310
000101425053541051D15311539193
330
2737
 94
        0
1001
ACAD
1000
AcadProxyRoundTripData
1071
      510
1071
   655383
1070
     0
  0
ACAD_PROXY_OBJECT
  5
55AE
330
0
100
AcDbProxyObject
 90
      499
 91
      586
 93
      108
310
000101421053555312539154D051
330
2737
 94
        0
1001
ACAD
1000
AcadProxyRoundTripData
1071
      510
1071
   655383
1070
     0
  0
ACAD_PROXY_OBJECT
  5
55AF
330
0
100
AcDbProxyObject
 90
      499
 91
      586
 93
      108
310
000101421053559312539154D031
330
2737
 94
        0
1001
ACAD
1000
AcadProxyRoundTripData
1071
      510
1071
   655383
1070
     0
  0
ACAD_PROXY_OBJECT
  5
55B0
330
0
100
AcDbProxyObject
 90
      499
 91
      586
 93
      140
310
00010143105354D1911254D41353D1115016
330
2737
 94
        0
1001
ACAD
1000
AcadProxyRoundTripData
1071
      510
1071
   655383
1070
     0
  0
ACAD_PROXY_OBJECT
  5
55B1
330
0
100
AcDbProxyObject
 90
      499
 91
      586
 93
      172
310
00010142505354119255105391C1C052DC9A6F10440A
330
2737
 94
        0
1001
ACAD
1000
AcadProxyRoundTripData
1071
      509
1071
   655383
1070
     0
  0
ACAD_PROXY_OBJECT
  5
55B2
330
0
100
AcDbProxyObject
 90
      499
 91
      586
 93
      164
310
000101421053559150D05551C000000000000E03F4
330
2737
 94
        0
1001
ACAD
1000
AcadProxyRoundTripData
1071
      509
1071
   655383
1070
     0
  0
ACAD_PROXY_OBJECT
  5
55B3
330
0
100
AcDbProxyObject
 90
      499
 91
      586
 93
      180
310
00010142905350931153911513D307B14AE47E17A843F5
330
2737
 94
        0
1001
ACAD
1000
AcadProxyRoundTripData
1071
      509
1071
   655383
1070
     0
  0
ACAD_PROXY_OBJECT
  5
55B4
330
0
100
AcDbProxyObject
 90
      499
 91
      586
 93
      172
310
0001014250535293D25391D05407B14AE47E17A843F3
330
2737
 94
        0
1001
ACAD
1000
AcadProxyRoundTripData
1071
      509
1071
   655383
1070
     0
  0
ACAD_PROXY_OBJECT
  5
55B5
330
0
100
AcDbProxyObject
 90
      499
 91
      586
 93
      172
310
000101425053541192551311538000000FC83D797413
330
2737
 94
        0
1001
ACAD
1000
AcadProxyRoundTripData
1071
      509
1071
   655383
1070
     0
  0
ACAD_PROXY_OBJECT
  5
55B6
330
0
100
AcDbProxyObject
 90
      499
 91
      586
 93
      156
310
00010141D053559150D4D18000000000000E03F9
330
2737
 94
        0
1001
ACAD
1000
AcadProxyRoundTripData
1071
      509
1071
   655383
1070
     0
  0
ACAD_PROXY_OBJECT
  5
55B7
330
0
100
AcDbProxyObject
 90
      499
 91
      586
 93
      156
310
00010141D05354D19513D309A9999999999993F9
330
2737
 94
        0
1001
ACAD
1000
AcadProxyRoundTripData
1071
      509
1071
   655383
1070
     0
  0
ACAD_PROXY_OBJECT
  5
55B8
330
0
100
AcDbProxyObject
 90
      499
 91
      586
 93
      172
310
000101425053541192551513D307B14AE47E17A843F3
330
2737
 94
        0
1001
ACAD
1000
AcadProxyRoundTripData
1071
      509
1071
   655383
1070
     0
  0
ACAD_PROXY_OBJECT
  5
55B9
330
0
100
AcDbProxyObject
 90
      499
 91
      586
 93
      188
310
00010142D05354D151D192551513D307B14AE47E17A843F0
330
2737
 94
        0
1001
ACAD
1000
AcadProxyRoundTripData
1071
      509
1071
   655383
1070
     0
  0
ACAD_PROXY_OBJECT
  5
55BA
330
0
100
AcDbProxyObject
 90
      499
 91
      586
 93
      148
310
000101419053541311538000000FC83D797414
330
2737
 94
        0
1001
ACAD
1000
AcadProxyRoundTripData
1071
      509
1071
   655383
1070
     0
  0
ACAD_PROXY_OBJECT
  5
55BB
330
0
100
AcDbProxyObject
 90
      499
 91
      586
 93
      172
310
00010142505354105391D513D301C052DC9A6F104408
330
2737
 94
        0
1001
ACAD
1000
AcadProxyRoundTripData
1071
      509
1071
   655383
1070
     0
  0
ACAD_PROXY_OBJECT
  5
55BC
330
0
100
AcDbProxyObject
 90
      499
 91
      586
 93
      132
310
0001014114D2569140000000000002440C
330
2737
 94
        0
1001
ACAD
1000
AcadProxyRoundTripData
1071
      509
1071
   655383
1070
     0
  0
ACAD_PROXY_OBJECT
  5
55BD
330
0
100
AcDbProxyObject
 90
      499
 91
      586
 93
      156
310
00010142905351D4941491519256005034153470
330
2737
 94
        0
1001
ACAD
1000
AcadProxyRoundTripData
1071
      525
1071
   655383
1070
     0
  0
ACAD_PROXY_OBJECT
  5
55BE
330
0
100
AcDbProxyObject
 90
      499
 91
      586
 93
      314
310
00014080509646973745363616C650000000000003C2FC000000000000F0BF0000003F20F5E5D055
330
2737
 94
        0
1001
ACAD
1000
AcadProxyRoundTripData
1071
      555
1071
   655383
1070
     0
  0
ACAD_PROXY_OBJECT
  5
55BF
330
0
100
AcDbProxyObject
 90
      499
 91
      586
 93
      322
310
0001408050A65646175526F74617465060B51153EC87E4FC182D4454FB2119C0060B51153EC8465005
330
2737
 94
        0
1001
ACAD
1000
AcadProxyRoundTripData
1071
      555
1071
   655383
1070
     0
  0
ACAD_PROXY_OBJECT
  5
55C0
330
0
100
AcDbProxyObject
 90
      499
 91
      586
 93
      314
310
00014080509656461755477697374060B51153EC846500000000FC83D797C10000003F20F5E5D050
330
2737
 94
        0
1001
ACAD
1000
AcadProxyRoundTripData
1071
      555
1071
   655383
1070
     0
  0
ACAD_PROXY_OBJECT
  5
55C1
330
0
100
AcDbProxyObject
 90
      499
 91
      586
 93
      294
310
000140C050A656467654F75747075740144F3B7F635ECB74A140A4817D41BDB1E5B1A5B995
330
2737
 94
        0
1001
ACAD
1000
AcadProxyRoundTripData
1071
      556
1071
   655383
1070
     0
  0
ACAD_PROXY_OBJECT
  5
55C2
330
0
100
AcDbProxyObject
 90
      499
 91
      586
 93
      154
310
0001404050B6564697450726576696577406407F
330
2737
 94
        0
1001
ACAD
1000
AcadProxyRoundTripData
1071
      557
1071
   655383
1070
     0
  0
ACAD_PROXY_OBJECT
  5
55C3
330
0
100
AcDbProxyObject
 90
      499
 91
      586
 93
      170
310
0001404050A666C6F77556C696E657342A3A00C0001E
330
2737
 94
        0
1001
ACAD
1000
AcadProxyRoundTripData
1071
      557
1071
   655383
1070
     0
  0
ACAD_PROXY_OBJECT
  5
55C4
330
0
100
AcDbProxyObject
 90
      499
 91
      586
 93
      170
310
0001404050A666C6F77566C696E657342A3A00C0001E
330
2737
 94
        0
1001
ACAD
1000
AcadProxyRoundTripData
1071
      557
1071
   655383
1070
     0
  0
ACAD_PROXY_OBJECT
  5
55C5
330
0
100
AcDbProxyObject
 90
      499
 91
      586
 93
      322
310
0001408050A666C7366456E645261640000000000003C2FC000000000000F0BF0000003F20F5E5D045
330
2737
 94
        0
1001
ACAD
1000
AcadProxyRoundTripData
1071
      555
1071
   655383
1070
     0
  0
ACAD_PROXY_OBJECT
  5
55C6
330
0
100
AcDbProxyObject
 90
      499
 91
      586
 93
      246
310
000140C05086A6E33644D6F64650143E3BA24EB8A134A4817D3585B9D585B0
330
2737
 94
        0
1001
ACAD
1000
AcadProxyRoundTripData
1071
      556
1071
   655383
1070
     0
  0
ACAD_PROXY_OBJECT
  5
55C7
330
0
100
AcDbProxyObject
 90
      499
 91
      586
 93
      294
310
000140C050A6A6E33644F75747075740144F3B7F635ECB74A140A4817D41BDB1E5B1A5B994
330
2737
 94
        0
1001
ACAD
1000
AcadProxyRoundTripData
1071
      556
1071
   655383
1070
     0
  0
ACAD_PROXY_OBJECT
  5
55C8
330
0
100
AcDbProxyObject
 90
      499
 91
      586
 93
      306
310
000140805086C656E675065726300000000002016D002D431CEBE2361A3F0000003F20F5E5D065
330
2737
 94
        0
1001
ACAD
1000
AcadProxyRoundTripData
1071
      555
1071
   655383
1070
     0
  0
ACAD_PROXY_OBJECT
  5
55C9
330
0
100
AcDbProxyObject
 90
      499
 91
      586
 93
      266
310
0001408050B6D61737344656E7369747942D431CEBE2361A3F0000003F20F5E5D07F
330
2737
 94
        0
1001
ACAD
1000
AcadProxyRoundTripData
1071
      555
1071
   655383
1070
     0
  0
ACAD_PROXY_OBJECT
  5
55CA
330
0
100
AcDbProxyObject
 90
      499
 91
      586
 93
      186
310
000140805096D617373546869636BA0000003F20F5E5D05A
330
2737
 94
        0
1001
ACAD
1000
AcadProxyRoundTripData
1071
      555
1071
   655383
1070
     0
  0
ACAD_PROXY_OBJECT
  5
55CB
330
0
100
AcDbProxyObject
 90
      499
 91
      586
 93
      230
310
000140C05086D6173735479706501436F2AB64A14CA4817D4DA195B1B3
330
2737
 94
        0
1001
ACAD
1000
AcadProxyRoundTripData
1071
      556
1071
   655383
1070
     0
  0
ACAD_PROXY_OBJECT
  5
55CC
330
0
100
AcDbProxyObject
 90
      499
 91
      586
 93
      242
310
000140805086F667366446973744000000FC83D797C10000003F20F5E5D075
330
2737
 94
        0
1001
ACAD
1000
AcadProxyRoundTripData
1071
      555
1071
   655383
1070
     0
  0
ACAD_PROXY_OBJECT
  5
55CD
330
0
100
AcDbProxyObject
 90
      499
 91
      586
 93
      258
310
0001408050A7072696D52616469757342D431CEBE2361A3F0000003F20F5E5D050
330
2737
 94
        0
1001
ACAD
1000
AcadProxyRoundTripData
1071
      555
1071
   655383
1070
     0
  0
ACAD_PROXY_OBJECT
  5
55CE
330
0
100
AcDbProxyObject
 90
      499
 91
      586
 93
      194
310
0001408050A7072696D546F70526164A0000003F20F5E5D040
330
2737
 94
        0
1001
ACAD
1000
AcadProxyRoundTripData
1071
      555
1071
   655383
1070
     0
  0
ACAD_PROXY_OBJECT
  5
55CF
330
0
100
AcDbProxyObject
 90
      499
 91
      586
 93
      266
310
0001408050B7072696D5475626552616442D431CEBE2361A3F0000003F20F5E5D07F
330
2737
 94
        0
1001
ACAD
1000
AcadProxyRoundTripData
1071
      555
1071
   655383
1070
     0
  0
ACAD_PROXY_OBJECT
  5
55D0
330
0
100
AcDbProxyObject
 90
      499
 91
      586
 93
      258
310
0001408050A7072696D4865696768744000000FC83D797C10000003F20F5E5D050
330
2737
 94
        0
1001
ACAD
1000
AcadProxyRoundTripData
1071
      555
1071
   655383
1070
     0
  0
ACAD_PROXY_OBJECT
  5
55D1
330
0
100
AcDbProxyObject
 90
      499
 91
      586
 93
      250
310
000140805097072696D5374416E678182D4454FB2119C0060B51153EC8465010
330
2737
 94
        0
1001
ACAD
1000
AcadProxyRoundTripData
1071
      555
1071
   655383
1070
     0
  0
ACAD_PROXY_OBJECT
  5
55D2
330
0
100
AcDbProxyObject
 90
      499
 91
      586
 93
      322
310
0001408050A7072696D456E64416E67060B51153EC846500182D4454FB2119C0060B51153EC8465005
330
2737
 94
        0
1001
ACAD
1000
AcadProxyRoundTripData
1071
      555
1071
   655383
1070
     0
  0
ACAD_PROXY_OBJECT
  5
55D3
330
0
100
AcDbProxyObject
 90
      499
 91
      586
 93
      242
310
000140805087265765374416E678182D4454FB2119C0060B51153EC8465019
330
2737
 94
        0
1001
ACAD
1000
AcadProxyRoundTripData
1071
      555
1071
   655383
1070
     0
  0
ACAD_PROXY_OBJECT
  5
55D4
330
0
100
AcDbProxyObject
 90
      499
 91
      586
 93
      314
310
00014080509726576456E64416E67060B51153EC846500182D4454FB2119C0060B51153EC8465010
330
2737
 94
        0
1001
ACAD
1000
AcadProxyRoundTripData
1071
      555
1071
   655383
1070
     0
  0
ACAD_PROXY_OBJECT
  5
55D5
330
0
100
AcDbProxyObject
 90
      499
 91
      586
 93
      194
310
0001404050C7266736655706174636865734290139C0C0002D
330
2737
 94
        0
1001
ACAD
1000
AcadProxyRoundTripData
1071
      557
1071
   655383
1070
     0
  0
ACAD_PROXY_OBJECT
  5
55D6
330
0
100
AcDbProxyObject
 90
      499
 91
      586
 93
      194
310
0001404050C7266736656706174636865734290139C0C0002D
330
2737
 94
        0
1001
ACAD
1000
AcadProxyRoundTripData
1071
      557
1071
   655383
1070
     0
  0
ACAD_PROXY_OBJECT
  5
55D7
330
0
100
AcDbProxyObject
 90
      499
 91
      586
 93
      246
310
000140C0508747562654D6F64650143E3BA24EB8A134A4817D3585B9D585B0
330
2737
 94
        0
1001
ACAD
1000
AcadProxyRoundTripData
1071
      556
1071
   655383
1070
     0
  0
ACAD_PROXY_OBJECT
  5
55D8
330
0
100
AcDbProxyObject
 90
      499
 91
      586
 93
      274
310
0001408050C747562654469616D6574657242D431CEBE2361A3F0000003F20F5E5D055
330
2737
 94
        0
1001
ACAD
1000
AcadProxyRoundTripData
1071
      555
1071
   655383
1070
     0
  0
ACAD_PROXY_OBJECT
  5
55D9
330
0
100
AcDbProxyObject
 90
      499
 91
      586
 93
      130
310
00014040509696E746572506F6C79A4057
330
2737
 94
        0
1001
ACAD
1000
AcadProxyRoundTripData
1071
      557
1071
   655383
1070
     0
  0
ACAD_PROXY_OBJECT
  5
55DA
330
0
100
AcDbProxyObject
 90
      499
 91
      586
 93
      162
310
0001404050D696E746572417567506F696E74A405C
330
2737
 94
        0
1001
ACAD
1000
AcadProxyRoundTripData
1071
      557
1071
   655383
1070
     0
  0
ACAD_PROXY_OBJECT
  5
55DB
330
0
100
AcDbProxyObject
 90
      499
 91
      586
 93
      238
310
000140C0509696E7465727472696D014365EF257ECA108A4817D09BDD1A3
330
2737
 94
        0
1001
ACAD
1000
AcadProxyRoundTripData
1071
      556
1071
   655383
1070
     0
  0
ACAD_PROXY_OBJECT
  5
55DC
330
0
100
AcDbProxyObject
 90
      499
 91
      586
 93
      230
310
000140C0509696E7465727479706501433136344A150A4817D51C9A5B5
330
2737
 94
        0
1001
ACAD
1000
AcadProxyRoundTripData
1071
      556
1071
   655383
1070
     0
  0
ACAD_PROXY_OBJECT
  5
55DD
330
0
100
AcDbProxyObject
 90
      499
 91
      586
 93
      146
310
0001404050A636F726E65727472696D4064063
330
2737
 94
        0
1001
ACAD
1000
AcadProxyRoundTripData
1071
      557
1071
   655383
1070
     0
  0
ACAD_PROXY_OBJECT
  5
55DE
330
0
100
AcDbProxyObject
 90
      499
 91
      586
 93
      130
310
000140405086F6673666B6565704064046
330
2737
 94
        0
1001
ACAD
1000
AcadProxyRoundTripData
1071
      557
1071
   655383
1070
     0
  0
ACAD_PROXY_OBJECT
  5
55DF
330
0
100
AcDbProxyObject
 90
      499
 91
      586
 93
      146
310
0001404050A70726F6A4F757470757440A40E3
330
2737
 94
        0
1001
ACAD
1000
AcadProxyRoundTripData
1071
      557
1071
   655383
1070
     0
  0
ACAD_PROXY_OBJECT
  5
55E0
330
0
100
AcDbProxyObject
 90
      499
 91
      586
 93
      270
310
000140C050D70726F6A446972656374696F6E014372F7AB6C0A124A4817DD92595DC
330
2737
 94
        0
1001
ACAD
1000
AcadProxyRoundTripData
1071
      556
1071
   655383
1070
     0
  0
ACAD_PROXY_OBJECT
  5
55E1
330
0
100
AcDbProxyObject
 90
      499
 91
      586
 93
      130
310
0001404050870726F6A4B6565704064056
330
2737
 94
        0
1001
ACAD
1000
AcadProxyRoundTripData
1071
      557
1071
   655383
1070
     0
  0
ACAD_PROXY_OBJECT
  5
55E2
330
0
100
AcDbProxyObject
 90
      499
 91
      586
 93
      278
310
000140C050B70726F6A53706163696E670144237164D2CA13CA4817D3DC1D1A5B585B1
330
2737
 94
        0
1001
ACAD
1000
AcadProxyRoundTripData
1071
      556
1071
   655383
1070
     0
  0
ACAD_PROXY_OBJECT
  5
55E3
330
0
100
AcDbProxyObject
 90
      499
 91
      586
 93
      250
310
0001408050970726F6A54617065728182D4454FB21F9BF060B51153EC87E4FE5
330
2737
 94
        0
1001
ACAD
1000
AcadProxyRoundTripData
1071
      555
1071
   655383
1070
     0
  0
ACAD_PROXY_OBJECT
  5
55E4
330
0
100
AcDbProxyObject
 90
      499
 91
      586
 93
      130
310
00014040508647261674B656570406406D
330
2737
 94
        0
1001
ACAD
1000
AcadProxyRoundTripData
1071
      557
1071
   655383
1070
     0
  0
ACAD_PROXY_OBJECT
  5
55E5
330
0
100
AcDbProxyObject
 90
      499
 91
      586
 93
      302
310
000140C050F647261674F7269656E746174696F6E0143E590243F0A138A4817D39BDC9B585B2
330
2737
 94
        0
1001
ACAD
1000
AcadProxyRoundTripData
1071
      556
1071
   655383
1070
     0
  0
ACAD_PROXY_OBJECT
  5
55E6
330
0
100
AcDbProxyObject
 90
      499
 91
      586
 93
      286
310
000140C050E647261675472616E736974696F6E0143A3B6A4DE0A10CA4817DCD0D85B195
330
2737
 94
        0
1001
ACAD
1000
AcadProxyRoundTripData
1071
      556
1071
   655383
1070
     0
  0
ACAD_PROXY_OBJECT
  5
55E7
330
0
100
AcDbProxyObject
 90
      499
 91
      586
 93
      318
310
000140C051061646A757374436F6E74696E7569747901442F746C2F778A14CA4817D4DB5BDBDD1A0
330
2737
 94
        0
1001
ACAD
1000
AcadProxyRoundTripData
1071
      556
1071
   655383
1070
     0
  0
ACAD_PROXY_OBJECT
  5
55E8
330
0
100
AcDbProxyObject
 90
      499
 91
      586
 93
      138
310
0001404050A61646A7573744B656570A4067
330
2737
 94
        0
1001
ACAD
1000
AcadProxyRoundTripData
1071
      557
1071
   655383
1070
     0
  0
ACAD_PROXY_OBJECT
  5
55E9
330
0
100
AcDbProxyObject
 90
      499
 91
      586
 93
      250
310
0001408050972756C65576964746842D431CEBE2361A3F0000003F20F5E5D064
330
2737
 94
        0
1001
ACAD
1000
AcadProxyRoundTripData
1071
      555
1071
   655383
1070
     0
  0
ACAD_PROXY_OBJECT
  5
55EA
330
0
100
AcDbProxyObject
 90
      499
 91
      586
 93
      274
310
0001408050C616E616C797A65447261667421D139D28615ED8FE060B51153EC842500D
330
2737
 94
        0
1001
ACAD
1000
AcadProxyRoundTripData
1071
      555
1071
   655383
1070
     0
  0
ACAD_PROXY_OBJECT
  5
55EB
330
0
100
AcDbProxyObject
 90
      499
 91
      586
 93
      210
310
0001404050F616E616C797A654E756D4C696E65734163FDFC00006
330
2737
 94
        0
1001
ACAD
1000
AcadProxyRoundTripData
1071
      557
1071
   655383
1070
     0
  0
ACAD_PROXY_OBJECT
  5
55EC
330
0
100
AcDbProxyObject
 90
      499
 91
      586
 93
      202
310
00014040512616E616C797A65526F746174654C696E6573A4040
330
2737
 94
        0
1001
ACAD
1000
AcadProxyRoundTripData
1071
      557
1071
   655383
1070
     0
  0
ACAD_PROXY_OBJECT
  5
55ED
330
0
100
AcDbProxyObject
 90
      499
 91
      586
 93
      210
310
00014040513616E616C797A65446973706C61794C696E6573A4046
330
2737
 94
        0
1001
ACAD
1000
AcadProxyRoundTripData
1071
      557
1071
   655383
1070
     0
  0
ACAD_PROXY_OBJECT
  5
55EE
330
0
100
AcDbProxyObject
 90
      499
 91
      586
 93
      258
310
00014040519616E616C797A655472616E736C7563656E7453757266616365A4042
330
2737
 94
        0
1001
ACAD
1000
AcadProxyRoundTripData
1071
      557
1071
   655383
1070
     0
  0
ACAD_PROXY_OBJECT
  5
55F8
330
0
100
AcDbProxyObject
 90
      499
 91
      586
 93
      706
310
0001000000009AA6A9AA4051E576564205365702030352030373A34343A303420323030372028555443290141CD4B8C4B8D0B8CC0518547565204A756E2031302031393A31323A3030203230303801420D4B8C4B8C8B8C4D88
330
2737
330
55F9
330
55FA
330
55FC
330
0
 94
        0
1001
ACAD
1000
AcadProxyRoundTripData
1071
      563
1071
   655383
1070
     0
  0
ACAD_PROXY_OBJECT
  5
55F9
330
0
100
AcDbProxyObject
 90
      499
 91
      586
 93
       70
310
0001AAA80820000000
330
2737
330
55F9
330
55F9
 94
        0
1001
ACAD
1000
AcadProxyRoundTripData
1071
      564
1071
   655383
1070
     0
  0
ACAD_PROXY_OBJECT
  5
55FA
330
0
100
AcDbProxyObject
 90
      499
 91
      586
 93
       48
310
00010000000011
330
2737
330
0
330
55FB
330
0
330
0
 94
        0
1001
ACAD
1000
AcadProxyRoundTripData
1071
      565
1071
   655383
1070
     0
  0
ACAD_PROXY_OBJECT
  5
55FB
330
0
100
AcDbProxyObject
 90
      499
 91
      586
 93
       40
310
000100AAAA00
330
2737
330
0
 94
        0
1001
ACAD
1000
AcadProxyRoundTripData
1071
      566
1071
   655383
1070
     0
  0
ACAD_PROXY_OBJECT
  5
55FD
330
0
100
AcDbProxyObject
 90
      499
 91
      586
 93
      124
310
00010142905350D3D39114D414D69050
330
2737
 94
        0
1001
ACAD
1000
AcadProxyRoundTripData
1071
      510
1071
   655383
1070
     0
  0
ACAD_PROXY_OBJECT
  5
55FE
330
0
100
AcDbProxyObject
 90
      499
 91
      586
 93
      124
310
000101429053549553115353D1115010
330
2737
 94
        0
1001
ACAD
1000
AcadProxyRoundTripData
1071
      510
1071
   655383
1070
     0
  0
ACAD_PROXY_OBJECT
  5
55FF
330
0
100
AcDbProxyObject
 90
      499
 91
      586
 93
      108
310
00010142105354D2D353D1115011
330
2737
 94
        0
1001
ACAD
1000
AcadProxyRoundTripData
1071
      510
1071
   655383
1070
     0
  0
ACAD_PROXY_OBJECT
  5
5600
330
0
100
AcDbProxyObject
 90
      499
 91
      586
 93
      140
310
000101435053511253511254D41353D11160
330
2737
 94
        0
1001
ACAD
1000
AcadProxyRoundTripData
1071
      510
1071
   655383
1070
     0
  0
ACAD_PROXY_OBJECT
  5
5601
330
0
100
AcDbProxyObject
 90
      499
 91
      586
 93
      180
310
00010142905354D2D05391D513D3000000000000010400
330
2737
 94
        0
1001
ACAD
1000
AcadProxyRoundTripData
1071
      509
1071
   655383
1070
     0
  0
ACAD_PROXY_OBJECT
  5
5602
330
0
100
AcDbProxyObject
 90
      499
 91
      586
 93
      164
310
00010142505354D2D4D516531140505434F4E542A1
330
2737
 94
        0
1001
ACAD
1000
AcadProxyRoundTripData
1071
      525
1071
   655383
1070
     0
  0
ACAD_PROXY_OBJECT
  5
5603
330
0
100
AcDbProxyObject
 90
      499
 91
      586
 93
      108
310
00010142105350D3511112535010
330
2737
 94
        0
1001
ACAD
1000
AcadProxyRoundTripData
1071
      510
1071
   655383
1070
     0
  0
ACAD_PROXY_OBJECT
  5
5604
330
0
100
AcDbProxyObject
 90
      499
 91
      586
 93
      108
310
00010142105350D3D35414D59010
330
2737
 94
        0
1001
ACAD
1000
AcadProxyRoundTripData
1071
      510
1071
   655383
1070
     0
  0
ACAD_PROXY_OBJECT
  5
5605
330
0
100
AcDbProxyObject
 90
      499
 91
      586
 93
      164
310
0001014290535410549514D4119600504CADFB0C21
330
2737
 94
        0
1001
ACAD
1000
AcadProxyRoundTripData
1071
      525
1071
   655383
1070
     0
  0
ACAD_PROXY_OBJECT
  5
5606
330
0
100
AcDbProxyObject
 90
      499
 91
      586
 93
      220
310
0001014350535513D3D31093D11654119600508C2B0D9CEDEC3DEA83
330
2737
 94
        0
1001
ACAD
1000
AcadProxyRoundTripData
1071
      525
1071
   655383
1070
     0
  0
ACAD_PROXY_OBJECT
  5
5607
330
0
100
AcDbProxyObject
 90
      499
 91
      586
 93
      116
310
000101425053511254D410D3D39014
330
2737
 94
        0
1001
ACAD
1000
AcadProxyRoundTripData
1071
      510
1071
   655383
1070
     0
  0
ACAD_PROXY_OBJECT
  5
5608
330
0
100
AcDbProxyObject
 90
      499
 91
      586
 93
      108
310
00010142105350D3D39114D41010
330
2737
 94
        0
1001
ACAD
1000
AcadProxyRoundTripData
1071
      510
1071
   655383
1070
     0
  0
ACAD_PROXY_OBJECT
  5
5609
330
0
100
AcDbProxyObject
 90
      499
 91
      586
 93
      124
310
0001014290535490511114D414D69191
330
2737
 94
        0
1001
ACAD
1000
AcadProxyRoundTripData
1071
      510
1071
   655383
1070
     0
  0
ACAD_PROXY_OBJECT
  5
560B
330
0
100
AcDbProxyObject
 90
      499
 91
      586
 93
     3100
310
0001419078050A544852555F4452494C4C0142D09312539117D1149253130050A544852555F43424F52450142D09312539117D0D093D4914050A544852555F4353494E4B0142D09312539117D0D4D25392D0641E01449EC94958C80949505351125048151214955F4051C7B252563202525414D4449412058202525414D444
310
55020444545507D014E5EC94958C80949505351125048151214955F57141ED0D093D49148094958C80949505350D112504816080949505350D091115408111151541F405437B252563202525414D4449412058202525414D44455020444545507D5C507B43424F524520252563202525414D434449412058202525414D4342
310
44455020444545507D014DDEC94958C80949505351125048151214955F57141ED0D4D25392C8094958C80949505350D112504816080949505350D4D05391C949591F405417B252563202525414D4449412058202525414D44455020444545507D5C507B4353494E4B20252563202525414D434449412058202525414D43534
310
14E472525647D0
330
2737
 94
        0
1001
ACAD
1000
AcadProxyRoundTripData
1071
      568
1071
   655383
1070
     0
  0
ACAD_PROXY_OBJECT
  5
560D
330
0
100
AcDbProxyObject
 90
      499
 91
      586
 93
      140
310
00010143105354D554141490D3D313D49A61
330
2737
 94
        0
1001
ACAD
1000
AcadProxyRoundTripData
1071
      510
1071
   655383
1070
     0
  0
ACAD_PROXY_OBJECT
  5
5612
330
0
100
AcDbProxyObject
 90
      499
 91
      586
 93
      132
310
00010142D05050555513D4D3D31591501A
330
2737
 94
        0
1001
ACAD
1000
AcadProxyRoundTripData
1071
      510
1071
   655383
1070
     0
  0
ACAD_PROXY_OBJECT
  5
5613
330
0
100
AcDbProxyObject
 90
      499
 91
      586
 93
      156
310
00010143905050555513D054D4D1535093115010
330
2737
 94
        0
1001
ACAD
1000
AcadProxyRoundTripData
1071
      510
1071
   655383
1070
     0
  0
ACAD_PROXY_OBJECT
  5
5614
330
0
100
AcDbProxyObject
 90
      499
 91
      586
 93
      148
310
00010143505055925155D49154D513D4915010
330
2737
 94
        0
1001
ACAD
1000
AcadProxyRoundTripData
1071
      510
1071
   655383
1070
     0
  0
ACAD_PROXY_OBJECT
  5
5615
330
0
100
AcDbProxyObject
 90
      499
 91
      586
 93
      124
310
00010142D050525394D15495105094E4
330
2737
 94
        0
1001
ACAD
1000
AcadProxyRoundTripData
1071
      510
1071
   655383
1070
     0
  0
ACAD_PROXY_OBJECT
  5
5616
330
0
100
AcDbProxyObject
 90
      499
 91
      586
 93
      148
310
00010143505054D0D153915554111055115010
330
2737
 94
        0
1001
ACAD
1000
AcadProxyRoundTripData
1071
      510
1071
   655383
1070
     0
  0
ACAD_PROXY_OBJECT
  5
5617
330
0
100
AcDbProxyObject
 90
      499
 91
      586
 93
      172
310
00010143105054D5509054D4D3541196005035355422
330
2737
 94
        0
1001
ACAD
1000
AcadProxyRoundTripData
1071
      525
1071
   655383
1070
     0
  0
ACAD_PROXY_OBJECT
  5
5618
330
0
100
AcDbProxyObject
 90
      499
 91
      586
 93
      172
310
00010142905054D0D15391541196005055343454E452
330
2737
 94
        0
1001
ACAD
1000
AcadProxyRoundTripData
1071
      525
1071
   655383
1070
     0
  0
ACAD_PROXY_OBJECT
  5
5619
330
0
100
AcDbProxyObject
 90
      499
 91
      586
 93
      148
310
00010143505350555513D313D0D2D4D0D39014
330
2737
 94
        0
1001
ACAD
1000
AcadProxyRoundTripData
1071
      510
1071
   655383
1070
     0
  0
ACAD_PROXY_OBJECT
  5
561E
330
0
100
AcDbProxyObject
 90
      499
 91
      586
 93
       32
310
0001000000
330
2737
340
561B
330
5620
330
561B
 94
        0
1001
ACAD
1000
AcadProxyRoundTripData
1071
      574
1071
   655383
1070
     0
  0
ACAD_PROXY_OBJECT
  5
561F
330
0
100
AcDbProxyObject
 90
      499
 91
      586
 93
       18
310
0001A8
330
2737
 94
        0
1001
ACAD
1000
AcadProxyRoundTripData
1071
      575
1071
   655383
1070
     0
  0
ACAD_PROXY_OBJECT
  5
5620
330
0
100
AcDbProxyObject
 90
      499
 91
      586
 93
      183
310
000101438C0C0C4B4C0C0C4813508D8D0D8D1050055401
330
2737
330
561E
330
561F
 94
        0
1001
ACAD
1000
AcadProxyRoundTripData
1071
      576
1071
   655383
1070
     0
  0
ACAD_PROXY_OBJECT
  5
5621
330
0
100
AcDbProxyObject
 90
      499
 91
      586
 93
       40
310
000100AAAA00
330
2737
330
5620
 94
        0
1001
ACAD
1000
AcadProxyRoundTripData
1071
      577
1071
   655383
1070
     0
  0
ACAD_PROXY_OBJECT
  5
5622
330
0
100
AcDbProxyObject
 90
      499
 91
      586
 93
      108
310
000190140A000000000000AAAAA6
330
2737
330
5623
330
5623
330
5623
330
5623
330
5623
330
0
 94
        0
1001
ACAD
1000
AcadProxyRoundTripData
1071
      578
1071
   655383
1070
     0
  0
ACAD_PROXY_OBJECT
  5
5623
330
0
100
AcDbProxyObject
 90
      499
 91
      586
 93
       51
310
00010000AAAA90
330
2737
330
5622
330
5620
 94
        0
1001
ACAD
1000
AcadProxyRoundTripData
1071
      579
1071
   655383
1070
     0
  0
DICTIONARY
  5
274D
102
{ACAD_REACTORS
330
274C
102
}
330
274C
100
AcDbDictionary
  3
DWGSETTINGS
350
274E
  3
FEM
350
351D
  3
SHAFT
350
2821
  3
TRANSSETTINGS
350
274F
  0
ACAD_PROXY_OBJECT
  5
2758
102
{ACAD_REACTORS
330
274C
102
}
330
274C
100
AcDbProxyObject
 90
      499
 91
      586
 93
    18950
310
411014A90130404C1073F7FFFFFE404C50131438FDFFFFFF90132404C9053F7FFFFFE404CD0133418FDFFFFFF90134404D1033F7FFFFFE404D5013540CFDFFFFFF90136404D9023F7FFFFFE404DD0137410FDFFFFFF90138404E1013F7FFFFFE408CD05023341418FDFFFFFF9023741408DD05043F7FFFFFE408C905023241
310
41CFDFFFFFF9023441408D105033F7FFFFFE404E501397F4FDFFFFFF4110249504092541073F7FFFFFE408C13902304E41CFDFFFFFF902314E408C5390E3F7FFFFFE408C93902324E414FDFFFFFF902334E408CD39063F7FFFFFE408D13902344E40CFDFFFFFF902354E408D539033F7FFFFFE408D93902364E408FDFFFFFF
310
902374E408DD39043F7FFFFFE408E13902384E404FDFFFFFF90333414E40CCD0539063F7FFFFFE40CDD05390337414E410FDFFFFFF90332414E40CC90539073F7FFFFFE40CD105390334414E40CFDFFFFFF902394E408E539FD3F7FFFFFD0440D2541390349504E41CFDFFFFFF9044B6C696E4112D312539013F7FFFFFD094
310
1125B999BD04494E464F410FDFFFFFF425055261686D3241549052134C9013F7FFFFFD094154985A1B4CD055241484D33408FDFFFFFF425055261686D3541549052134D5073F7FFFFFD0941159A595DD0456494557404FDFFFFFF42506426568696E64419091521253911FD3F7FFFFFD0D415514905253105414D5F545240D
310
194250348494441905357D212511074650940D59254D06414D5F56495341D324250650415244494D42505357D410549112535034650941949151911253509414D5F52454644494D4111942581411051111310135404FFFFFFFF41105315149013441CFFFFFFFF411091531250134CFFFFFFFF411092139590139CFFFFFFFF4
310
15092139594D06424548494E44CFFFFFFFF41109312511023441CFFFFFFFF411093D0541023441CFFFFFFFF411093D48C9055241484D32CFFFFFFFF411093D48CD055241484D33CFFFFFFFF411093D48D5055241484D35CFFFFFFFF411093D48DD055241484D3541CFFFFFFFF41109410541023441CFFFFFFFF41109411561
310
023441CFFFFFFFF411095111250135CFFFFFFFF4110D0530C90134CFFFFFFFF4110D0530CD0134408FFFFFFFF4110D0530D5013441CFFFFFFFF4110D0530DD0134414FFFFFFFF4110D153939023741CFFFFFFFF4110D15395D0137CFFFFFFFF4110D312539044B4C494ECFFFFFFFF4110D3D38C50130CFFFFFFFF4110D3D38
310
C90131CFFFFFFFF4110D3D38CD0132CFFFFFFFF4110D3D38D10132CFFFFFFFF411111549410134CFFFFFFFF411111551050134CFFFFFFFF4111125051D0135CFFFFFFFF411112531250135CFFFFFFFF4151125513CC9013540CFFFFFFFF4151125513CCD0135408FFFFFFFF411112551610135CFFFFFFFF411112561310135
310
CFFFFFFFF41115613541023441CFFFFFFFF411191535390138CFFFFFFFF4151915354139013840CFFFFFFFF4151915354D41023441CFFFFFFFF4151915354D5102344140CFFFFFFFF41519153559390132CFFFFFFFF4151915355951013240CFFFFFFFF411193105510130CFFFFFFFF41119490549023441CFFFFFFFF4111D
310
4931250135CFFFFFFFF4111D593125023441CFFFFFFFF4112105510D0138CFFFFFFFF41121251139023341CFFFFFFFF4112125115D0133CFFFFFFFF411213125390134CFFFFFFFF411213D0D39023741CFFFFFFFF411213D0D5D0137CFFFFFFFF4112539193D04494E464FCFFFFFFFF411310511250134CFFFFFFFF4113115
310
05110135CFFFFFFFF419397D0511113102354E404FFFFFFFF419397D0921395902394ECFFFFFFFF419397D0D3D38C502304ECFFFFFFFF419397D0D3D38C902314ECFFFFFFFF419397D0D3D38CD02324ECFFFFFFFF419397D0D3D38D102324ECFFFFFFFF419397D0D1539390337414ECFFFFFFFF419397D0D15395D02374ECF
310
FFFFFFF419397D1125312502354ECFFFFFFFF419397D1125516102354E408FFFFFFFF419397D1125613102354ECFFFFFFFF419397D2105510D02384ECFFFFFFFF419397D212511390333414ECFFFFFFFF419397D2125115D02334ECFFFFFFFF419397D391D25410349504ECFFFFFFFF419397D412105390334414ECFFFFFFF
310
F419397D413D4D3102354ECFFFFFFFF419397D510D3D3902304ECFFFFFFFF419397D5121312502344ECFFFFFFFF419397D5131153902304ECFFFFFFFF419397D516150CD02364ECFFFFFFFF419397D594131250332414ECFFFFFFFF411391D2541024950CFFFFFFFF411410530C9055241484D32CFFFFFFFF411410530CD05
310
5241484D33CFFFFFFFF411410530D5055241484D35CFFFFFFFF411410530DD055241484D3541CFFFFFFFF41141210539023441CFFFFFFFF411413D4D310135CFFFFFFFF411413D4D39013641CFFFFFFFF419413D4D4915190136414FFFFFFFF411413D4D610135408FFFFFFFF411414D150D023441CFFFFFFFF411490D1D39
310
023741CFFFFFFFF411490D1D5D0137CFFFFFFFF411491911250134CFFFFFFFF41149455149013441CFFFFFFFF411494D093D0134CFFFFFFFF4114D09492D0134CFFFFFFFF4114D0D15390137CFFFFFFFF4114D150D510134CFFFFFFFF4114D153139023741CFFFFFFFF4114D15315D0137CFFFFFFFF4114D4D654D0130CFFF
310
FFFFF4114D513125013441CFFFFFFFF4114D6508C50135CFFFFFFFF4114D6508C90135CFFFFFFFF4114D6508CD0136CFFFFFFFF4114D6508D5013541CFFFFFFFF4114D653539023741CFFFFFFFF4114D65355D0137CFFFFFFFF411510D3D390130CFFFFFFFF411512131250134CFFFFFFFF411512550C9055241484D32CFFF
310
FFFFF411512550CD055241484D33CFFFFFFFF411512550D5055241484D35CFFFFFFFF411512550DD055241484D3541CFFFFFFFF411513115390130CFFFFFFFF41151492D39023741CFFFFFFFF41151492D5D0137CFFFFFFFF411514931250134CFFFFFFFF411516150C50136408FFFFFFFF411516150C90136408FFFFFFFF4
310
11516150CD0136CFFFFFFFF411516150D5013641CFFFFFFFF411516150DD013641CFFFFFFFF4115925155D0456494557CFFFFFFFF41159413125023241CFFFFFFFF411692569050134CFFFFFFFF411112535410650415244494DCFFFFFFFF411112535490652454644494DCFFFFFFFF419397D3115051102354ECFFFFFFFF4
310
11354D6535013540923415514905253105545241494CCFFFFFFFF4115915112103484944CFFFFFFFF4115915115903564953CFFFFFFFFAA9FDA429014650248D0346504465054C906465074C90E4C91E519FD8
340
14
340
14
340
14
340
2784
340
14
340
14
340
14
340
120B
340
14
340
2785
340
1672
340
120B
340
2786
340
14
340
14
340
14
340
14
340
14
340
2784
340
14
340
14
340
14
340
120B
340
14
340
2785
340
1672
340
120B
340
2786
340
14
340
14
340
14
340
14
340
14
340
14
340
14
340
14
340
14
340
14
340
2759
340
14
340
14
340
14
340
13
340
2785
340
13
340
13
340
13
340
13
340
13
340
13
340
13
340
13
340
14
340
13
340
13
340
13
340
13
340
13
340
13
340
13
340
13
340
13
340
13
340
13
340
13
340
13
340
13
340
13
340
13
340
13
340
13
340
13
340
13
340
14
340
13
340
13
340
13
340
13
340
14
340
13
340
13
340
13
340
13
340
13
340
13
340
13
340
13
340
13
340
13
340
13
340
13
340
13
340
13
340
13
340
13
340
13
340
13
340
13
340
13
340
13
340
13
340
13
340
13
340
13
340
14
340
13
340
13
340
13
340
13
340
13
340
13
340
13
340
13
340
13
340
13
340
13
340
13
340
13
340
13
340
13
340
13
340
14
340
13
340
13
340
13
340
13
340
14
340
13
340
13
340
13
340
13
340
1672
340
13
340
13
340
14
340
13
340
13
340
13
340
13
340
2785
340
13
340
13
340
14
340
13
340
13
340
13
340
13
340
13
340
13
340
13
340
13
340
14
340
13
340
13
340
13
340
13
340
13
340
13
340
13
340
13
340
13
340
13
340
13
340
2789
340
13
340
13
340
13
340
13
340
13
340
13
340
13
 94
        0
1001
ACAD
1000
AcadProxyRoundTripData
1071
      527
1071
   655383
1070
     0
  0
ACAD_PROXY_OBJECT
  5
2790
102
{ACAD_REACTORS
330
278B
102
}
330
278B
100
AcDbProxyObject
 90
      499
 91
      586
 93
      253
310
43D1444494D454E53494F4E2C414D44545F2A5F44494D404A9012A404A9012AF
 94
        0
1001
ACAD
1000
AcadProxyRoundTripData
1071
      541
1071
   655383
1070
     0
  0
ACAD_PROXY_OBJECT
  5
278F
102
{ACAD_REACTORS
330
278B
102
}
330
278B
100
AcDbProxyObject
 90
      499
 91
      586
 93
      181
310
43D012A42D05357D191504B505357CA9012A404A9012AC
 94
        0
1001
ACAD
1000
AcadProxyRoundTripData
1071
      541
1071
   655383
1070
     0
  0
ACAD_PROXY_OBJECT
  5
278C
102
{ACAD_REACTORS
330
278B
102
}
330
278B
100
AcDbProxyObject
 90
      499
 91
      586
 93
      133
310
43D054841544348404A9012A404A9012A9
 94
        0
1001
ACAD
1000
AcadProxyRoundTripData
1071
      541
1071
   655383
1070
     0
  0
ACAD_PROXY_OBJECT
  5
278D
102
{ACAD_REACTORS
330
278B
102
}
330
278B
100
AcDbProxyObject
 90
      499
 91
      586
 93
      549
310
43D044C494E4549CE0B0E138B0A8B4E0B0A8B4E138B105357CE0B105357CE138B0A8B505357CE0B0A8B505357CE139012A404A910494E534552542C535444504152543244C
 94
        0
1001
ACAD
1000
AcadProxyRoundTripData
1071
      541
1071
   655383
1070
     0
  0
ACAD_PROXY_OBJECT
  5
2791
102
{ACAD_REACTORS
330
278B
102
}
330
278B
100
AcDbProxyObject
 90
      499
 91
      586
 93
      181
310
43D0341524341105357CD5012A404C906494E534552545
 94
        0
1001
ACAD
1000
AcadProxyRoundTripData
1071
      541
1071
   655383
1070
     0
  0
ACAD_PROXY_OBJECT
  5
278E
102
{ACAD_REACTORS
330
278B
102
}
330
278B
100
AcDbProxyObject
 90
      499
 91
      586
 93
     1053
310
43D7841434D46434652414D452C41434D444154554D5441524745542C41434D444154554D49442C41434D57454C4453594D2C41434D5355524653594D2C41434D4645415449442C41434D504152545245462C41434D42414C4C4F4F4E2C414D44544544474553594D2C414D47534352455743414C435441424C45404A9012A
310
404A9012AF
 94
        0
1001
ACAD
1000
AcadProxyRoundTripData
1071
      541
1071
   655383
1070
     0
  0
LAYER_INDEX
  5
2795
102
{ACAD_REACTORS
330
2794
102
}
330
2794
100
AcDbIndex
 40
2457218.778870764
100
AcDbLayerIndex
  8
0
360
2796
 90
       58
  8
最小図面
360
279B
 90
       11
  8
文字
360
279F
 90
        0
  8
補助線
360
27A0
 90
        3
  8
枠
360
27A1
 90
        0
  8
DEFPOINTS
360
27A4
 90
        0
  8
5
360
27AA
 90
       10
  8
細線
360
351A
 90
        0
  8
Layer0014
360
6C3D
 90
        0
  8
ZUWAKU
360
6C3E
 90
        1
  8
7
360
6C3F
 90
        0
  8
7A
360
6C40
 90
        0
  0
ACAD_PROXY_OBJECT
  5
2752
102
{ACAD_REACTORS
330
2751
102
}
330
2751
100
AcDbProxyObject
 90
      499
 91
      586
 93
      139
310
057356C1D51406406AA8FFFFFFFF0A8A4044
330
18
330
0
330
0
 94
        0
1001
ACAD
1000
AcadProxyRoundTripData
1071
      524
1071
   655383
1070
     0
  0
ACAD_PROXY_OBJECT
  5
2757
102
{ACAD_REACTORS
330
2756
102
}
330
2756
100
AcDbProxyObject
 90
      499
 91
      586
 93
     1927
310
5440000000000000C40D0349534F405901409020000000000000310322286A1682DAC8E88AC8CECAA6E8C8812028720B1B6A9BAB9332A32BC3A29BA3220480A1282C6DA8C868CA6E8C88120286A0B1B6ABB2B63234B733A9BA3220480A1082C6DA92C8A6E8C88120285A0B1B6A230BA3AB6A9BA3220480A1282C6DA849E9AA
310
6E8C8812028820B6B23A2232BA30B4B629BCB6A9BA3220480A2282DAC8E8A6CAC6E8D2DEDCA6F2DAA6E8C88120288A0B6B23A21B2B73A32B92634B732A9BA3220480A1682C682DACE98C2F2A6E8C88120285A0B1A0B6B3A234B6A9BA3220480A1A82C682DACEA8D2E8D8CAA6E8C881203205
340
2762
360
2763
360
2764
360
2765
360
2766
360
2767
360
2768
360
2769
360
276A
360
276B
360
276C
360
2772
360
2773
360
277F
 94
        0
1001
ACAD
1000
AcadProxyRoundTripData
1071
      526
1071
   655383
1070
     0
  0
ACAD_PROXY_OBJECT
  5
274E
102
{ACAD_REACTORS
330
274D
102
}
330
274D
100
AcDbProxyObject
 90
      499
 91
      586
 93
     2506
310
4050B44574753455454494E4753A1286829C8E82A4A482B282A106660F8686AF86C608321A2A720A723A0A849A1ABE1C983E18999AA0C868A9C889282940000000000000488083A1A2A72224A0A9A0A8418983E19183E199820E868A9C8892A6A894000000000000010808321A2A72622A7250000000000000122020C868A9
310
C9E8C8C940000000000000488084A1A624A720A92920ACA0A82199B971AA108698929C8AA8B2A082A0AB098929C8A84A1A624A722AA2CA822A0A82AC2624A722A1288AE8EAAA68682988A94283A620A9AA27A12520A80982109A82968AAC928AAE9FA04832829A1A0A622830020000419491559254D2505404C1055343414C
310
4541503313A35425512535154D510535412829E9D2089F899CD050756455253494F4E4150531352E3030441ED115D1D4D15515125391D4D153911F49
 94
        0
1001
ACAD
1000
AcadProxyRoundTripData
1071
      522
1071
   655383
1070
     0
  0
ACAD_PROXY_OBJECT
  5
351D
102
{ACAD_REACTORS
330
274D
102
}
330
274D
100
AcDbProxyObject
 90
      499
 91
      586
 93
      411
310
4050346454D21092DCC6E486DECACC942842630BCA3B937BAB820A8320A6AFA322A0A20F688AE8EA68AA8A8929C8EA68A9C88FB9
 94
        0
1001
ACAD
1000
AcadProxyRoundTripData
1071
      522
1071
   655383
1070
     0
  0
ACAD_PROXY_OBJECT
  5
2821
102
{ACAD_REACTORS
330
274D
102
}
330
274D
100
AcDbProxyObject
 90
      499
 91
      586
 93
      513
310
40505536861667421292DCE8CAE4E4EAE0E89FC84A634B3B43A2634B732A7F21A98D2CED0E898D2DCCAACD2CAEE9FC883DA22BA3A9A2AA2A24A723A9A2A7223E80
 94
        0
1001
ACAD
1000
AcadProxyRoundTripData
1071
      522
1071
   655383
1070
     0
  0
ACAD_PROXY_OBJECT
  5
274F
102
{ACAD_REACTORS
330
274D
102
}
330
274D
100
AcDbProxyObject
 90
      499
 91
      586
 93
      852
310
4050D5452414E5353455454494E4753A2488A482AE929C8EA8A4829CA69882A8929E9C0C00800050D4F524947494E414C4C595F4F4E0600400008529A7AAA921A2A620A723A0A81A52827212AAA0A48AA68AA4AC8A0C0080001107B44574753455454494E4753454E447D8
 94
        0
1001
ACAD
1000
AcadProxyRoundTripData
1071
      522
1071
   655383
1070
     0
  0
IDBUFFER
  5
2796
330
0
100
AcDbIdBuffer
330
5B4D
330
5B4E
330
5B6C
330
5B6D
330
5B6F
330
5B71
330
5B74
330
5B75
330
5B78
330
5B79
330
5B7E
330
5B80
330
5B86
330
5B88
330
5B8E
330
5B93
330
5B98
330
5BAA
330
5BAC
330
5BB1
330
5C0A
330
5C0E
330
5C13
330
5C14
330
5C15
330
5C16
330
5C5A
330
5C6A
330
5C6C
330
5C6D
330
5C6E
330
5C6F
330
5C72
330
5C7F
330
5C8F
330
5C92
330
5CD3
330
5CE4
330
5CE5
330
5CE6
330
5CEA
330
5D22
330
5D24
330
5D25
330
5D2F
330
5D33
330
5D39
330
5D3B
330
5D41
330
5D49
330
5D4B
330
5D67
330
5D68
330
5D6A
330
5D6C
330
5D6F
330
5D89
330
5D90
  0
IDBUFFER
  5
279B
330
0
100
AcDbIdBuffer
330
5715
330
5716
330
5717
330
5719
330
3911
330
39BA
330
39BB
330
5711
330
5712
330
5713
330
5714
  0
IDBUFFER
  5
279F
330
0
100
AcDbIdBuffer
  0
IDBUFFER
  5
27A0
330
0
100
AcDbIdBuffer
330
9C9
330
27F5
330
27FB
  0
IDBUFFER
  5
27A1
330
0
100
AcDbIdBuffer
  0
IDBUFFER
  5
27A4
330
0
100
AcDbIdBuffer
  0
IDBUFFER
  5
27AA
330
0
100
AcDbIdBuffer
330
5DA4
330
5DB1
330
5DD0
330
5DDD
330
5E00
330
5E16
330
5E23
330
5E30
330
6C25
330
6C30
  0
IDBUFFER
  5
351A
330
0
100
AcDbIdBuffer
  0
IDBUFFER
  5
6C3D
330
0
100
AcDbIdBuffer
  0
IDBUFFER
  5
6C3E
330
0
100
AcDbIdBuffer
330
5D69
  0
IDBUFFER
  5
6C3F
330
0
100
AcDbIdBuffer
  0
IDBUFFER
  5
6C40
330
0
100
AcDbIdBuffer
  0
ACAD_PROXY_OBJECT
  5
2763
330
2757
100
AcDbProxyObject
 90
      499
 91
      586
 93
       12
310
5454
 94
        0
1001
ACAD
1000
AcadProxyRoundTripData
1071
      528
1071
   655383
1070
     0
  0
ACAD_PROXY_OBJECT
  5
2764
330
2757
100
AcDbProxyObject
 90
      499
 91
      586
 93
       96
310
546A0E80A0280A0280A0280F00
 94
        0
1001
ACAD
1000
AcadProxyRoundTripData
1071
      529
1071
   655383
1070
     0
  0
ACAD_PROXY_OBJECT
  5
2765
330
2757
100
AcDbProxyObject
 90
      499
 91
      586
 93
      272
310
5450E4050140501405014050140501405014050140D01405012C000000000000004000
340
276D
 94
        0
1001
ACAD
1000
AcadProxyRoundTripData
1071
      530
1071
   655383
1070
     0
  0
ACAD_PROXY_OBJECT
  5
2766
330
2757
100
AcDbProxyObject
 90
      499
 91
      586
 93
      496
310
5468666666666667A67E199999999999E99FD22405014050140501405014050140501405014050140501405014050140501405014050140501405014050100
340
276E
 94
        0
1001
ACAD
1000
AcadProxyRoundTripData
1071
      531
1071
   655383
1070
     0
  0
ACAD_PROXY_OBJECT
  5
2767
330
2757
100
AcDbProxyObject
 90
      499
 91
      586
 93
       10
310
5444
 94
        0
1001
ACAD
1000
AcadProxyRoundTripData
1071
      532
1071
   655383
1070
     0
  0
ACAD_PROXY_OBJECT
  5
2768
330
2757
100
AcDbProxyObject
 90
      499
 91
      586
 93
      223
310
546290EA22A7D90F49F8000000000000108140000000000000420204
340
276F
340
2770
 94
        0
1001
ACAD
1000
AcadProxyRoundTripData
1071
      533
1071
   655383
1070
     0
  0
ACAD_PROXY_OBJECT
  5
2769
330
2757
100
AcDbProxyObject
 90
      499
 91
      586
 93
    12067
310
5450E411255115350141236025B690140501406901000000000000091013347454E545241434F2C4A504E2C302C8D8096DA2C47454E54524154582C25732C2847454E4D53472067656E6477672032323229406901206A2A8B280A0921292F9480A0480A0280C808000000000000488099A3A2A72A2920A1A79625282716181
310
6484A4BE51623A2A72A2920AA2C1612B9961423A2A726A9A39033B2B7323BB39019191994A034809044E414D454050496BC914F4051C40640A80000000000004E404CD1D15395149050D3CB1294138B0C0B25AF2453CB11D15395149055160B095CCB0A11D1539354D1C819D95B991DD9C80C8C8D8A50190B3D424C4F434B3
310
A4E414D4540482A222A9A1A92028248704B5F2028EA03207400000000004028A02668E8A9CA8A482869E5894A09C58605921C12D7C588E8A9CA8A482A8B0584AE658508E8A9C9AA68E40CECADCC8EECE4064626E5280D2024214D51053911054911014122D2E29A50147501904A000000000000125013347454E545241434F
310
2C4A504E2C302C8B4B8A692C47454E54524154582C25732C2847454E4D53472067656E64776720323138294069012109A82A88AA492829880A091BBD2F7E80A3A80C82D0000000000000728099A3A2A72A2920A1A79625282716181646EF4BDF9623A2A72A2920AA2C1612B9961423A2A726A9A39033B2B7323BB390191918
310
94A034809044E4F544540504928D8B4C4051D40641A80000000000003E404CD1D15395149050D3CB1294138B0C0B24A362D30B11D15395149055160B095CCB0A11D1539354D1C819D95B991DD9C80C8C8D4A5012404832B22A72227A92028366EF6EE06F582028EA0320F40000000000001F2026A8E8A9CA8A482869E5894A
310
09C5860599BBDBB81BD60588E8A9CA8A482A8B0584AE658508E8A9C9AA68E40CECADCC8EECE406464685280920241911154D0D48C90141A43825AF880C90147501908A000000000020145013447454E545241434F2C4A504E2C302C90E096BE20322C47454E54524154582C25732C2847454E4D53472067656E64776720333
310
629404901212A6A8829C8882A4886480A0D169714D2406480A3A80C84D000000000000092809AA3A2A72A2920A1A79625282716181645A5C53490191623A2A72A2920AA2C1612B9961423A2A726A9A39033B2B7323BB39019191814A024809094D4154455249414C32405068DDE97BF20324051D40642A8713D0AD7A370454
310
04D11D15395149050D3CB1294138B0C0B2377A5EFC80C8B11D15395149055160B095CCB0A11D1539354D1C819D95B991DD9C80D0C0A50124048226A0A9A9A0282475FCBE52028EA028121681A040000000000001F202648E8A9CA8A482869E5894A09C5860591D7F2F94588E8A9CA8A482A8B0584AE658508E8A9C9AA68E40
310
CECADCC8EECE406864528092024154149250D150141226FE29A501475014090C409020000000000000F9013247454E545241434F2C4A504E2C302C89BF8A692C47454E54524154582C25732C2847454E4D53472067656E6477672034332940490120688929A80A0921432C8080A3A80A0486A068100000000000007C809923
310
A2A72A2920A1A7962528271618164850CB201623A2A72A2920AA2C1612B9961423A2A726A9A39033B2B7323BB3901A1A14A0248090E445020000000000000510107004060000000000000F9000000000000003E4041CF4F125511534F9014060000000000000F9000000000000003E4041CF4F125511534F90140600000000
310
00000D100000000000000344041CF4F125511534F9014060000000000000D100000000000000344041CF4F125511534F90140A4040000000000003E400000000000000F901073D3C4954454D3E405063D3C5154593E4050180000000000003E400000000000000F901073D3C4954454D3E406404000000000000003E400000
310
000000000F90000000000000008202068220681A048120280C882148448820348520348452028521485214814000000000000F0BF0000000000003C2FD01409073373333333333B0FCCDCCCCCCCCCCEC3F000000000000031012034164050341105901A0000000000000620204812034
340
0
340
0
 94
        0
1001
ACAD
1000
AcadProxyRoundTripData
1071
      534
1071
   655383
1070
     0
  0
ACAD_PROXY_OBJECT
  5
276A
330
2757
100
AcDbProxyObject
 90
      499
 91
      586
 93
      798
310
5444000000000000144048CF4F11115510525317D3105091530F880A0F11115510525317D05094D4D0D053114F8A51141C9A9999999999B93F26A666666666724FC000000000000E03F4000000000000004000000000000005100000000000000244041C
340
14
340
2762
 94
        0
1001
ACAD
1000
AcadProxyRoundTripData
1071
      535
1071
   655383
1070
     0
  0
ACAD_PROXY_OBJECT
  5
276B
330
2757
100
AcDbProxyObject
 90
      499
 91
      586
 93
      679
310
5440B00000000000002880959E9E29A2A1AA24A7A72FA620A122A62FA324A929AA1F169E29A2A1AA24A7A72FA620A122A62FA620A9AA1F00000000000004880FF41C88A0E000000000000122000000000000002880
340
22
340
2762
 94
        0
1001
ACAD
1000
AcadProxyRoundTripData
1071
      536
1071
   655383
1070
     0
  0
ACAD_PROXY_OBJECT
  5
276C
330
2757
100
AcDbProxyObject
 90
      499
 91
      586
 93
      151
310
54680000000000000840A3D0A5723F0BD1F200
 94
        0
1001
ACAD
1000
AcadProxyRoundTripData
1071
      537
1071
   655383
1070
     0
  0
ACAD_PROXY_OBJECT
  5
2772
330
2757
100
AcDbProxyObject
 90
      499
 91
      586
 93
       20
310
545018
340
2758
 94
        0
1001
ACAD
1000
AcadProxyRoundTripData
1071
      538
1071
   655383
1070
     0
  0
ACAD_PROXY_OBJECT
  5
2773
330
2757
100
AcDbProxyObject
 90
      499
 91
      586
 93
      250
310
545010000000000000A1000000000000002440408F0F9023C3E409A0DCFFFF88
340
1212
340
0
340
0
340
1211
340
1210
340
2780
340
2781
340
2782
340
2783
 94
        0
1001
ACAD
1000
AcadProxyRoundTripData
1071
      539
1071
   655383
1070
     0
  0
ACAD_PROXY_OBJECT
  5
277F
330
2757
100
AcDbProxyObject
 90
      499
 91
      586
 93
     6922
310
5459740D254D3D0649534F5F4133429254D3D7D5125513115051349534F5F42525F5265766973696F6E6C69737446111413478342028323937783834316D6D2920421254D3D7D04D1E0D11141327835202835393478323130326D6D29421254D3D7D04C9E0D51141337837202834323078323038306D6D29421254D3D7D04C
310
DE0DD1141347839202832393778313839326D6D29421254D3D7D04D1E0E50E41312028353934783834316D6D29419254D3D7D04C51141327834202835393478313638326D6D29421254D3D7D04C9E0D11141347838202832393778313638326D6D29421254D3D7D04D1E0E10E41332028323937783432306D6D29419254D3D
310
7D04CD104130202838343078313138396D6D2920419254D3D7D04C11141347835202832393778313035316D6D29421254D3D7D04D1E0D51141347836202832393778313236316D6D29421254D3D7D04D1E0D91141347837202832393778313437316D6D29421254D3D7D04D1E0DD1141327833202835393478313236316D6D
310
29421254D3D7D04C9E0CD1141337834202834323078313138396D6D29421254D3D7D04CDE0D110413478332028323937783633306D6D29421254D3D7D04D1E0CD1141337835202834323078313438366D6D29421254D3D7D04CDE0D51141337836202834323078313738336D6D29421254D3D7D04CDE0D9104133783320283
310
43230783839316D6D29421254D3D7D04CDE0CD0E41322028343230783539346D6D29419254D3D7D04C9124130783220283131383978313638326D6D29421254D3D7D04C1E0C90E41342028323937783231306D6D29419254D3D7D04D1124130783320283131383978323532336D6D29421254D3D7D04C1E0CD114131783420
310
2838343178323337386D6D29421254D3D7D04C5E0D11141317833202838343178313738336D6D29421254D3D7D04C5E0CD02431254D3C82557247A25E4C81050A49534F5F5449544C4541431254D3C82557247A25E4C81090A49534F5F5449544C45424110B979A97F0D8BDC45F424C5F44D254D3D7D09317D4995D9A5CDA5
310
BDB9B1A5CDD10B979A97F0D8BDC45F544C5F44D254D3D7D51317D4995D9A5CDA5BDB9B1A5CDD10B979A97F0D8BDC45F42525F44D254D3D7D09497D4995D9A5CDA5BDB9B1A5CDD10B979A97F0D8BDC45F54525F44D254D3D7D51497D4995D9A5CDA5BDB9B1A5CDD0C
 94
        0
1001
ACAD
1000
AcadProxyRoundTripData
1071
      540
1071
   655383
1070
     0
  0
ENDSEC
  0
EOF
