  0
SECTION
  2
HEADER
  9
$ACADVER
  1
AC1014
  9
$ACADMAINTVER
 70
     9
  9
$DWGCODEPAGE
  3
ANSI_932
  9
$INSBASE
 10
0.0
 20
0.0
 30
0.0
  9
$EXTMIN
 10
-271.8292332087885
 20
-110.0275153063389
 30
-0.0000000000000053
  9
$EXTMAX
 10
1305.787038117014
 20
1039.163459051013
 30
0.0000000000000099
  9
$LIMMIN
 10
-210.0
 20
-148.5
  9
$LIMMAX
 10
210.0
 20
148.5
  9
$ORTHOMODE
 70
     1
  9
$REGENMODE
 70
     1
  9
$FILLMODE
 70
     1
  9
$QTEXTMODE
 70
     0
  9
$MIRRTEXT
 70
     1
  9
$DRAGMODE
 70
     2
  9
$LTSCALE
 40
5.0
  9
$OSMODE
 70
    37
  9
$ATTMODE
 70
     2
  9
$TEXTSIZE
 40
3.5
  9
$TRACEWID
 40
0.05
  9
$TEXTSTYLE
  7
STANDARD
  9
$CLAYER
  8
枠
  9
$CELTYPE
  6
CONTINUOUS
  9
$CECOLOR
 62
   256
  9
$CELTSCALE
 40
1.0
  9
$DELOBJ
 70
     1
  9
$DISPSILH
 70
     0
  9
$DIMSCALE
 40
10.0
  9
$DIMASZ
 40
3.0
  9
$DIMEXO
 40
1.0
  9
$DIMDLI
 40
10.0
  9
$DIMRND
 40
0.0
  9
$DIMDLE
 40
0.0
  9
$DIMEXE
 40
1.0
  9
$DIMTP
 40
0.1
  9
$DIMTM
 40
0.1
  9
$DIMTXT
 40
3.5
  9
$DIMCEN
 40
0.0
  9
$DIMTSZ
 40
0.0
  9
$DIMTOL
 70
     0
  9
$DIMLIM
 70
     0
  9
$DIMTIH
 70
     0
  9
$DIMTOH
 70
     0
  9
$DIMSE1
 70
     0
  9
$DIMSE2
 70
     0
  9
$DIMTAD
 70
     1
  9
$DIMZIN
 70
     8
  9
$DIMBLK
  1

  9
$DIMASO
 70
     1
  9
$DIMSHO
 70
     1
  9
$DIMPOST
  1
<>
  9
$DIMAPOST
  1
"
  9
$DIMALT
 70
     0
  9
$DIMALTD
 70
     2
  9
$DIMALTF
 40
0.0393701
  9
$DIMLFAC
 40
1.0
  9
$DIMTOFL
 70
     1
  9
$DIMTVP
 40
0.0
  9
$DIMTIX
 70
     0
  9
$DIMSOXD
 70
     0
  9
$DIMSAH
 70
     1
  9
$DIMBLK1
  1
OPEN
  9
$DIMBLK2
  1
OPEN
  9
$DIMSTYLE
  2
GEN-ISO
  9
$DIMCLRD
 70
     3
  9
$DIMCLRE
 70
     3
  9
$DIMCLRT
 70
     2
  9
$DIMTFAC
 40
0.71
  9
$DIMGAP
 40
1.5
  9
$DIMJUST
 70
     0
  9
$DIMSD1
 70
     0
  9
$DIMSD2
 70
     0
  9
$DIMTOLJ
 70
     0
  9
$DIMTZIN
 70
     8
  9
$DIMALTZ
 70
     0
  9
$DIMALTTZ
 70
     0
  9
$DIMFIT
 70
     3
  9
$DIMUPT
 70
     0
  9
$DIMUNIT
 70
     2
  9
$DIMDEC
 70
     2
  9
$DIMTDEC
 70
     2
  9
$DIMALTU
 70
     2
  9
$DIMALTTD
 70
     2
  9
$DIMTXSTY
  7
STANDARD
  9
$DIMAUNIT
 70
     0
  9
$LUNITS
 70
     2
  9
$LUPREC
 70
     4
  9
$SKETCHINC
 40
0.1
  9
$FILLETRAD
 40
0.0
  9
$AUNITS
 70
     0
  9
$AUPREC
 70
     0
  9
$MENU
  1
.
  9
$ELEVATION
 40
0.0
  9
$PELEVATION
 40
0.0
  9
$THICKNESS
 40
0.0
  9
$LIMCHECK
 70
     0
  9
$BLIPMODE
 70
     0
  9
$CHAMFERA
 40
0.0
  9
$CHAMFERB
 40
0.0
  9
$CHAMFERC
 40
0.0
  9
$CHAMFERD
 40
0.0
  9
$SKPOLY
 70
     0
  9
$TDCREATE
 40
2451332.598188681
  9
$TDUPDATE
 40
2457218.785115833
  9
$TDINDWG
 40
0.3593335648
  9
$TDUSRTIMER
 40
0.3593313889
  9
$USRTIMER
 70
     1
  9
$ANGBASE
 50
0.0
  9
$ANGDIR
 70
     0
  9
$PDMODE
 70
     0
  9
$PDSIZE
 40
0.0
  9
$PLINEWID
 40
0.0
  9
$COORDS
 70
     0
  9
$SPLFRAME
 70
     0
  9
$SPLINETYPE
 70
     6
  9
$SPLINESEGS
 70
     8
  9
$ATTDIA
 70
     0
  9
$ATTREQ
 70
     1
  9
$HANDLING
 70
-16383
  9
$HANDSEED
  5
4790
  9
$SURFTAB1
 70
     6
  9
$SURFTAB2
 70
     6
  9
$SURFTYPE
 70
     6
  9
$SURFU
 70
     6
  9
$SURFV
 70
     6
  9
$UCSNAME
  2

  9
$UCSORG
 10
0.0
 20
0.0
 30
0.0
  9
$UCSXDIR
 10
1.0
 20
0.0
 30
0.0
  9
$UCSYDIR
 10
0.0
 20
1.0
 30
0.0
  9
$PUCSNAME
  2

  9
$PUCSORG
 10
0.0
 20
0.0
 30
0.0
  9
$PUCSXDIR
 10
1.0
 20
0.0
 30
0.0
  9
$PUCSYDIR
 10
0.0
 20
1.0
 30
0.0
  9
$USERI1
 70
     0
  9
$USERI2
 70
     0
  9
$USERI3
 70
     0
  9
$USERI4
 70
     0
  9
$USERI5
 70
     0
  9
$USERR1
 40
0.0
  9
$USERR2
 40
0.0
  9
$USERR3
 40
0.0
  9
$USERR4
 40
0.0
  9
$USERR5
 40
0.0
  9
$WORLDVIEW
 70
     1
  9
$SHADEDGE
 70
     3
  9
$SHADEDIF
 70
    70
  9
$TILEMODE
 70
     1
  9
$MAXACTVP
 70
    48
  9
$PINSBASE
 10
0.0
 20
0.0
 30
0.0
  9
$PLIMCHECK
 70
     0
  9
$PEXTMIN
 10
1.000000000000000E+20
 20
1.000000000000000E+20
 30
1.000000000000000E+20
  9
$PEXTMAX
 10
-1.000000000000000E+20
 20
-1.000000000000000E+20
 30
-1.000000000000000E+20
  9
$PLIMMIN
 10
0.0
 20
0.0
  9
$PLIMMAX
 10
12.0
 20
9.0
  9
$UNITMODE
 70
     0
  9
$VISRETAIN
 70
     1
  9
$PLINEGEN
 70
     0
  9
$PSLTSCALE
 70
     1
  9
$TREEDEPTH
 70
  3020
  9
$PICKSTYLE
 70
     1
  9
$CMLSTYLE
  2
STANDARD
  9
$CMLJUST
 70
     0
  9
$CMLSCALE
 40
1.0
  9
$PROXYGRAPHICS
 70
     1
  9
$MEASUREMENT
 70
     1
  0
ENDSEC
  0
SECTION
  2
CLASSES
  0
CLASS
  1
LWPOLYLINE
  2
AcDbPolyline
  3
AutoCAD 2000
 90
        0
280
     0
281
     1
  0
CLASS
  1
ACDBDICTIONARYWDFLT
  2
AcDbDictionaryWithDefault
  3
AutoCAD 2000
 90
        0
280
     0
281
     0
  0
CLASS
  1
ACDBPLACEHOLDER
  2
AcDbPlaceHolder
  3
AutoCAD 2000
 90
        0
280
     0
281
     0
  0
CLASS
  1
LAYOUT
  2
AcDbLayout
  3
AutoCAD 2000
 90
        0
280
     0
281
     0
  0
CLASS
  1
ACME_DOCUMENT
  2
AcMeDbDoc
  3
AcMeServices
 90
        0
280
     0
281
     0
  0
CLASS
  1
ACMESCOPE
  2
AcMeScope
  3
AcMeServices
 90
        0
280
     0
281
     0
  0
CLASS
  1
ACMECOMMANDHISTORY
  2
AcMeCommandHistory
  3
AcMeServices
 90
        0
280
     0
281
     0
  0
CLASS
  1
DICTIONARYVAR
  2
AcDbDictionaryVar
  3
AutoCAD 2000
 90
        0
280
     0
281
     0
  0
CLASS
  1
ACIMSYSVARMAN
  2
AcImSysVarManager
  3
AcMeServices
 90
        0
280
     0
281
     0
  0
CLASS
  1
ACIMREALSYSVAR
  2
AcImRealSysVar
  3
AcMeServices
 90
        0
280
     0
281
     0
  0
CLASS
  1
ACIMINTSYSVAR
  2
AcImIntSysVar
  3
AcMeServices
 90
        0
280
     0
281
     0
  0
CLASS
  1
ACMEDRAWINGMAN
  2
AcMeDrawingMan
  3
AcMeServices
 90
        0
280
     0
281
     0
  0
CLASS
  1
ACMEVIEW
  2
AcMeView
  3
AcMeServices
 90
        0
280
     0
281
     0
  0
CLASS
  1
ACDBENTITYCACHE
  2
AcMeEntityCache
  3
AcMeServices
 90
        0
280
     0
281
     0
  0
CLASS
  1
GSMANAGER
  2
AcMeGSManager
  3
AcMeServices
 90
        0
280
     0
281
     0
  0
CLASS
  1
AMDTINTERNALREACTOR
  2
AmdtInternalReactor
  3
AcMeServices
 90
        0
280
     0
281
     0
  0
CLASS
  1
ACMESTATEMGR
  2
AcMeStateMgr
  3
AcMeServices
 90
        0
280
     0
281
     0
  0
CLASS
  1
ACGREFMASTER
  2
AcGrefMaster
  3
AcAttribServices
 90
        0
280
     0
281
     0
  0
CLASS
  1
ACME_DATABASE
  2
AcMeDbDatabase
  3
AcMeServices
 90
        0
280
     0
281
     0
  0
CLASS
  1
ACRFINSADJUSTERMGR
  2
AcRfInsAdjusterMgr
  3
AcMeServices
 90
        0
280
     0
281
     0
  0
CLASS
  1
ACGREFMASTER
  2
AcGrefacadMaster
  3
AcGrefServices
 90
        0
280
     0
281
     0
  0
CLASS
  1
AMIMASTER
  2
AmiMaster
  3
AmiServices
 90
        0
280
     0
281
     0
  0
CLASS
  1
AMGSETTINGSOBJ
  2
AmgSettingsObj
  3
"AcadM|Product Description: AutoCAD Mechanical 2000|Company: Autodesk"
 90
        0
280
     0
281
     0
  0
CLASS
  1
ACMDATADICTIONARY
  2
AcmDataDictionary
  3
"AcmSymBB|Product Description: AutoCAD Mechanical 2000|Company: Autodesk"
 90
        0
280
     0
281
     0
  0
CLASS
  1
ACMDATAENTRYBLOCK
  2
AcmDataEntryBlock
  3
"AcmSymBB|Product Description: AutoCAD Mechanical 2000|Company: Autodesk"
 90
        0
280
     0
281
     0
  0
CLASS
  1
ACIMSTRSYSVAR
  2
AcImStrSysVar
  3
AcMeServices
 90
        0
280
     0
281
     0
  0
CLASS
  1
ACMSTANDARDISO
  2
AcmStandardISO
  3
"Amdt_StdImp|Product Description: AutoCAD Mechanical 2000|Company: Autodesk"
 90
        0
280
     0
281
     0
  0
CLASS
  1
AMGOBJPROPCFG
  2
AmgObjPropCfg
  3
"AmgLay|Product Description: AutoCAD Mechanical 2000|Company: Autodesk"
 90
        1
280
     0
281
     0
  0
CLASS
  1
AMDTEDGESTANDARDISO
  2
AmdtEdgeStdISO
  3
"Amdt_StdImp|Product Description: AutoCAD Mechanical 2000|Company: Autodesk"
 90
        0
280
     0
281
     0
  0
CLASS
  1
ACMSURFSTANDARDISO
  2
AcmSurfTextStdISO
  3
"Amdt_StdImp|Product Description: AutoCAD Mechanical 2000|Company: Autodesk"
 90
        0
280
     0
281
     0
  0
CLASS
  1
ACMFCFSTANDARDISO
  2
AcmFCFStdISO
  3
"Amdt_StdImp|Product Description: AutoCAD Mechanical 2000|Company: Autodesk"
 90
        0
280
     0
281
     0
  0
CLASS
  1
ACMWELDSTANDARDISO
  2
AcmWeldingStdISO
  3
"Amdt_StdImp|Product Description: AutoCAD Mechanical 2000|Company: Autodesk"
 90
        0
280
     0
281
     0
  0
CLASS
  1
ACMIDSTANDARDISO
  2
AcmIdStdISO
  3
"Amdt_StdImp|Product Description: AutoCAD Mechanical 2000|Company: Autodesk"
 90
        0
280
     0
281
     0
  0
CLASS
  1
ACMDATUMSTANDARDISO
  2
AcmDatumStdISO
  3
"Amdt_StdImp|Product Description: AutoCAD Mechanical 2000|Company: Autodesk"
 90
        0
280
     0
281
     0
  0
CLASS
  1
ACMBOMSTANDARDISO
  2
AcmBOMStdISO
  3
"Amdt_StdImp|Product Description: AutoCAD Mechanical 2000|Company: Autodesk"
 90
        0
280
     0
281
     0
  0
CLASS
  1
ACMDETAILSTANDARDISO
  2
AmdtDetailSymStdISO
  3
"Amdt_StdImp|Product Description: AutoCAD Mechanical 2000|Company: Autodesk"
 90
        0
280
     0
281
     0
  0
CLASS
  1
ACMSECTIONSTANDARDISO
  2
AmdtSectionSymStdISO
  3
"Amdt_StdImp|Product Description: AutoCAD Mechanical 2000|Company: Autodesk"
 90
        0
280
     0
281
     0
  0
CLASS
  1
ACMCENTERLINESTANDARDISO
  2
AmdtCenterLineStdISO
  3
"Amdt_StdImp|Product Description: AutoCAD Mechanical 2000|Company: Autodesk"
 90
        0
280
     0
281
     0
  0
CLASS
  1
"AcAmgLayStd"
  2
AcAmgLayStd
  3
"AcAmgLayStd|Product Description: AutoCAD Mechanical 2000|Company: Autodesk"
 90
        0
280
     0
281
     0
  0
CLASS
  1
"AcAmgDimStd"
  2
AcAmgDimStd
  3
"AcAmgDimStd|Product Description: AutoCAD Mechanical 2000|Company: Autodesk"
 90
        0
280
     0
281
     0
  0
CLASS
  1
AcAmgTitleStd
  2
AcAmgTitleStd
  3
"TITLEAPP"
 90
        0
280
     0
281
     0
  0
CLASS
  1
ACAMGFILTERDAT
  2
AcAmgFilterDat
  3
"AcadM|Product Description: AutoCAD Mechanical 2000|Company: Autodesk"
 90
        0
280
     0
281
     0
  0
CLASS
  1
LAYER_INDEX
  2
AcDbLayerIndex
  3
AutoCAD 2000
 90
        0
280
     0
281
     0
  0
CLASS
  1
IDBUFFER
  2
AcDbIdBuffer
  3
AutoCAD 2000
 90
        0
280
     0
281
     0
  0
CLASS
  1
AMDTNOTE
  2
AmdtNote
  3
"AcmSymBB|Product Description: AutoCAD Mechanical 2000|Company: Autodesk"
 90
     1023
280
     0
281
     1
  0
CLASS
  1
AMDTFORMULAUPDATEDISPATCHER
  2
AmdtFormulaUpdateDispatcher
  3
AcMeServices
 90
        0
280
     0
281
     0
  0
CLASS
  1
AM_DRAWING_MGR
  2
AcDmDwgMgr
  3
AcMechDwgViewMgmt
 90
        0
280
     0
281
     0
  0
CLASS
  1
AM_DWG_DOCUMENT
  2
AcDmDwgDocument
  3
AcMechDwgViewMgmt
 90
        0
280
     0
281
     0
  0
CLASS
  1
AM_DWG_SHEET
  2
AcDmSheet
  3
AcMechDwgViewMgmt
 90
        0
280
     0
281
     0
  0
CLASS
  1
AM_VIEWDIMPARMAP
  2
AcDmViewDimParMap
  3
AcMechDwgViewMgmt
 90
        0
280
     0
281
     0
  0
CLASS
  1
AM_DWGMGR_NAME
  2
AcDmDwgMgrName
  3
AcMechDwgViewMgmt
 90
        0
280
     0
281
     0
  0
CLASS
  1
AMDTMENUSTATEMGR
  2
AmdtMenuStateMgr
  3
McadcomServices
 90
        0
280
     0
281
     0
  0
CLASS
  1
AMDTMCOMMENUSTATE
  2
AmdtMcomMenuState
  3
McadcomServices
 90
        0
280
     0
281
     0
  0
CLASS
  1
ASAPP
  2
AcAsAppObject
  3
AutoSurfServices
 90
        0
280
     0
281
     0
  0
CLASS
  1
IM_STATIC_MAN
  2
AcImStaticVarManager
  3
AcMeServices
 90
        0
280
     0
281
     0
  0
CLASS
  1
ACIMDBLSTATICVAR
  2
AcImDblStaticVar
  3
AcMeServices
 90
        0
280
     0
281
     0
  0
CLASS
  1
ACIMSTRSTATICVAR
  2
AcImStrStaticVar
  3
AcMeServices
 90
        0
280
     0
281
     0
  0
CLASS
  1
ACIMINTSTATICVAR
  2
AcImIntStaticVar
  3
AcMeServices
 90
        0
280
     0
281
     0
  0
CLASS
  1
ACASGREFMASTER
  2
AcAsGrefMaster
  3
AutoSurfResolverServices
 90
        0
280
     0
281
     0
  0
CLASS
  1
ACADGREFMODULE
  2
AcAdGrefModule
  3
AdGrefServices
 90
        0
280
     0
281
     0
  0
CLASS
  1
AMDTMAPISURFMOUDULE
  2
AmdtMApiSurfModule
  3
MApiSurfServices
 90
        0
280
     0
281
     0
  0
CLASS
  1
MAPIAMMOUDLE
  2
MApiAmModule
  3
MApiAmServices
 90
        0
280
     0
281
     0
  0
CLASS
  1
AMDTADMENUSTATE
  2
AmdtAdMenuState
  3
DesignerServices
 90
        0
280
     0
281
     0
  0
CLASS
  1
ADAPPL
  2
AcAdAppl
  3
DesignerServices
 90
        0
280
     0
281
     0
  0
CLASS
  1
DEPMGR
  2
AcAdDepMgr
  3
DesignerServices
 90
        0
280
     0
281
     0
  0
CLASS
  1
PARAMMGR
  2
AcAdParamMgr
  3
DesignerServices
 90
        0
280
     0
281
     0
  0
CLASS
  1
PARAMSCOPE
  2
AcAdParamScope
  3
DesignerServices
 90
        0
280
     0
281
     0
  0
CLASS
  1
NAMEDAPPL
  2
AcAdNamedAppl
  3
DesignerServices
 90
        0
280
     0
281
     0
  0
CLASS
  1
ADHNTMPLT
  2
AdHoleNoteTemplateMgr
  3
DesignerServices
 90
        0
280
     0
281
     0
  0
CLASS
  1
AM_HNTEMPLATE_MGR_NAME
  2
AdHoleNoteTemplateMgrName
  3
DesignerServices
 90
        0
280
     0
281
     0
  0
CLASS
  1
AMDTDMMENUSTATE
  2
AmdtDmMenuState
  3
AcMechDwgViewMgmt
 90
        0
280
     0
281
     0
  0
CLASS
  1
MAPIADMODULE
  2
MApiAdModule
  3
MApiAdServices
 90
        0
280
     0
281
     0
  0
CLASS
  1
AMDTAMMENUSTATE
  2
AmdtAmMenuState
  3
DesignerAssemblies
 90
        0
280
     0
281
     0
  0
CLASS
  1
ACAMPROJECT
  2
AcAmProject
  3
DesignerAssemblies
 90
        0
280
     0
281
     0
  0
CLASS
  1
ACAMGRCOMPDEF
  2
AcAmGrCompDef
  3
DesignerAssemblies
 90
        0
280
     0
281
     0
  0
CLASS
  1
ACCMCONTEXT
  2
AcCmContext
  3
DesignerAssemblies
 90
        0
280
     0
281
     0
  0
CLASS
  1
ACAMCOMPDEF
  2
AcAmCompDef
  3
DesignerAssemblies
 90
        0
280
     0
281
     0
  0
CLASS
  1
ACAMCOMPDEFMGR
  2
AcAmCompDefMgr
  3
DesignerAssemblies
 90
        0
280
     0
281
     0
  0
CLASS
  1
AMCONTEXTMGR
  2
AcAmContextMgr
  3
DesignerAssemblies
 90
        0
280
     0
281
     0
  0
CLASS
  1
ACAMCONTEXTMODELER
  2
AcAmContextModeler
  3
DesignerAssemblies
 90
        0
280
     0
281
     0
  0
CLASS
  1
CATALOGSTATE
  2
AcAmCatalogState
  3
DesignerAssemblies
 90
        0
280
     0
281
     0
  0
CLASS
  1
ACAMGRCOMPDEFSET
  2
AcAmGrCompDefSet
  3
DesignerAssemblies
 90
        0
280
     0
281
     0
  0
CLASS
  1
AMDTBROWSERDBTAB
  2
AmdtBrowserDbTab
  3
McadcomServices
 90
        0
280
     0
281
     0
  0
CLASS
  1
CBROWSERAPPOBJECT
  2
CBrowserAppObject
  3
McadcomServices
 90
        0
280
     0
281
     0
  0
CLASS
  1
DM_PLACEHOLDER
  2
AcDmSelsetPlaceholder
  3
AcMechDwgViewMgmt
 90
        0
280
     0
281
     0
  0
CLASS
  1
ACAD_PROXY_OBJECT_WRAPPER
  2
AcDbProxyObjectWrapper
  3
AutoCAD 2000
 90
        0
280
     0
281
     0
  0
CLASS
  1
LONG_TRANSACTION
  2
AcDbLongTransaction
  3
AutoCAD 2000
 90
        0
280
     0
281
     0
  0
CLASS
  1
LWPOLYLINE
  2
AcDbPolyline
  3
AutoCAD 2000
 90
        0
280
     0
281
     1
  0
CLASS
  1
HATCH
  2
AcDbHatch
  3
AutoCAD 2000
 90
        0
280
     0
281
     1
  0
CLASS
  1
XRECORD
  2
AcDbXrecord
  3
AutoCAD 2000
 90
        0
280
     0
281
     0
  0
CLASS
  1
LONG_TRANSACTION
  2
AcDbLongTransaction
  3
AutoCAD 2000
 90
        0
280
     0
281
     0
  0
CLASS
  1
LWPOLYLINE
  2
AcDbPolyline
  3
AutoCAD 2000
 90
        0
280
     0
281
     1
  0
CLASS
  1
HATCH
  2
AcDbHatch
  3
AutoCAD 2000
 90
        0
280
     0
281
     1
  0
CLASS
  1
XRECORD
  2
AcDbXrecord
  3
AutoCAD 2000
 90
        0
280
     0
281
     0
  0
ENDSEC
  0
SECTION
  2
TABLES
  0
TABLE
  2
VPORT
  5
8
330
0
100
AcDbSymbolTable
 70
     2
  0
VPORT
  5
4763
330
8
100
AcDbSymbolTableRecord
100
AcDbViewportTableRecord
  2
*ACTIVE
 70
     0
 10
0.0
 20
0.0
 11
1.0
 21
1.0
 12
-461.1805620380724
 22
-3.552360159570753
 13
0.0
 23
0.0
 14
12.5
 24
12.5
 15
50.0
 25
50.0
 16
0.0
 26
0.0
 36
1.0
 17
493.5226315516406
 27
451.4994747125913
 37
0.0
 40
1517.864072372738
 41
2.164383561643835
 42
50.0
 43
0.0
 44
0.0
 50
0.0
 51
0.0
 71
     0
 72
   100
 73
     1
 74
     1
 75
     0
 76
     0
 77
     0
 78
     0
  0
ENDTAB
  0
TABLE
  2
LTYPE
  5
5
330
0
100
AcDbSymbolTable
 70
    16
  0
LTYPE
  5
12
330
5
100
AcDbSymbolTableRecord
100
AcDbLinetypeTableRecord
  2
BYBLOCK
 70
     0
  3

 72
    65
 73
     0
 40
0.0
  0
LTYPE
  5
13
330
5
100
AcDbSymbolTableRecord
100
AcDbLinetypeTableRecord
  2
BYLAYER
 70
     0
  3

 72
    65
 73
     0
 40
0.0
  0
LTYPE
  5
14
330
5
100
AcDbSymbolTableRecord
100
AcDbLinetypeTableRecord
  2
CONTINUOUS
 70
     0
  3
実線
 72
    65
 73
     0
 40
0.0
  0
LTYPE
  5
20
330
5
100
AcDbSymbolTableRecord
100
AcDbLinetypeTableRecord
  2
HIDDEN
 70
     0
  3
_ _ _ _ _ _ _ _ _ _ _ _ _ _ _ _ _ _ _ _ _ _ _
 72
    65
 73
     2
 40
0.375
 49
0.25
 74
     0
 49
-0.125
 74
     0
  0
LTYPE
  5
22
330
5
100
AcDbSymbolTableRecord
100
AcDbLinetypeTableRecord
  2
CENTER
 70
     0
  3
____ _ ____ _ ____ _ ____ _ ____ _ ____ _ ____
 72
    65
 73
     4
 40
2.0
 49
1.25
 74
     0
 49
-0.25
 74
     0
 49
0.25
 74
     0
 49
-0.25
 74
     0
  0
LTYPE
  5
120B
330
5
100
AcDbSymbolTableRecord
100
AcDbLinetypeTableRecord
  2
GEN7
 70
     0
  3
____ . ____ . ____ . ____ . ____ . ____ . ____
 72
    65
 73
     4
 40
13.75
 49
9.75
 74
     0
 49
-1.5
 74
     0
 49
1.0
 74
     0
 49
-1.5
 74
     0
  0
LTYPE
  5
1672
330
5
100
AcDbSymbolTableRecord
100
AcDbLinetypeTableRecord
  2
GEN7A
 70
     0
  3
__ . __ . __
 72
    65
 73
     4
 40
6.875
 49
4.75
 74
     0
 49
-0.875
 74
     0
 49
0.375
 74
     0
 49
-0.875
 74
     0
  0
LTYPE
  5
2759
330
5
100
AcDbSymbolTableRecord
100
AcDbLinetypeTableRecord
  2
AM_ISO02W050
 70
     0
  3
__ __ __ __ __ __ __ __ __ __ __ __ __ __ __
 72
    65
 73
     2
 40
7.5
 49
6.0
 74
     0
 49
-1.5
 74
     0
  0
LTYPE
  5
276E
330
5
100
AcDbSymbolTableRecord
100
AcDbLinetypeTableRecord
  2
ACISOWELD
 70
     0
  3
_ _ _ _ _
 72
    65
 73
     2
 40
2.0
 49
2.0
 74
     0
 49
-1.0
 74
     0
  0
LTYPE
  5
276F
330
5
100
AcDbSymbolTableRecord
100
AcDbLinetypeTableRecord
  2
ACISOTGB
 70
     0
  3
__ . . __ . .
 72
    65
 73
     6
 40
9.0
 49
4.0
 74
     0
 49
-1.0
 74
     0
 49
1.0
 74
     0
 49
-1.0
 74
     0
 49
1.0
 74
     0
 49
-1.0
 74
     0
  0
LTYPE
  5
2770
330
5
100
AcDbSymbolTableRecord
100
AcDbLinetypeTableRecord
  2
ACISOTGL
 70
     0
  3
_ _ _ _ _
 72
    65
 73
     2
 40
3.0
 49
2.0
 74
     0
 49
-1.0
 74
     0
  0
LTYPE
  5
2784
330
5
100
AcDbSymbolTableRecord
100
AcDbLinetypeTableRecord
  2
GEN3
 70
     0
  3
-- -- -- -- -- -- -- -- -- -- -- -- -- -- --
 72
    65
 73
     2
 40
6.25
 49
4.75
 74
     0
 49
-1.5
 74
     0
  0
LTYPE
  5
2785
330
5
100
AcDbSymbolTableRecord
100
AcDbLinetypeTableRecord
  2
GEN3A
 70
     0
  3
 - - - - -
 72
    65
 73
     2
 40
3.125
 49
2.25
 74
     0
 49
-0.875
 74
     0
  0
LTYPE
  5
2786
330
5
100
AcDbSymbolTableRecord
100
AcDbLinetypeTableRecord
  2
GEN4A
 70
     0
  3
_____ . . _____ . . _____ . . ____ .. ____
 72
    65
 73
     6
 40
16.25
 49
9.75
 74
     0
 49
-1.5
 74
     0
 49
1.0
 74
     0
 49
-1.5
 74
     0
 49
1.0
 74
     0
 49
-1.5
 74
     0
  0
LTYPE
  5
2789
330
5
100
AcDbSymbolTableRecord
100
AcDbLinetypeTableRecord
  2
GENZIGZAG
 70
     0
  3
/\/-/\/-/\/-/\/-/\/-/\/
 72
    65
 73
     2
 40
12.0001
 49
0.0001
 74
     4
 75
   135
340
2788
 46
2.0
 50
0.0
 44
0.0
 45
0.0
 49
-12.0
 74
     0
  0
LTYPE
  5
3E93
330
5
100
AcDbSymbolTableRecord
100
AcDbLinetypeTableRecord
  2
PHANTOM2
 70
     0
  3
Phantom (.5x) ___ _ _ ___ _ _ ___ _ _ ___ _ _
 72
    65
 73
     6
 40
31.75
 49
15.875
 74
     0
 49
-3.174999999999998
 74
     0
 49
3.174999999999998
 74
     0
 49
-3.174999999999998
 74
     0
 49
3.174999999999998
 74
     0
 49
-3.174999999999998
 74
     0
  0
LTYPE
  5
42E4
330
5
100
AcDbSymbolTableRecord
100
AcDbLinetypeTableRecord
  2
ASULTYPE
 70
     0
  3
実線
 72
    65
 73
     2
 40
3.0
 49
2.5
 74
     0
 49
0.5
 74
     0
  0
LTYPE
  5
42E5
330
5
100
AcDbSymbolTableRecord
100
AcDbLinetypeTableRecord
  2
ASVLTYPE
 70
     0
  3
__ __ __ __ __ __ __ __ __ __ __ __ __ __ __ __ __ __ __ __ __
 72
    65
 73
     2
 40
0.75
 49
0.5
 74
     0
 49
-0.25
 74
     0
  0
ENDTAB
  0
TABLE
  2
LAYER
  5
2
330
0
100
AcDbSymbolTable
 70
     6
  0
LAYER
  5
E
330
2
100
AcDbSymbolTableRecord
100
AcDbLayerTableRecord
  2
0
 70
     0
 62
     7
  6
CONTINUOUS
  0
LAYER
  5
525
330
2
100
AcDbSymbolTableRecord
100
AcDbLayerTableRecord
  2
最小図面
 70
     0
 62
     7
  6
CONTINUOUS
  0
LAYER
  5
529
330
2
100
AcDbSymbolTableRecord
100
AcDbLayerTableRecord
  2
文字
 70
     0
 62
    70
  6
CONTINUOUS
  0
LAYER
  5
52B
330
2
100
AcDbSymbolTableRecord
100
AcDbLayerTableRecord
  2
枠
 70
     0
 62
     5
  6
CONTINUOUS
  0
LAYER
  5
537
330
2
100
AcDbSymbolTableRecord
100
AcDbLayerTableRecord
  2
DEFPOINTS
 70
     0
 62
     7
  6
CONTINUOUS
  0
LAYER
  5
A3D
330
2
100
AcDbSymbolTableRecord
100
AcDbLayerTableRecord
  2
5
 70
     0
 62
     3
  6
CONTINUOUS
  0
ENDTAB
  0
TABLE
  2
STYLE
  5
3
330
0
100
AcDbSymbolTable
 70
     4
  0
STYLE
  5
F
330
3
100
AcDbSymbolTableRecord
100
AcDbTextStyleTableRecord
  2
STANDARD
 70
     0
 40
0.0
 41
1.0
 50
0.0
 71
     0
 42
3.5
  3
ISOCP.SHX
  4
extfont.shx
  0
STYLE
  5
2762
330
3
100
AcDbSymbolTableRecord
100
AcDbTextStyleTableRecord
  2
ACISOTS
 70
     0
 40
1.0
 41
1.0
 50
0.0
 71
     0
 42
3.5
  3
isocp.shx
  4
extfont.shx
  0
STYLE
  5
276D
330
3
100
AcDbSymbolTableRecord
100
AcDbTextStyleTableRecord
  2
ACISOGDT
 70
     0
 40
0.0
 41
1.0
 50
0.0
 71
     0
 42
3.5
  3
amgdt.shx
  4

  0
STYLE
  5
2788
330
3
100
AcDbSymbolTableRecord
100
AcDbTextStyleTableRecord
  2

 70
     1
 40
0.0
 41
1.0
 50
0.0
 71
     0
 42
3.5
  3
genltshp.shx
  4

  0
ENDTAB
  0
TABLE
  2
VIEW
  5
6
330
0
100
AcDbSymbolTable
 70
     0
  0
ENDTAB
  0
TABLE
  2
UCS
  5
7
330
0
100
AcDbSymbolTable
 70
     0
  0
ENDTAB
  0
TABLE
  2
APPID
  5
9
330
0
100
AcDbSymbolTable
 70
    39
  0
APPID
  5
10
330
9
100
AcDbSymbolTableRecord
100
AcDbRegAppTableRecord
  2
ACAD
 70
     0
  0
APPID
  5
11E4
330
9
100
AcDbSymbolTableRecord
100
AcDbRegAppTableRecord
  2
GENIUS_GENOENT_13
 70
     0
  0
APPID
  5
123A
330
9
100
AcDbSymbolTableRecord
100
AcDbRegAppTableRecord
  2
GEV_VCCNULL_SWITCH_OFF
 70
     0
  0
APPID
  5
1246
330
9
100
AcDbSymbolTableRecord
100
AcDbRegAppTableRecord
  2
GENIUS_GENDTOL_13
 70
     0
  0
APPID
  5
1341
330
9
100
AcDbSymbolTableRecord
100
AcDbRegAppTableRecord
  2
GENIUS_GENHINW_13
 70
     0
  0
APPID
  5
1342
330
9
100
AcDbSymbolTableRecord
100
AcDbRegAppTableRecord
  2
GENIUS_FIRSTVISTXT_14
 70
     0
  0
APPID
  5
1344
330
9
100
AcDbSymbolTableRecord
100
AcDbRegAppTableRecord
  2
GENIUS_GENODEF_13
 70
     0
  0
APPID
  5
1345
330
9
100
AcDbSymbolTableRecord
100
AcDbRegAppTableRecord
  2
GENIUS_GENOBJ-N-LEADER_13
 70
     0
  0
APPID
  5
1346
330
9
100
AcDbSymbolTableRecord
100
AcDbRegAppTableRecord
  2
GENIUS_GENOREF_13
 70
     0
  0
APPID
  5
1347
330
9
100
AcDbSymbolTableRecord
100
AcDbRegAppTableRecord
  2
GENIUS_GENOLIS_13
 70
     0
  0
APPID
  5
1504
330
9
100
AcDbSymbolTableRecord
100
AcDbRegAppTableRecord
  2
GENIUS_GENDREL_13
 70
     0
  0
APPID
  5
1599
330
9
100
AcDbSymbolTableRecord
100
AcDbRegAppTableRecord
  2
GENIUS_SECONDVISTXT_14
 70
     0
  0
APPID
  5
15BB
330
9
100
AcDbSymbolTableRecord
100
AcDbRegAppTableRecord
  2
GENIUS_GENTRA_14
 70
     0
  0
APPID
  5
15DD
330
9
100
AcDbSymbolTableRecord
100
AcDbRegAppTableRecord
  2
GENIUS_GENOBJ-N-HINW_13
 70
     0
  0
APPID
  5
164A
330
9
100
AcDbSymbolTableRecord
100
AcDbRegAppTableRecord
  2
GENIUS_GENCFG_13
 70
     0
1001
GENIUS_GENCFG0_13
1000
GEN@INFO_POS@XLATE
1001
GENIUS_GENCFG1_13
1000
GEN@INFO_POS
1001
GENIUS_GENCFG2_13
1000
GEN@LAYER@DEFS
1001
GENIUS_GENCFG3_13
1000
GEN@LAYER@ENTSORT
1001
GENIUS_GENCFG4_13
1000
GEN
1001
GENIUS_GEVCFG0_13
1000
GEV
1001
GENIUS_GEFCFG0_13
1000
GEF
  0
APPID
  5
164B
330
9
100
AcDbSymbolTableRecord
100
AcDbRegAppTableRecord
  2
GENIUS_GENCFG0_13
 70
     0
1001
GENIUS_GENCFG_13
1071
938725396
1000
164B
1000
GEN@INFO_POS@XLATE
1070
     7
1000
GenCfgObject
1000
GenCfgShort
1000
GenCfgReal
1000
GenCfgBool
1000
GenCfgString
1000
GenCfgDim
1000
GenCfgAttrInf
1000
ACADM_BOM
1070
     0
1002
{
1000
ACADM_BOM1
1070
     0
1002
{
1000
ITEM
1070
     4
1000
1
1002
{
1002
}
1000
QTY
1070
     4
1000
2
1002
{
1002
}
1000
PALINAME
1070
     4
1000
3
1002
{
1002
}
1000
DESCR
1070
     4
1000
5
1002
{
1002
}
1000
STANDARD
1070
     4
1000
7
1002
{
1002
}
1000
MATERIAL
1070
     4
1000
9
1002
{
1002
}
1000
MASS
1070
     4
1000
12
1002
{
1002
}
1000
NOTE
1070
     4
1000
24
1002
{
1002
}
1000
VENDOR
1070
     4
1000
25
1002
{
1002
}
1000
NAME
1070
     4
1000
28
1002
{
1002
}
1002
}
1002
}
1000
INFOPOINTS
1070
     0
1002
{
1000
GENINF14
1070
     0
1002
{
1000
2GENINF
1070
     4
1000
2
1002
{
1002
}
1000
3GENINF
1070
     4
1000
3
1002
{
1002
}
1000
4GENINF
1070
     4
1000
4
1002
{
1002
}
1000
5GENINF
1070
     4
1000
5
1002
{
1002
}
1000
6GENINF
1070
     4
1000
6
1002
{
1002
}
1000
7GENINF
1070
     4
1000
7
1002
{
1002
}
1000
8GENINF
1070
     4
1000
8
1002
{
1002
}
1000
9GENINF
1070
     4
1000
9
1002
{
1002
}
1000
10GENINF
1070
     4
1000
10
1002
{
1002
}
1000
11GENINF
1070
     4
1000
11
1002
{
1002
}
1000
12GENINF
1070
     4
1000
12
1002
{
1002
}
1000
13GENINF
1070
     4
1000
13
1002
{
1002
}
1000
14GENINF
1070
     4
1000
14
1002
{
1002
}
1000
15GENINF
1070
     4
1000
15
1002
{
1002
}
1000
16GENINF
1070
     4
1000
16
1002
{
1002
}
1000
17GENINF
1070
     4
1000
17
1002
{
1002
}
1000
18GENINF
1070
     4
1000
18
1002
{
1002
}
1000
19GENINF
1070
     4
1000
19
1002
{
1002
}
1000
20GENINF
1070
     4
1000
20
1002
{
1002
}
1000
21GENINF
1070
     4
1000
21
1002
{
1002
}
1000
22GENINF
1070
     4
1000
22
1002
{
1002
}
1000
23GENINF
1070
     4
1000
23
1002
{
1002
}
1000
24GENINF
1070
     4
1000
24
1002
{
1002
}
1000
25GENINF
1070
     4
1000
25
1002
{
1002
}
1000
26GENINF
1070
     4
1000
26
1002
{
1002
}
1000
27GENINF
1070
     4
1000
27
1002
{
1002
}
1000
0GENINF
1070
     4
1000
0
1002
{
1002
}
1002
}
1000
GENINF13
1070
     0
1002
{
1000
2GENINF
1070
     4
1000
2
1002
{
1002
}
1000
3GENINF
1070
     4
1000
3
1002
{
1002
}
1000
4GENINF
1070
     4
1000
4
1002
{
1002
}
1000
5GENINF
1070
     4
1000
5
1002
{
1002
}
1000
6GENINF
1070
     4
1000
6
1002
{
1002
}
1000
7GENINF
1070
     4
1000
7
1002
{
1002
}
1000
8GENINF
1070
     4
1000
8
1002
{
1002
}
1000
9GENINF
1070
     4
1000
9
1002
{
1002
}
1000
10GENINF
1070
     4
1000
10
1002
{
1002
}
1000
11GENINF
1070
     4
1000
11
1002
{
1002
}
1000
12GENINF
1070
     4
1000
12
1002
{
1002
}
1000
13GENINF
1070
     4
1000
13
1002
{
1002
}
1000
14GENINF
1070
     4
1000
14
1002
{
1002
}
1000
15GENINF
1070
     4
1000
15
1002
{
1002
}
1000
16GENINF
1070
     4
1000
16
1002
{
1002
}
1000
17GENINF
1070
     4
1000
17
1002
{
1002
}
1000
18GENINF
1070
     4
1000
18
1002
{
1002
}
1000
19GENINF
1070
     4
1000
19
1002
{
1002
}
1000
20GENINF
1070
     4
1000
20
1002
{
1002
}
1000
21GENINF
1070
     4
1000
21
1002
{
1002
}
1000
22GENINF
1070
     4
1000
22
1002
{
1002
}
1000
23GENINF
1070
     4
1000
23
1002
{
1002
}
1000
24GENINF
1070
     4
1000
24
1002
{
1002
}
1000
0GENINF
1070
     4
1000
0
1002
{
1002
}
1002
}
1000
GENINFO
1070
     0
1002
{
1000
3GENINF
1070
     4
1000
3
1002
{
1002
}
1000
4GENINF
1070
     4
1000
4
1002
{
1002
}
1000
5GENINF
1070
     4
1000
5
1002
{
1002
}
1000
6GENINF
1070
     4
1000
6
1002
{
1002
}
1000
7GENINF
1070
     4
1000
7
1002
{
1002
}
1000
8GENINF
1070
     4
1000
8
1002
{
1002
}
1000
9GENINF
1070
     4
1000
9
1002
{
1002
}
1000
10GENINF
1070
     4
1000
10
1002
{
1002
}
1000
11GENINF
1070
     4
1000
11
1002
{
1002
}
1000
12GENINF
1070
     4
1000
12
1002
{
1002
}
1000
13GENINF
1070
     4
1000
13
1002
{
1002
}
1000
14GENINF
1070
     4
1000
14
1002
{
1002
}
1000
15GENINF
1070
     4
1000
15
1002
{
1002
}
1000
16GENINF
1070
     4
1000
16
1002
{
1002
}
1000
17GENINF
1070
     4
1000
17
1002
{
1002
}
1000
18GENINF
1070
     4
1000
18
1002
{
1002
}
1000
19GENINF
1070
     4
1000
19
1002
{
1002
}
1000
20GENINF
1070
     4
1000
20
1002
{
1002
}
1000
21GENINF
1070
     4
1000
21
1002
{
1002
}
1000
22GENINF
1070
     4
1000
22
1002
{
1002
}
1002
}
1000
DININFO
1070
     0
1002
{
1000
ST-NAME1
1070
     4
1000
5
1002
{
1002
}
1000
ST-NAME2
1070
     4
1000
6
1002
{
1002
}
1000
ST-NORM1
1070
     4
1000
7
1002
{
1002
}
1000
ST-NORM2
1070
     4
1000
8
1002
{
1002
}
1000
ST-MAT1
1070
     4
1000
9
1002
{
1002
}
1000
ST-MAT2
1070
     4
1000
10
1002
{
1002
}
1002
}
1002
}
1000
POS_NUMBERS
1070
     0
1002
{
1000
GENPOS14
1070
     0
1002
{
1000
1GENPOS
1070
     4
1000
1
1002
{
1002
}
1000
2GENPOS
1070
     4
1000
2
1002
{
1002
}
1000
3GENPOS
1070
     4
1000
3
1002
{
1002
}
1000
4GENPOS
1070
     4
1000
4
1002
{
1002
}
1000
5GENPOS
1070
     4
1000
5
1002
{
1002
}
1000
6GENPOS
1070
     4
1000
6
1002
{
1002
}
1000
7GENPOS
1070
     4
1000
7
1002
{
1002
}
1000
8GENPOS
1070
     4
1000
8
1002
{
1002
}
1000
9GENPOS
1070
     4
1000
9
1002
{
1002
}
1000
10GENPOS
1070
     4
1000
10
1002
{
1002
}
1000
11GENPOS
1070
     4
1000
11
1002
{
1002
}
1000
12GENPOS
1070
     4
1000
12
1002
{
1002
}
1000
13GENPOS
1070
     4
1000
13
1002
{
1002
}
1000
14GENPOS
1070
     4
1000
14
1002
{
1002
}
1000
15GENPOS
1070
     4
1000
15
1002
{
1002
}
1000
16GENPOS
1070
     4
1000
16
1002
{
1002
}
1000
17GENPOS
1070
     4
1000
17
1002
{
1002
}
1000
18GENPOS
1070
     4
1000
18
1002
{
1002
}
1000
19GENPOS
1070
     4
1000
19
1002
{
1002
}
1000
20GENPOS
1070
     4
1000
20
1002
{
1002
}
1000
21GENPOS
1070
     4
1000
21
1002
{
1002
}
1000
22GENPOS
1070
     4
1000
22
1002
{
1002
}
1000
23GENPOS
1070
     4
1000
23
1002
{
1002
}
1000
24GENPOS
1070
     4
1000
24
1002
{
1002
}
1000
25GENPOS
1070
     4
1000
25
1002
{
1002
}
1000
26GENPOS
1070
     4
1000
26
1002
{
1002
}
1000
27GENPOS
1070
     4
1000
27
1002
{
1002
}
1000
0GENPOS
1070
     4
1000
0
1002
{
1002
}
1002
}
1000
GENPOS13
1070
     0
1002
{
1000
1GENPOS
1070
     4
1000
1
1002
{
1002
}
1000
2GENPOS
1070
     4
1000
2
1002
{
1002
}
1000
3GENPOS
1070
     4
1000
3
1002
{
1002
}
1000
4GENPOS
1070
     4
1000
4
1002
{
1002
}
1000
5GENPOS
1070
     4
1000
5
1002
{
1002
}
1000
6GENPOS
1070
     4
1000
6
1002
{
1002
}
1000
7GENPOS
1070
     4
1000
7
1002
{
1002
}
1000
8GENPOS
1070
     4
1000
8
1002
{
1002
}
1000
9GENPOS
1070
     4
1000
9
1002
{
1002
}
1000
10GENPOS
1070
     4
1000
10
1002
{
1002
}
1000
11GENPOS
1070
     4
1000
11
1002
{
1002
}
1000
12GENPOS
1070
     4
1000
12
1002
{
1002
}
1000
13GENPOS
1070
     4
1000
13
1002
{
1002
}
1000
14GENPOS
1070
     4
1000
14
1002
{
1002
}
1000
15GENPOS
1070
     4
1000
15
1002
{
1002
}
1000
16GENPOS
1070
     4
1000
16
1002
{
1002
}
1000
17GENPOS
1070
     4
1000
17
1002
{
1002
}
1000
18GENPOS
1070
     4
1000
18
1002
{
1002
}
1000
19GENPOS
1070
     4
1000
19
1002
{
1002
}
1000
20GENPOS
1070
     4
1000
20
1002
{
1002
}
1000
21GENPOS
1070
     4
1000
21
1002
{
1002
}
1000
22GENPOS
1070
     4
1000
22
1002
{
1002
}
1000
23GENPOS
1070
     4
1000
23
1002
{
1002
}
1000
24GENPOS
1070
     4
1000
24
1002
{
1002
}
1000
0GENPOS
1070
     4
1000
0
1002
{
1002
}
1002
}
1000
GENPOS
1070
     0
1002
{
1000
1GENPOS
1070
     4
1000
1
1002
{
1002
}
1000
2GENPOS
1070
     4
1000
2
1002
{
1002
}
1000
3GENPOS
1070
     4
1000
3
1002
{
1002
}
1000
4GENPOS
1070
     4
1000
4
1002
{
1002
}
1000
5GENPOS
1070
     4
1000
5
1002
{
1002
}
1000
6GENPOS
1070
     4
1000
6
1002
{
1002
}
1000
7GENPOS
1070
     4
1000
7
1002
{
1002
}
1000
8GENPOS
1070
     4
1000
8
1002
{
1002
}
1000
9GENPOS
1070
     4
1000
9
1002
{
1002
}
1000
10GENPOS
1070
     4
1000
10
1002
{
1002
}
1000
11GENPOS
1070
     4
1000
11
1002
{
1002
}
1000
12GENPOS
1070
     4
1000
12
1002
{
1002
}
1000
13GENPOS
1070
     4
1000
13
1002
{
1002
}
1000
14GENPOS
1070
     4
1000
14
1002
{
1002
}
1000
15GENPOS
1070
     4
1000
15
1002
{
1002
}
1000
16GENPOS
1070
     4
1000
16
1002
{
1002
}
1000
17GENPOS
1070
     4
1000
17
1002
{
1002
}
1000
18GENPOS
1070
     4
1000
18
1002
{
1002
}
1000
19GENPOS
1070
     4
1000
19
1002
{
1002
}
1000
20GENPOS
1070
     4
1000
20
1002
{
1002
}
1000
21GENPOS
1070
     4
1000
21
1002
{
1002
}
1000
22GENPOS
1070
     4
1000
22
1002
{
1002
}
1000
23GENPOS
1070
     4
1000
23
1002
{
1002
}
1002
}
1000
DIN985
1070
     0
1002
{
1000
POSITION
1070
     4
1000
1
1002
{
1002
}
1000
MENGE
1070
     4
1000
2
1002
{
1002
}
1000
BLATT
1070
     4
1000
3
1002
{
1002
}
1000
BENENN
1070
     4
1000
5
1002
{
1002
}
1000
BENENN2
1070
     4
1000
6
1002
{
1002
}
1000
NORM
1070
     4
1000
7
1002
{
1002
}
1000
NORM2
1070
     4
1000
8
1002
{
1002
}
1000
WERKSTOFF
1070
     4
1000
9
1002
{
1002
}
1000
WERKSTOFF2
1070
     4
1000
10
1002
{
1002
}
1002
}
1000
DIN986
1070
     0
1002
{
1000
POSITION
1070
     4
1000
1
1002
{
1002
}
1000
MENGE
1070
     4
1000
2
1002
{
1002
}
1000
BLATT
1070
     4
1000
3
1002
{
1002
}
1000
BENENN
1070
     4
1000
5
1002
{
1002
}
1000
BENENN2
1070
     4
1000
6
1002
{
1002
}
1000
NORM
1070
     4
1000
7
1002
{
1002
}
1000
NORM2
1070
     4
1000
8
1002
{
1002
}
1000
WERKSTOFF
1070
     4
1000
9
1002
{
1002
}
1000
WERKSTOFF2
1070
     4
1000
10
1002
{
1002
}
1002
}
1000
DIN987
1070
     0
1002
{
1000
POSITION
1070
     4
1000
1
1002
{
1002
}
1000
MENGE
1070
     4
1000
2
1002
{
1002
}
1000
BLATT
1070
     4
1000
3
1002
{
1002
}
1000
BENENN
1070
     4
1000
5
1002
{
1002
}
1000
BENENN2
1070
     4
1000
6
1002
{
1002
}
1000
NORM
1070
     4
1000
7
1002
{
1002
}
1000
NORM2
1070
     4
1000
8
1002
{
1002
}
1000
WERKSTOFF
1070
     4
1000
9
1002
{
1002
}
1000
WERKSTOFF2
1070
     4
1000
10
1002
{
1002
}
1002
}
1002
}
  0
APPID
  5
164C
330
9
100
AcDbSymbolTableRecord
100
AcDbRegAppTableRecord
  2
GENIUS_GENCFG1_13
 70
     0
1001
GENIUS_GENCFG_13
1071
938725396
1000
164C
1000
GEN@INFO_POS
1070
     7
1000
GenCfgObject
1000
GenCfgShort
1000
GenCfgReal
1000
GenCfgBool
1000
GenCfgString
1000
GenCfgDim
1000
GenCfgAttrInf
1000
DescrText
1070
     4
1000
5, ,6, ,7, ,8
1002
{
1002
}
1000
DescrText2
1070
     4
1000
26
1002
{
1002
}
1000
VisibleAttr1
1070
     4
1000
1
1002
{
1002
}
1000
VisibleAttr2
1070
     4
1000
26
1002
{
1002
}
1000
UpdateBlock
1070
     3
1070
     1
1002
{
1002
}
1000
UsedAcadMBom
1070
     4
1000
ACADM_BOM1
1002
{
1002
}
1000
AutoUpdAcadMBom
1070
     3
1070
     1
1002
{
1002
}
1000
Attrib
1070
     0
1002
{
1000
0
1070
     6
1002
{
1000
Prompt
1070
     4
1000
(genmsg gendwg 103)
1002
{
1002
}
1000
Value
1070
     4
1000

1002
{
1002
}
1000
EditFlag
1070
     1
1070
     0
1002
{
1002
}
1000
PosInDDATTE
1070
     1
1070
    27
1002
{
1002
}
1000
FieldLen
1070
     1
1070
    -1
1002
{
1002
}
1002
}
1000
1
1070
     6
1002
{
1000
Prompt
1070
     4
1000
(genmsg gendwg 31)
1002
{
1002
}
1000
Value
1070
     4
1000
1
1002
{
1002
}
1000
EditFlag
1070
     1
1070
     1
1002
{
1002
}
1000
PosInDDATTE
1070
     1
1070
     1
1002
{
1002
}
1000
FieldLen
1070
     1
1070
    -1
1002
{
1002
}
1002
}
1000
2
1070
     6
1002
{
1000
Prompt
1070
     4
1000
(genmsg gendwg 32)
1002
{
1002
}
1000
Value
1070
     4
1000
1
1002
{
1002
}
1000
EditFlag
1070
     1
1070
     1
1002
{
1002
}
1000
PosInDDATTE
1070
     1
1070
     2
1002
{
1002
}
1000
FieldLen
1070
     1
1070
    -1
1002
{
1002
}
1002
}
1000
3
1070
     6
1002
{
1000
Prompt
1070
     4
1000
(genmsg gendwg 33)
1002
{
1002
}
1000
Value
1070
     4
1000

1002
{
1002
}
1000
EditFlag
1070
     1
1070
     1
1002
{
1002
}
1000
PosInDDATTE
1070
     1
1070
     3
1002
{
1002
}
1000
FieldLen
1070
     1
1070
    -1
1002
{
1002
}
1002
}
1000
4
1070
     6
1002
{
1000
Prompt
1070
     4
1000
(genmsg gendwg 34)
1002
{
1002
}
1000
Value
1070
     4
1000

1002
{
1002
}
1000
EditFlag
1070
     1
1070
     1
1002
{
1002
}
1000
PosInDDATTE
1070
     1
1070
     4
1002
{
1002
}
1000
FieldLen
1070
     1
1070
    -1
1002
{
1002
}
1002
}
1000
5
1070
     6
1002
{
1000
Prompt
1070
     4
1000
(genmsg gendwg 35)
1002
{
1002
}
1000
Value
1070
     4
1000

1002
{
1002
}
1000
EditFlag
1070
     1
1070
     1
1002
{
1002
}
1000
PosInDDATTE
1070
     1
1070
     5
1002
{
1002
}
1000
FieldLen
1070
     1
1070
    -1
1002
{
1002
}
1002
}
1000
6
1070
     6
1002
{
1000
Prompt
1070
     4
1000
(genmsg gendwg 36)
1002
{
1002
}
1000
Value
1070
     4
1000

1002
{
1002
}
1000
EditFlag
1070
     1
1070
     1
1002
{
1002
}
1000
PosInDDATTE
1070
     1
1070
     6
1002
{
1002
}
1000
FieldLen
1070
     1
1070
    -1
1002
{
1002
}
1002
}
1000
7
1070
     6
1002
{
1000
Prompt
1070
     4
1000
(genmsg gendwg 37)
1002
{
1002
}
1000
Value
1070
     4
1000

1002
{
1002
}
1000
EditFlag
1070
     1
1070
     1
1002
{
1002
}
1000
PosInDDATTE
1070
     1
1070
     7
1002
{
1002
}
1000
FieldLen
1070
     1
1070
    -1
1002
{
1002
}
1002
}
1000
8
1070
     6
1002
{
1000
Prompt
1070
     4
1000
(genmsg gendwg 38)
1002
{
1002
}
1000
Value
1070
     4
1000

1002
{
1002
}
1000
EditFlag
1070
     1
1070
     1
1002
{
1002
}
1000
PosInDDATTE
1070
     1
1070
     8
1002
{
1002
}
1000
FieldLen
1070
     1
1070
    -1
1002
{
1002
}
1002
}
1000
9
1070
     6
1002
{
1000
Prompt
1070
     4
1000
(genmsg gendwg 39)
1002
{
1002
}
1000
Value
1070
     4
1000

1002
{
1002
}
1000
EditFlag
1070
     1
1070
     1
1002
{
1002
}
1000
PosInDDATTE
1070
     1
1070
     9
1002
{
1002
}
1000
FieldLen
1070
     1
1070
    -1
1002
{
1002
}
1002
}
1000
10
1070
     6
1002
{
1000
Prompt
1070
     4
1000
(genmsg gendwg 40)
1002
{
1002
}
1000
Value
1070
     4
1000

1002
{
1002
}
1000
EditFlag
1070
     1
1070
     1
1002
{
1002
}
1000
PosInDDATTE
1070
     1
1070
    10
1002
{
1002
}
1000
FieldLen
1070
     1
1070
    -1
1002
{
1002
}
1002
}
1000
11
1070
     6
1002
{
1000
Prompt
1070
     4
1000
(genmsg gendwg 41)
1002
{
1002
}
1000
Value
1070
     4
1000

1002
{
1002
}
1000
EditFlag
1070
     1
1070
     1
1002
{
1002
}
1000
PosInDDATTE
1070
     1
1070
    11
1002
{
1002
}
1000
FieldLen
1070
     1
1070
    -1
1002
{
1002
}
1002
}
1000
12
1070
     6
1002
{
1000
Prompt
1070
     4
1000
(genmsg gendwg 42)
1002
{
1002
}
1000
Value
1070
     4
1000

1002
{
1002
}
1000
EditFlag
1070
     1
1070
     1
1002
{
1002
}
1000
PosInDDATTE
1070
     1
1070
    12
1002
{
1002
}
1000
FieldLen
1070
     1
1070
    -1
1002
{
1002
}
1002
}
1000
13
1070
     6
1002
{
1000
Prompt
1070
     4
1000
(genmsg gendwg 43)
1002
{
1002
}
1000
Value
1070
     4
1000

1002
{
1002
}
1000
EditFlag
1070
     1
1070
     1
1002
{
1002
}
1000
PosInDDATTE
1070
     1
1070
    13
1002
{
1002
}
1000
FieldLen
1070
     1
1070
    -1
1002
{
1002
}
1002
}
1000
14
1070
     6
1002
{
1000
Prompt
1070
     4
1000
(genmsg gendwg 44)
1002
{
1002
}
1000
Value
1070
     4
1000

1002
{
1002
}
1000
EditFlag
1070
     1
1070
     1
1002
{
1002
}
1000
PosInDDATTE
1070
     1
1070
    14
1002
{
1002
}
1000
FieldLen
1070
     1
1070
    -1
1002
{
1002
}
1002
}
1000
15
1070
     6
1002
{
1000
Prompt
1070
     4
1000
(genmsg gendwg 45)
1002
{
1002
}
1000
Value
1070
     4
1000

1002
{
1002
}
1000
EditFlag
1070
     1
1070
     1
1002
{
1002
}
1000
PosInDDATTE
1070
     1
1070
    15
1002
{
1002
}
1000
FieldLen
1070
     1
1070
    -1
1002
{
1002
}
1002
}
1000
16
1070
     6
1002
{
1000
Prompt
1070
     4
1000
(genmsg gendwg 46)
1002
{
1002
}
1000
Value
1070
     4
1000

1002
{
1002
}
1000
EditFlag
1070
     1
1070
     1
1002
{
1002
}
1000
PosInDDATTE
1070
     1
1070
    16
1002
{
1002
}
1000
FieldLen
1070
     1
1070
    -1
1002
{
1002
}
1002
}
1000
17
1070
     6
1002
{
1000
Prompt
1070
     4
1000
(genmsg gendwg 47)
1002
{
1002
}
1000
Value
1070
     4
1000

1002
{
1002
}
1000
EditFlag
1070
     1
1070
     1
1002
{
1002
}
1000
PosInDDATTE
1070
     1
1070
    17
1002
{
1002
}
1000
FieldLen
1070
     1
1070
    -1
1002
{
1002
}
1002
}
1000
18
1070
     6
1002
{
1000
Prompt
1070
     4
1000
(genmsg gendwg 48)
1002
{
1002
}
1000
Value
1070
     4
1000

1002
{
1002
}
1000
EditFlag
1070
     1
1070
     1
1002
{
1002
}
1000
PosInDDATTE
1070
     1
1070
    18
1002
{
1002
}
1000
FieldLen
1070
     1
1070
    -1
1002
{
1002
}
1002
}
1000
19
1070
     6
1002
{
1000
Prompt
1070
     4
1000
(genmsg gendwg 99)
1002
{
1002
}
1000
Value
1070
     4
1000

1002
{
1002
}
1000
EditFlag
1070
     1
1070
     1
1002
{
1002
}
1000
PosInDDATTE
1070
     1
1070
    19
1002
{
1002
}
1000
FieldLen
1070
     1
1070
    -1
1002
{
1002
}
1002
}
1000
20
1070
     6
1002
{
1000
Prompt
1070
     4
1000
(genmsg gendwg 100)
1002
{
1002
}
1000
Value
1070
     4
1000

1002
{
1002
}
1000
EditFlag
1070
     1
1070
     1
1002
{
1002
}
1000
PosInDDATTE
1070
     1
1070
    20
1002
{
1002
}
1000
FieldLen
1070
     1
1070
    -1
1002
{
1002
}
1002
}
1000
21
1070
     6
1002
{
1000
Prompt
1070
     4
1000
(genmsg gendwg 101)
1002
{
1002
}
1000
Value
1070
     4
1000

1002
{
1002
}
1000
EditFlag
1070
     1
1070
     1
1002
{
1002
}
1000
PosInDDATTE
1070
     1
1070
    21
1002
{
1002
}
1000
FieldLen
1070
     1
1070
    -1
1002
{
1002
}
1002
}
1000
22
1070
     6
1002
{
1000
Prompt
1070
     4
1000
(genmsg gendwg 102)
1002
{
1002
}
1000
Value
1070
     4
1000

1002
{
1002
}
1000
EditFlag
1070
     1
1070
     1
1002
{
1002
}
1000
PosInDDATTE
1070
     1
1070
    22
1002
{
1002
}
1000
FieldLen
1070
     1
1070
    -1
1002
{
1002
}
1002
}
1000
23
1070
     6
1002
{
1000
Prompt
1070
     4
1000
(genmsg gendwg 30)
1002
{
1002
}
1000
Value
1070
     4
1000

1002
{
1002
}
1000
EditFlag
1070
     1
1070
     1
1002
{
1002
}
1000
PosInDDATTE
1070
     1
1070
    23
1002
{
1002
}
1000
FieldLen
1070
     1
1070
    -1
1002
{
1002
}
1002
}
1000
24
1070
     6
1002
{
1000
Prompt
1070
     4
1000
(genmsg gendwg 104)
1002
{
1002
}
1000
Value
1070
     4
1000

1002
{
1002
}
1000
EditFlag
1070
     1
1070
     1
1002
{
1002
}
1000
PosInDDATTE
1070
     1
1070
    24
1002
{
1002
}
1000
FieldLen
1070
     1
1070
    -1
1002
{
1002
}
1002
}
1000
25
1070
     6
1002
{
1000
Prompt
1070
     4
1000
(genmsg gendwg 105)
1002
{
1002
}
1000
Value
1070
     4
1000

1002
{
1002
}
1000
EditFlag
1070
     1
1070
     1
1002
{
1002
}
1000
PosInDDATTE
1070
     1
1070
    25
1002
{
1002
}
1000
FieldLen
1070
     1
1070
    -1
1002
{
1002
}
1002
}
1000
26
1070
     6
1002
{
1000
Prompt
1070
     4
1000
(genmsg gendwg 106)
1002
{
1002
}
1000
Value
1070
     4
1000

1002
{
1002
}
1000
EditFlag
1070
     1
1070
     1
1002
{
1002
}
1000
PosInDDATTE
1070
     1
1070
    26
1002
{
1002
}
1000
FieldLen
1070
     1
1070
    -1
1002
{
1002
}
1002
}
1000
27
1070
     6
1002
{
1000
Prompt
1070
     4
1000
(genmsg gendwg 109)
1002
{
1002
}
1000
Value
1070
     4
1000

1002
{
1002
}
1000
EditFlag
1070
     1
1070
     2
1002
{
1002
}
1000
PosInDDATTE
1070
     1
1070
    27
1002
{
1002
}
1000
FieldLen
1070
     1
1070
    -1
1002
{
1002
}
1002
}
1000
28
1070
     6
1002
{
1000
Prompt
1070
     4
1000
(genmsg gendwg 110)
1002
{
1002
}
1000
Value
1070
     4
1000

1002
{
1002
}
1000
EditFlag
1070
     1
1070
     1
1002
{
1002
}
1000
PosInDDATTE
1070
     1
1070
    28
1002
{
1002
}
1000
FieldLen
1070
     1
1070
    -1
1002
{
1002
}
1002
}
1002
}
1000
Xlate
1070
     0
1002
{
1000
>
1002
}
  0
APPID
  5
164D
330
9
100
AcDbSymbolTableRecord
100
AcDbRegAppTableRecord
  2
GENIUS_GENCFG2_13
 70
     0
1001
GENIUS_GENCFG_13
1071
938725396
1000
164D
1000
GEN@LAYER@DEFS
1070
     9
1000
GenCfgObject
1000
GenCfgShort
1000
GenCfgReal
1000
GenCfgBool
1000
GenCfgString
1000
GenCfgDim
1000
GenCfgAttrInf
1000
GenCfgLaySection
1000
GenCfgLayer
1000
Basic
1070
     0
1002
{
1000
0
1070
     8
1000
0
1002
{
1000
Color
1070
     1
1070
     7
1002
{
1002
}
1000
LType
1070
     4
1000
CONTINUOUS
1002
{
1002
}
1000
Base
1070
     3
1070
     0
1002
{
1002
}
1002
}
1000
1
1070
     8
1000
1
1002
{
1000
Color
1070
     1
1070
    14
1002
{
1002
}
1000
LType
1070
     4
1000
CONTINUOUS
1002
{
1002
}
1000
Base
1070
     3
1070
     0
1002
{
1002
}
1002
}
1000
2
1070
     8
1000
2
1002
{
1000
Color
1070
     1
1070
     5
1002
{
1002
}
1000
LType
1070
     4
1000
CONTINUOUS
1002
{
1002
}
1000
Base
1070
     3
1070
     0
1002
{
1002
}
1002
}
1000
3
1070
     8
1000
3
1002
{
1000
Color
1070
     1
1070
     6
1002
{
1002
}
1000
LType
1070
     4
1000
GEN3
1002
{
1002
}
1000
Base
1070
     3
1070
     0
1002
{
1002
}
1002
}
1000
4
1070
     8
1000
4
1002
{
1000
Color
1070
     1
1070
     3
1002
{
1002
}
1000
LType
1070
     4
1000
CONTINUOUS
1002
{
1002
}
1000
Base
1070
     3
1070
     0
1002
{
1002
}
1002
}
1000
5
1070
     8
1000
5
1002
{
1000
Color
1070
     1
1070
     3
1002
{
1002
}
1000
LType
1070
     4
1000
CONTINUOUS
1002
{
1002
}
1000
Base
1070
     3
1070
     0
1002
{
1002
}
1002
}
1000
6
1070
     8
1000
6
1002
{
1000
Color
1070
     1
1070
     2
1002
{
1002
}
1000
LType
1070
     4
1000
CONTINUOUS
1002
{
1002
}
1000
Base
1070
     3
1070
     0
1002
{
1002
}
1002
}
1000
7
1070
     8
1000
7
1002
{
1000
Color
1070
     1
1070
     4
1002
{
1002
}
1000
LType
1070
     4
1000
GEN7
1002
{
1002
}
1000
Base
1070
     3
1070
     0
1002
{
1002
}
1002
}
1000
8
1070
     8
1000
8
1002
{
1000
Color
1070
     1
1070
     1
1002
{
1002
}
1000
LType
1070
     4
1000
CONTINUOUS
1002
{
1002
}
1000
Base
1070
     3
1070
     0
1002
{
1002
}
1002
}
1000
3A
1070
     8
1000
3A
1002
{
1000
Color
1070
     1
1070
     6
1002
{
1002
}
1000
LType
1070
     4
1000
GEN3A
1002
{
1002
}
1000
Base
1070
     3
1070
     0
1002
{
1002
}
1002
}
1000
7A
1070
     8
1000
7A
1002
{
1000
Color
1070
     1
1070
     4
1002
{
1002
}
1000
LType
1070
     4
1000
GEN7A
1002
{
1002
}
1000
Base
1070
     3
1070
     0
1002
{
1002
}
1002
}
1000
2A
1070
     8
1000
2A
1002
{
1000
Color
1070
     1
1070
     7
1002
{
1002
}
1000
LType
1070
     4
1000
GEN7
1002
{
1002
}
1000
Base
1070
     3
1070
     0
1002
{
1002
}
1002
}
1000
4A
1070
     8
1000
4A
1002
{
1000
Color
1070
     1
1070
     3
1002
{
1002
}
1000
LType
1070
     4
1000
GEN4A
1002
{
1002
}
1000
Base
1070
     3
1070
     0
1002
{
1002
}
1002
}
1000
9
1070
     8
1000
9
1002
{
1000
Color
1070
     1
1070
   253
1002
{
1002
}
1000
LType
1070
     4
1000
CONTINUOUS
1002
{
1002
}
1000
Base
1070
     3
1070
     0
1002
{
1002
}
1002
}
1000
IP
1070
     8
1000
IP
1002
{
1000
Color
1070
     1
1070
     7
1002
{
1002
}
1000
LType
1070
     4
1000
CONTINUOUS
1002
{
1002
}
1000
Base
1070
     3
1070
     0
1002
{
1002
}
1002
}
1002
}
1000
Standard
1070
     0
1002
{
1000
0N
1070
     8
1000
0N
1002
{
1000
Color
1070
     1
1070
     7
1002
{
1002
}
1000
LType
1070
     4
1000
CONTINUOUS
1002
{
1002
}
1000
Base
1070
     3
1070
     0
1002
{
1002
}
1002
}
1000
1N
1070
     8
1000
1N
1002
{
1000
Color
1070
     1
1070
    14
1002
{
1002
}
1000
LType
1070
     4
1000
CONTINUOUS
1002
{
1002
}
1000
Base
1070
     3
1070
     0
1002
{
1002
}
1002
}
1000
2N
1070
     8
1000
2N
1002
{
1000
Color
1070
     1
1070
     5
1002
{
1002
}
1000
LType
1070
     4
1000
CONTINUOUS
1002
{
1002
}
1000
Base
1070
     3
1070
     0
1002
{
1002
}
1002
}
1000
3N
1070
     8
1000
3N
1002
{
1000
Color
1070
     1
1070
     6
1002
{
1002
}
1000
LType
1070
     4
1000
GEN3
1002
{
1002
}
1000
Base
1070
     3
1070
     0
1002
{
1002
}
1002
}
1000
4N
1070
     8
1000
4N
1002
{
1000
Color
1070
     1
1070
     3
1002
{
1002
}
1000
LType
1070
     4
1000
CONTINUOUS
1002
{
1002
}
1000
Base
1070
     3
1070
     0
1002
{
1002
}
1002
}
1000
5N
1070
     8
1000
5N
1002
{
1000
Color
1070
     1
1070
     3
1002
{
1002
}
1000
LType
1070
     4
1000
CONTINUOUS
1002
{
1002
}
1000
Base
1070
     3
1070
     0
1002
{
1002
}
1002
}
1000
6N
1070
     8
1000
6N
1002
{
1000
Color
1070
     1
1070
     2
1002
{
1002
}
1000
LType
1070
     4
1000
CONTINUOUS
1002
{
1002
}
1000
Base
1070
     3
1070
     0
1002
{
1002
}
1002
}
1000
7N
1070
     8
1000
7N
1002
{
1000
Color
1070
     1
1070
     4
1002
{
1002
}
1000
LType
1070
     4
1000
GEN7
1002
{
1002
}
1000
Base
1070
     3
1070
     0
1002
{
1002
}
1002
}
1000
8N
1070
     8
1000
8N
1002
{
1000
Color
1070
     1
1070
     1
1002
{
1002
}
1000
LType
1070
     4
1000
CONTINUOUS
1002
{
1002
}
1000
Base
1070
     3
1070
     0
1002
{
1002
}
1002
}
1000
3AN
1070
     8
1000
3AN
1002
{
1000
Color
1070
     1
1070
     6
1002
{
1002
}
1000
LType
1070
     4
1000
GEN3A
1002
{
1002
}
1000
Base
1070
     3
1070
     0
1002
{
1002
}
1002
}
1000
7AN
1070
     8
1000
7AN
1002
{
1000
Color
1070
     1
1070
     4
1002
{
1002
}
1000
LType
1070
     4
1000
GEN7A
1002
{
1002
}
1000
Base
1070
     3
1070
     0
1002
{
1002
}
1002
}
1000
2AN
1070
     8
1000
2AN
1002
{
1000
Color
1070
     1
1070
     7
1002
{
1002
}
1000
LType
1070
     4
1000
GEN7
1002
{
1002
}
1000
Base
1070
     3
1070
     0
1002
{
1002
}
1002
}
1000
4AN
1070
     8
1000
4AN
1002
{
1000
Color
1070
     1
1070
     3
1002
{
1002
}
1000
LType
1070
     4
1000
GEN4A
1002
{
1002
}
1000
Base
1070
     3
1070
     0
1002
{
1002
}
1002
}
1000
9N
1070
     8
1000
9N
1002
{
1000
Color
1070
     1
1070
   253
1002
{
1002
}
1000
LType
1070
     4
1000
CONTINUOUS
1002
{
1002
}
1000
Base
1070
     3
1070
     0
1002
{
1002
}
1002
}
1000
IPN
1070
     8
1000
IPN
1002
{
1000
Color
1070
     1
1070
     7
1002
{
1002
}
1000
LType
1070
     4
1000
CONTINUOUS
1002
{
1002
}
1000
Base
1070
     3
1070
     0
1002
{
1002
}
1002
}
1002
}
1000
Extra
1070
     0
1002
{
1000
Klin
1070
     8
1000
KLIN
1002
{
1000
Color
1070
     1
1070
     1
1002
{
1002
}
1000
LType
1070
     4
1000
CONTINUOUS
1002
{
1002
}
1000
Base
1070
     3
1070
     1
1002
{
1002
}
1002
}
1000
Info
1070
     8
1000
INFO
1002
{
1000
Color
1070
     1
1070
     4
1002
{
1002
}
1000
LType
1070
     4
1000
CONTINUOUS
1002
{
1002
}
1000
Base
1070
     3
1070
     1
1002
{
1002
}
1002
}
1000
Rahm2
1070
     8
1000
RAHM2
1002
{
1000
Color
1070
     1
1070
     1
1002
{
1002
}
1000
LType
1070
     4
1000
CONTINUOUS
1002
{
1002
}
1000
Base
1070
     3
1070
     1
1002
{
1002
}
1002
}
1000
Rahm3
1070
     8
1000
RAHM3
1002
{
1000
Color
1070
     1
1070
     2
1002
{
1002
}
1000
LType
1070
     4
1000
CONTINUOUS
1002
{
1002
}
1000
Base
1070
     3
1070
     1
1002
{
1002
}
1002
}
1000
Rahm5
1070
     8
1000
RAHM5
1002
{
1000
Color
1070
     1
1070
     7
1002
{
1002
}
1000
LType
1070
     4
1000
CONTINUOUS
1002
{
1002
}
1000
Base
1070
     3
1070
     1
1002
{
1002
}
1002
}
1000
View
1070
     8
1000
VIEW
1002
{
1000
Color
1070
     1
1070
     1
1002
{
1002
}
1000
LType
1070
     4
1000
CONTINUOUS
1002
{
1002
}
1000
Base
1070
     3
1070
     1
1002
{
1002
}
1002
}
1000
Behind
1070
     8
1000
BEHIND
1002
{
1000
Color
1070
     1
1070
   253
1002
{
1002
}
1000
LType
1070
     4
1000
CONTINUOUS
1002
{
1002
}
1000
Base
1070
     3
1070
     1
1002
{
1002
}
1002
}
1002
}
  0
APPID
  5
164E
330
9
100
AcDbSymbolTableRecord
100
AcDbRegAppTableRecord
  2
GENIUS_GENCFG3_13
 70
     0
1001
GENIUS_GENCFG_13
1071
938725396
1000
164E
1000
GEN@LAYER@ENTSORT
1070
    10
1000
GenCfgObject
1000
GenCfgShort
1000
GenCfgReal
1000
GenCfgBool
1000
GenCfgString
1000
GenCfgDim
1000
GenCfgAttrInf
1000
GenCfgLaySection
1000
GenCfgLayer
1000
GenCfgEntSort
1000
ADDL
1070
     9
1000
5
1002
{
1000
Class
1070
     4
1000
SYM
1002
{
1002
}
1000
Color
1070
     1
1070
     1
1002
{
1002
}
1000
LType
1070
     4
1000
BYLAYER
1002
{
1002
}
1002
}
1000
ALTR
1070
     9
1000
4
1002
{
1000
Class
1070
     4
1000

1002
{
1002
}
1000
Color
1070
     1
1070
     7
1002
{
1002
}
1000
LType
1070
     4
1000
GEN3A
1002
{
1002
}
1002
}
1000
BELI
1070
     9
1000
4
1002
{
1000
Class
1070
     4
1000

1002
{
1002
}
1000
Color
1070
     1
1070
   256
1002
{
1002
}
1000
LType
1070
     4
1000
BYLAYER
1002
{
1002
}
1002
}
1000
BHNV
1070
     9
1000
9
1002
{
1000
Class
1070
     4
1000
INV
1002
{
1002
}
1000
Color
1070
     1
1070
   256
1002
{
1002
}
1000
LType
1070
     4
1000
BYLAYER
1002
{
1002
}
1002
}
1000
BHNVS
1070
     9
1000
BEHIND
1002
{
1000
Class
1070
     4
1000
INV
1002
{
1002
}
1000
Color
1070
     1
1070
   256
1002
{
1002
}
1000
LType
1070
     4
1000
BYLAYER
1002
{
1002
}
1002
}
1000
BLID
1070
     9
1000
4A
1002
{
1000
Class
1070
     4
1000

1002
{
1002
}
1000
Color
1070
     1
1070
   256
1002
{
1002
}
1000
LType
1070
     4
1000
BYLAYER
1002
{
1002
}
1002
}
1000
BOAP
1070
     9
1000
4A
1002
{
1000
Class
1070
     4
1000

1002
{
1002
}
1000
Color
1070
     1
1070
   256
1002
{
1002
}
1000
LType
1070
     4
1000
BYLAYER
1002
{
1002
}
1002
}
1000
BOR2
1070
     9
1000
RAHM2
1002
{
1000
Class
1070
     4
1000
SPZ,SYM
1002
{
1002
}
1000
Color
1070
     1
1070
   256
1002
{
1002
}
1000
LType
1070
     4
1000
BYLAYER
1002
{
1002
}
1002
}
1000
BOR3
1070
     9
1000
RAHM3
1002
{
1000
Class
1070
     4
1000
SPZ,SYM
1002
{
1002
}
1000
Color
1070
     1
1070
   256
1002
{
1002
}
1000
LType
1070
     4
1000
BYLAYER
1002
{
1002
}
1002
}
1000
BOR5
1070
     9
1000
RAHM5
1002
{
1000
Class
1070
     4
1000
SPZ,SYM
1002
{
1002
}
1000
Color
1070
     1
1070
   256
1002
{
1002
}
1000
LType
1070
     4
1000
BYLAYER
1002
{
1002
}
1002
}
1000
BOR7
1070
     9
1000
RAHM5
1002
{
1000
Class
1070
     4
1000
SPZ,SYM
1002
{
1002
}
1000
Color
1070
     1
1070
     7
1002
{
1002
}
1000
LType
1070
     4
1000
CONTINUOUS
1002
{
1002
}
1002
}
1000
BPAP
1070
     9
1000
4A
1002
{
1000
Class
1070
     4
1000

1002
{
1002
}
1000
Color
1070
     1
1070
   256
1002
{
1002
}
1000
LType
1070
     4
1000
BYLAYER
1002
{
1002
}
1002
}
1000
BPEX
1070
     9
1000
4A
1002
{
1000
Class
1070
     4
1000

1002
{
1002
}
1000
Color
1070
     1
1070
   256
1002
{
1002
}
1000
LType
1070
     4
1000
BYLAYER
1002
{
1002
}
1002
}
1000
BTDI
1070
     9
1000
5
1002
{
1000
Class
1070
     4
1000
DIM,SYM
1002
{
1002
}
1000
Color
1070
     1
1070
   256
1002
{
1002
}
1000
LType
1070
     4
1000
BYLAYER
1002
{
1002
}
1002
}
1000
CAL2
1070
     9
1000
4
1002
{
1000
Class
1070
     4
1000
SYM
1002
{
1002
}
1000
Color
1070
     1
1070
   256
1002
{
1002
}
1000
LType
1070
     4
1000
BYLAYER
1002
{
1002
}
1002
}
1000
CAL3
1070
     9
1000
4
1002
{
1000
Class
1070
     4
1000
SYM
1002
{
1002
}
1000
Color
1070
     1
1070
     2
1002
{
1002
}
1000
LType
1070
     4
1000
BYLAYER
1002
{
1002
}
1002
}
1000
CAL5
1070
     9
1000
4
1002
{
1000
Class
1070
     4
1000
SYM
1002
{
1002
}
1000
Color
1070
     1
1070
     7
1002
{
1002
}
1000
LType
1070
     4
1000
BYLAYER
1002
{
1002
}
1002
}
1000
CAL7
1070
     9
1000
4
1002
{
1000
Class
1070
     4
1000
SYM
1002
{
1002
}
1000
Color
1070
     1
1070
     5
1002
{
1002
}
1000
LType
1070
     4
1000
BYLAYER
1002
{
1002
}
1002
}
1000
CENN
1070
     9
1000
7A
1002
{
1000
Class
1070
     4
1000
CEN
1002
{
1002
}
1000
Color
1070
     1
1070
   256
1002
{
1002
}
1000
LType
1070
     4
1000
BYLAYER
1002
{
1002
}
1002
}
1000
CENW
1070
     9
1000
7
1002
{
1000
Class
1070
     4
1000
CEN
1002
{
1002
}
1000
Color
1070
     1
1070
   256
1002
{
1002
}
1000
LType
1070
     4
1000
BYLAYER
1002
{
1002
}
1002
}
1000
CLIN
1070
     9
1000
KLIN
1002
{
1000
Class
1070
     4
1000
SPZ
1002
{
1002
}
1000
Color
1070
     1
1070
   256
1002
{
1002
}
1000
LType
1070
     4
1000
BYLAYER
1002
{
1002
}
1002
}
1000
CON1
1070
     9
1000
0
1002
{
1000
Class
1070
     4
1000
CON,BGD
1002
{
1002
}
1000
Color
1070
     1
1070
   256
1002
{
1002
}
1000
LType
1070
     4
1000
BYLAYER
1002
{
1002
}
1002
}
1000
CON2
1070
     9
1000
1
1002
{
1000
Class
1070
     4
1000
CON,BGD
1002
{
1002
}
1000
Color
1070
     1
1070
   256
1002
{
1002
}
1000
LType
1070
     4
1000
BYLAYER
1002
{
1002
}
1002
}
1000
CON3
1070
     9
1000
2
1002
{
1000
Class
1070
     4
1000
CON,BGD
1002
{
1002
}
1000
Color
1070
     1
1070
   256
1002
{
1002
}
1000
LType
1070
     4
1000
BYLAYER
1002
{
1002
}
1002
}
1000
CON4
1070
     9
1000
2
1002
{
1000
Class
1070
     4
1000
CON,BGD
1002
{
1002
}
1000
Color
1070
     1
1070
   256
1002
{
1002
}
1000
LType
1070
     4
1000
BYLAYER
1002
{
1002
}
1002
}
1000
DERP
1070
     9
1000
4
1002
{
1000
Class
1070
     4
1000

1002
{
1002
}
1000
Color
1070
     1
1070
   256
1002
{
1002
}
1000
LType
1070
     4
1000
BYLAYER
1002
{
1002
}
1002
}
1000
DETA
1070
     9
1000
4
1002
{
1000
Class
1070
     4
1000

1002
{
1002
}
1000
Color
1070
     1
1070
   256
1002
{
1002
}
1000
LType
1070
     4
1000
BYLAYER
1002
{
1002
}
1002
}
1000
DIAG
1070
     9
1000
5
1002
{
1000
Class
1070
     4
1000
SYM
1002
{
1002
}
1000
Color
1070
     1
1070
   256
1002
{
1002
}
1000
LType
1070
     4
1000
BYLAYER
1002
{
1002
}
1002
}
1000
DILI
1070
     9
1000
5
1002
{
1000
Class
1070
     4
1000
DIM,SYM
1002
{
1002
}
1000
Color
1070
     1
1070
   256
1002
{
1002
}
1000
LType
1070
     4
1000
BYLAYER
1002
{
1002
}
1002
}
1000
DITO2
1070
     9
1000
5
1002
{
1000
Class
1070
     4
1000
DIM,SYM
1002
{
1002
}
1000
Color
1070
     1
1070
     3
1002
{
1002
}
1000
LType
1070
     4
1000
BYLAYER
1002
{
1002
}
1002
}
1000
DITO3
1070
     9
1000
5
1002
{
1000
Class
1070
     4
1000
DIM,SYM
1002
{
1002
}
1000
Color
1070
     1
1070
     2
1002
{
1002
}
1000
LType
1070
     4
1000
BYLAYER
1002
{
1002
}
1002
}
1000
DITX
1070
     9
1000
5
1002
{
1000
Class
1070
     4
1000
DIM,SYM
1002
{
1002
}
1000
Color
1070
     1
1070
   256
1002
{
1002
}
1000
LType
1070
     4
1000
CONTINUOUS
1002
{
1002
}
1002
}
1000
DIXL
1070
     9
1000
5
1002
{
1000
Class
1070
     4
1000
DIM,SYM
1002
{
1002
}
1000
Color
1070
     1
1070
   256
1002
{
1002
}
1000
LType
1070
     4
1000
BYLAYER
1002
{
1002
}
1002
}
1000
EXMP
1070
     9
1000
4A
1002
{
1000
Class
1070
     4
1000

1002
{
1002
}
1000
Color
1070
     1
1070
   256
1002
{
1002
}
1000
LType
1070
     4
1000
BYLAYER
1002
{
1002
}
1002
}
1000
FEMN
1070
     9
1000
8
1002
{
1000
Class
1070
     4
1000

1002
{
1002
}
1000
Color
1070
     1
1070
   256
1002
{
1002
}
1000
LType
1070
     4
1000
BYLAYER
1002
{
1002
}
1002
}
1000
FEMPN
1070
     9
1000
8
1002
{
1000
Class
1070
     4
1000
SYM
1002
{
1002
}
1000
Color
1070
     1
1070
     3
1002
{
1002
}
1000
LType
1070
     4
1000
BYLAYER
1002
{
1002
}
1002
}
1000
FEMSP
1070
     9
1000
4A
1002
{
1000
Class
1070
     4
1000

1002
{
1002
}
1000
Color
1070
     1
1070
   256
1002
{
1002
}
1000
LType
1070
     4
1000
CONTINUOUS
1002
{
1002
}
1002
}
1000
FEMST
1070
     9
1000
4A
1002
{
1000
Class
1070
     4
1000
SYM
1002
{
1002
}
1000
Color
1070
     1
1070
     3
1002
{
1002
}
1000
LType
1070
     4
1000
BYLAYER
1002
{
1002
}
1002
}
1000
FEMVN
1070
     9
1000
2
1002
{
1000
Class
1070
     4
1000
CON
1002
{
1002
}
1000
Color
1070
     1
1070
   256
1002
{
1002
}
1000
LType
1070
     4
1000
BYLAYER
1002
{
1002
}
1002
}
1000
FEMVT
1070
     9
1000
2
1002
{
1000
Class
1070
     4
1000
SYM
1002
{
1002
}
1000
Color
1070
     1
1070
     3
1002
{
1002
}
1000
LType
1070
     4
1000
BYLAYER
1002
{
1002
}
1002
}
1000
FLAT
1070
     9
1000
0
1002
{
1000
Class
1070
     4
1000

1002
{
1002
}
1000
Color
1070
     1
1070
   256
1002
{
1002
}
1000
LType
1070
     4
1000
BYLAYER
1002
{
1002
}
1002
}
1000
FRAR
1070
     9
1000
4A
1002
{
1000
Class
1070
     4
1000

1002
{
1002
}
1000
Color
1070
     1
1070
   256
1002
{
1002
}
1000
LType
1070
     4
1000
BYLAYER
1002
{
1002
}
1002
}
1000
GRLI
1070
     9
1000
5
1002
{
1000
Class
1070
     4
1000
SYM
1002
{
1002
}
1000
Color
1070
     1
1070
   256
1002
{
1002
}
1000
LType
1070
     4
1000
BYLAYER
1002
{
1002
}
1002
}
1000
GVLI
1070
     9
1000
4A
1002
{
1000
Class
1070
     4
1000

1002
{
1002
}
1000
Color
1070
     1
1070
   256
1002
{
1002
}
1000
LType
1070
     4
1000
BYLAYER
1002
{
1002
}
1002
}
1000
HATC
1070
     9
1000
8
1002
{
1000
Class
1070
     4
1000
HTC,BGD
1002
{
1002
}
1000
Color
1070
     1
1070
   256
1002
{
1002
}
1000
LType
1070
     4
1000
BYLAYER
1002
{
1002
}
1002
}
1000
HIDN
1070
     9
1000
3A
1002
{
1000
Class
1070
     4
1000
HID,BGD
1002
{
1002
}
1000
Color
1070
     1
1070
   256
1002
{
1002
}
1000
LType
1070
     4
1000
BYLAYER
1002
{
1002
}
1002
}
1000
HIDW
1070
     9
1000
3
1002
{
1000
Class
1070
     4
1000
HID,BGD
1002
{
1002
}
1000
Color
1070
     1
1070
   256
1002
{
1002
}
1000
LType
1070
     4
1000
BYLAYER
1002
{
1002
}
1002
}
1000
HLIN
1070
     9
1000
4
1002
{
1000
Class
1070
     4
1000
BGD
1002
{
1002
}
1000
Color
1070
     1
1070
   256
1002
{
1002
}
1000
LType
1070
     4
1000
BYLAYER
1002
{
1002
}
1002
}
1000
HOCN
1070
     9
1000
7A
1002
{
1000
Class
1070
     4
1000
CEN
1002
{
1002
}
1000
Color
1070
     1
1070
   256
1002
{
1002
}
1000
LType
1070
     4
1000
BYLAYER
1002
{
1002
}
1002
}
1000
HOCW
1070
     9
1000
7
1002
{
1000
Class
1070
     4
1000
CEN
1002
{
1002
}
1000
Color
1070
     1
1070
   256
1002
{
1002
}
1000
LType
1070
     4
1000
BYLAYER
1002
{
1002
}
1002
}
1000
INFO
1070
     9
1000
INFO
1002
{
1000
Class
1070
     4
1000
SPZ,SYM
1002
{
1002
}
1000
Color
1070
     1
1070
   256
1002
{
1002
}
1000
LType
1070
     4
1000
BYLAYER
1002
{
1002
}
1002
}
1000
LADI
1070
     9
1000
4
1002
{
1000
Class
1070
     4
1000
BGD
1002
{
1002
}
1000
Color
1070
     1
1070
   256
1002
{
1002
}
1000
LType
1070
     4
1000
BYLAYER
1002
{
1002
}
1002
}
1000
LEAD
1070
     9
1000
5
1002
{
1000
Class
1070
     4
1000
SYM
1002
{
1002
}
1000
Color
1070
     1
1070
   256
1002
{
1002
}
1000
LType
1070
     4
1000
BYLAYER
1002
{
1002
}
1002
}
1000
N_ADDL
1070
     9
1000
5N
1002
{
1000
Class
1070
     4
1000
SYM
1002
{
1002
}
1000
Color
1070
     1
1070
     1
1002
{
1002
}
1000
LType
1070
     4
1000
BYLAYER
1002
{
1002
}
1002
}
1000
N_BHNV
1070
     9
1000
9N
1002
{
1000
Class
1070
     4
1000
INV
1002
{
1002
}
1000
Color
1070
     1
1070
   256
1002
{
1002
}
1000
LType
1070
     4
1000
BYLAYER
1002
{
1002
}
1002
}
1000
N_CON1
1070
     9
1000
0N
1002
{
1000
Class
1070
     4
1000
CON,BGD
1002
{
1002
}
1000
Color
1070
     1
1070
   256
1002
{
1002
}
1000
LType
1070
     4
1000
BYLAYER
1002
{
1002
}
1002
}
1000
N_CON2
1070
     9
1000
1N
1002
{
1000
Class
1070
     4
1000
CON,BGD
1002
{
1002
}
1000
Color
1070
     1
1070
   256
1002
{
1002
}
1000
LType
1070
     4
1000
BYLAYER
1002
{
1002
}
1002
}
1000
N_CON3
1070
     9
1000
2N
1002
{
1000
Class
1070
     4
1000
CON,BGD
1002
{
1002
}
1000
Color
1070
     1
1070
   256
1002
{
1002
}
1000
LType
1070
     4
1000
BYLAYER
1002
{
1002
}
1002
}
1000
N_CON4
1070
     9
1000
2N
1002
{
1000
Class
1070
     4
1000
CON,BGD
1002
{
1002
}
1000
Color
1070
     1
1070
   256
1002
{
1002
}
1000
LType
1070
     4
1000
BYLAYER
1002
{
1002
}
1002
}
1000
N_CENN
1070
     9
1000
7AN
1002
{
1000
Class
1070
     4
1000
CEN
1002
{
1002
}
1000
Color
1070
     1
1070
   256
1002
{
1002
}
1000
LType
1070
     4
1000
BYLAYER
1002
{
1002
}
1002
}
1000
N_CENW
1070
     9
1000
7N
1002
{
1000
Class
1070
     4
1000
CEN
1002
{
1002
}
1000
Color
1070
     1
1070
   256
1002
{
1002
}
1000
LType
1070
     4
1000
BYLAYER
1002
{
1002
}
1002
}
1000
N_DILI
1070
     9
1000
5N
1002
{
1000
Class
1070
     4
1000
DIM,SYM
1002
{
1002
}
1000
Color
1070
     1
1070
   256
1002
{
1002
}
1000
LType
1070
     4
1000
BYLAYER
1002
{
1002
}
1002
}
1000
N_DITX
1070
     9
1000
5N
1002
{
1000
Class
1070
     4
1000
DIM,SYM
1002
{
1002
}
1000
Color
1070
     1
1070
     2
1002
{
1002
}
1000
LType
1070
     4
1000
CONTINUOUS
1002
{
1002
}
1002
}
1000
N_DIXL
1070
     9
1000
5N
1002
{
1000
Class
1070
     4
1000
DIM,SYM
1002
{
1002
}
1000
Color
1070
     1
1070
   256
1002
{
1002
}
1000
LType
1070
     4
1000
BYLAYER
1002
{
1002
}
1002
}
1000
N_HATC
1070
     9
1000
8N
1002
{
1000
Class
1070
     4
1000
HTC,BGD
1002
{
1002
}
1000
Color
1070
     1
1070
   256
1002
{
1002
}
1000
LType
1070
     4
1000
BYLAYER
1002
{
1002
}
1002
}
1000
N_HIDN
1070
     9
1000
3AN
1002
{
1000
Class
1070
     4
1000
HID,BGD
1002
{
1002
}
1000
Color
1070
     1
1070
   256
1002
{
1002
}
1000
LType
1070
     4
1000
BYLAYER
1002
{
1002
}
1002
}
1000
N_HIDW
1070
     9
1000
3N
1002
{
1000
Class
1070
     4
1000
HID,BGD
1002
{
1002
}
1000
Color
1070
     1
1070
   256
1002
{
1002
}
1000
LType
1070
     4
1000
BYLAYER
1002
{
1002
}
1002
}
1000
N_NGIP
1070
     9
1000
IPN
1002
{
1000
Class
1070
     4
1000

1002
{
1002
}
1000
Color
1070
     1
1070
   256
1002
{
1002
}
1000
LType
1070
     4
1000
BYLAYER
1002
{
1002
}
1002
}
1000
N_PHAN
1070
     9
1000
4AN
1002
{
1000
Class
1070
     4
1000

1002
{
1002
}
1000
Color
1070
     1
1070
   256
1002
{
1002
}
1000
LType
1070
     4
1000
BYLAYER
1002
{
1002
}
1002
}
1000
N_POSL
1070
     9
1000
5N
1002
{
1000
Class
1070
     4
1000
SYM
1002
{
1002
}
1000
Color
1070
     1
1070
   256
1002
{
1002
}
1000
LType
1070
     4
1000
BYLAYER
1002
{
1002
}
1002
}
1000
N_TCON
1070
     9
1000
0N
1002
{
1000
Class
1070
     4
1000
CON,BGD
1002
{
1002
}
1000
Color
1070
     1
1070
   256
1002
{
1002
}
1000
LType
1070
     4
1000
BYLAYER
1002
{
1002
}
1002
}
1000
N_THLI
1070
     9
1000
4N
1002
{
1000
Class
1070
     4
1000
BGD
1002
{
1002
}
1000
Color
1070
     1
1070
   256
1002
{
1002
}
1000
LType
1070
     4
1000
BYLAYER
1002
{
1002
}
1002
}
1000
N_TLEN
1070
     9
1000
0N
1002
{
1000
Class
1070
     4
1000
CON,BGD
1002
{
1002
}
1000
Color
1070
     1
1070
   256
1002
{
1002
}
1000
LType
1070
     4
1000
BYLAYER
1002
{
1002
}
1002
}
1000
N_TXT3
1070
     9
1000
6N
1002
{
1000
Class
1070
     4
1000
SYM
1002
{
1002
}
1000
Color
1070
     1
1070
   256
1002
{
1002
}
1000
LType
1070
     4
1000
BYLAYER
1002
{
1002
}
1002
}
1000
N_VPLI
1070
     9
1000
2AN
1002
{
1000
Class
1070
     4
1000

1002
{
1002
}
1000
Color
1070
     1
1070
   256
1002
{
1002
}
1000
LType
1070
     4
1000
BYLAYER
1002
{
1002
}
1002
}
1000
NGIP
1070
     9
1000
IP
1002
{
1000
Class
1070
     4
1000

1002
{
1002
}
1000
Color
1070
     1
1070
   256
1002
{
1002
}
1000
LType
1070
     4
1000
BYLAYER
1002
{
1002
}
1002
}
1000
PAL2
1070
     9
1000
RAHM2
1002
{
1000
Class
1070
     4
1000
SPZ,SYM
1002
{
1002
}
1000
Color
1070
     1
1070
   256
1002
{
1002
}
1000
LType
1070
     4
1000
BYLAYER
1002
{
1002
}
1002
}
1000
PAL3
1070
     9
1000
RAHM3
1002
{
1000
Class
1070
     4
1000
SPZ,SYM
1002
{
1002
}
1000
Color
1070
     1
1070
   256
1002
{
1002
}
1000
LType
1070
     4
1000
BYLAYER
1002
{
1002
}
1002
}
1000
PAL5
1070
     9
1000
RAHM5
1002
{
1000
Class
1070
     4
1000
SPZ,SYM
1002
{
1002
}
1000
Color
1070
     1
1070
   256
1002
{
1002
}
1000
LType
1070
     4
1000
BYLAYER
1002
{
1002
}
1002
}
1000
PAL7
1070
     9
1000
RAHM5
1002
{
1000
Class
1070
     4
1000
SPZ,SYM
1002
{
1002
}
1000
Color
1070
     1
1070
     7
1002
{
1002
}
1000
LType
1070
     4
1000
CONTINUOUS
1002
{
1002
}
1002
}
1000
PHAN
1070
     9
1000
4A
1002
{
1000
Class
1070
     4
1000

1002
{
1002
}
1000
Color
1070
     1
1070
   256
1002
{
1002
}
1000
LType
1070
     4
1000
BYLAYER
1002
{
1002
}
1002
}
1000
POSL
1070
     9
1000
5
1002
{
1000
Class
1070
     4
1000
SYM
1002
{
1002
}
1000
Color
1070
     1
1070
   256
1002
{
1002
}
1000
LType
1070
     4
1000
BYLAYER
1002
{
1002
}
1002
}
1000
POSN
1070
     9
1000
6
1002
{
1000
Class
1070
     4
1000
SYM
1002
{
1002
}
1000
Color
1070
     1
1070
     7
1002
{
1002
}
1000
LType
1070
     4
1000
BYLAYER
1002
{
1002
}
1002
}
1000
POSREF
1070
     9
1000
6
1002
{
1000
Class
1070
     4
1000
SYM
1002
{
1002
}
1000
Color
1070
     1
1070
     5
1002
{
1002
}
1000
LType
1070
     4
1000
BYLAYER
1002
{
1002
}
1002
}
1000
POSX
1070
     9
1000
5
1002
{
1000
Class
1070
     4
1000
SYM
1002
{
1002
}
1000
Color
1070
     1
1070
     2
1002
{
1002
}
1000
LType
1070
     4
1000
CONTINUOUS
1002
{
1002
}
1002
}
1000
PSEC
1070
     9
1000
4A
1002
{
1000
Class
1070
     4
1000

1002
{
1002
}
1000
Color
1070
     1
1070
   256
1002
{
1002
}
1000
LType
1070
     4
1000
BYLAYER
1002
{
1002
}
1002
}
1000
RCGN
1070
     9
1000
7A
1002
{
1000
Class
1070
     4
1000
CEN
1002
{
1002
}
1000
Color
1070
     1
1070
   256
1002
{
1002
}
1000
LType
1070
     4
1000
BYLAYER
1002
{
1002
}
1002
}
1000
RCGW
1070
     9
1000
7
1002
{
1000
Class
1070
     4
1000
CEN
1002
{
1002
}
1000
Color
1070
     1
1070
   256
1002
{
1002
}
1000
LType
1070
     4
1000
BYLAYER
1002
{
1002
}
1002
}
1000
RFDI
1070
     9
1000
4
1002
{
1000
Class
1070
     4
1000
BGD
1002
{
1002
}
1000
Color
1070
     1
1070
   256
1002
{
1002
}
1000
LType
1070
     4
1000
BYLAYER
1002
{
1002
}
1002
}
1000
RQTR
1070
     9
1000
4
1002
{
1000
Class
1070
     4
1000

1002
{
1002
}
1000
Color
1070
     1
1070
     7
1002
{
1002
}
1000
LType
1070
     4
1000
GEN7A
1002
{
1002
}
1002
}
1000
RSBO
1070
     9
1000
4
1002
{
1000
Class
1070
     4
1000
BGD
1002
{
1002
}
1000
Color
1070
     1
1070
   256
1002
{
1002
}
1000
LType
1070
     4
1000
BYLAYER
1002
{
1002
}
1002
}
1000
SBRK
1070
     9
1000
4
1002
{
1000
Class
1070
     4
1000
BGD
1002
{
1002
}
1000
Color
1070
     1
1070
   256
1002
{
1002
}
1000
LType
1070
     4
1000
BYLAYER
1002
{
1002
}
1002
}
1000
SCEN
1070
     9
1000
7
1002
{
1000
Class
1070
     4
1000

1002
{
1002
}
1000
Color
1070
     1
1070
   256
1002
{
1002
}
1000
LType
1070
     4
1000
CONTINUOUS
1002
{
1002
}
1002
}
1000
SECT
1070
     9
1000
4
1002
{
1000
Class
1070
     4
1000
BGD
1002
{
1002
}
1000
Color
1070
     1
1070
   256
1002
{
1002
}
1000
LType
1070
     4
1000
BYLAYER
1002
{
1002
}
1002
}
1000
SELN
1070
     9
1000
7A
1002
{
1000
Class
1070
     4
1000

1002
{
1002
}
1000
Color
1070
     1
1070
   256
1002
{
1002
}
1000
LType
1070
     4
1000
BYLAYER
1002
{
1002
}
1002
}
1000
SELW
1070
     9
1000
7
1002
{
1000
Class
1070
     4
1000

1002
{
1002
}
1000
Color
1070
     1
1070
   256
1002
{
1002
}
1000
LType
1070
     4
1000
BYLAYER
1002
{
1002
}
1002
}
1000
SSYS
1070
     9
1000
0
1002
{
1000
Class
1070
     4
1000

1002
{
1002
}
1000
Color
1070
     1
1070
   256
1002
{
1002
}
1000
LType
1070
     4
1000
BYLAYER
1002
{
1002
}
1002
}
1000
STLI
1070
     9
1000
4
1002
{
1000
Class
1070
     4
1000

1002
{
1002
}
1000
Color
1070
     1
1070
     7
1002
{
1002
}
1000
LType
1070
     4
1000
GEN3A
1002
{
1002
}
1002
}
1000
SYB1
1070
     9
1000
5
1002
{
1000
Class
1070
     4
1000
SYM
1002
{
1002
}
1000
Color
1070
     1
1070
   256
1002
{
1002
}
1000
LType
1070
     4
1000
BYLAYER
1002
{
1002
}
1002
}
1000
SYB2
1070
     9
1000
5
1002
{
1000
Class
1070
     4
1000
SYM
1002
{
1002
}
1000
Color
1070
     1
1070
   256
1002
{
1002
}
1000
LType
1070
     4
1000
BYLAYER
1002
{
1002
}
1002
}
1000
SYB3
1070
     9
1000
6
1002
{
1000
Class
1070
     4
1000
SYM
1002
{
1002
}
1000
Color
1070
     1
1070
   256
1002
{
1002
}
1000
LType
1070
     4
1000
CONTINUOUS
1002
{
1002
}
1002
}
1000
SYB5
1070
     9
1000
5
1002
{
1000
Class
1070
     4
1000
SYM
1002
{
1002
}
1000
Color
1070
     1
1070
     7
1002
{
1002
}
1000
LType
1070
     4
1000
BYLAYER
1002
{
1002
}
1002
}
1000
SYMN
1070
     9
1000
7A
1002
{
1000
Class
1070
     4
1000
CEN
1002
{
1002
}
1000
Color
1070
     1
1070
   256
1002
{
1002
}
1000
LType
1070
     4
1000
BYLAYER
1002
{
1002
}
1002
}
1000
SYMW
1070
     9
1000
7
1002
{
1000
Class
1070
     4
1000
CEN
1002
{
1002
}
1000
Color
1070
     1
1070
   256
1002
{
1002
}
1000
LType
1070
     4
1000
BYLAYER
1002
{
1002
}
1002
}
1000
TCON
1070
     9
1000
0
1002
{
1000
Class
1070
     4
1000
CON,BGD
1002
{
1002
}
1000
Color
1070
     1
1070
   256
1002
{
1002
}
1000
LType
1070
     4
1000
BYLAYER
1002
{
1002
}
1002
}
1000
THLI
1070
     9
1000
4
1002
{
1000
Class
1070
     4
1000
BGD
1002
{
1002
}
1000
Color
1070
     1
1070
   256
1002
{
1002
}
1000
LType
1070
     4
1000
BYLAYER
1002
{
1002
}
1002
}
1000
TIT2
1070
     9
1000
RAHM2
1002
{
1000
Class
1070
     4
1000
SPZ,SYM
1002
{
1002
}
1000
Color
1070
     1
1070
   256
1002
{
1002
}
1000
LType
1070
     4
1000
BYLAYER
1002
{
1002
}
1002
}
1000
TIT3
1070
     9
1000
RAHM3
1002
{
1000
Class
1070
     4
1000
SPZ,SYM
1002
{
1002
}
1000
Color
1070
     1
1070
   256
1002
{
1002
}
1000
LType
1070
     4
1000
BYLAYER
1002
{
1002
}
1002
}
1000
TIT5
1070
     9
1000
RAHM5
1002
{
1000
Class
1070
     4
1000
SPZ,SYM
1002
{
1002
}
1000
Color
1070
     1
1070
   256
1002
{
1002
}
1000
LType
1070
     4
1000
BYLAYER
1002
{
1002
}
1002
}
1000
TIT7
1070
     9
1000
RAHM5
1002
{
1000
Class
1070
     4
1000
SPZ,SYM
1002
{
1002
}
1000
Color
1070
     1
1070
     7
1002
{
1002
}
1000
LType
1070
     4
1000
CONTINUOUS
1002
{
1002
}
1002
}
1000
TLEN
1070
     9
1000
0
1002
{
1000
Class
1070
     4
1000
CON,BGD
1002
{
1002
}
1000
Color
1070
     1
1070
   256
1002
{
1002
}
1000
LType
1070
     4
1000
BYLAYER
1002
{
1002
}
1002
}
1000
TRKN
1070
     9
1000
7A
1002
{
1000
Class
1070
     4
1000

1002
{
1002
}
1000
Color
1070
     1
1070
   256
1002
{
1002
}
1000
LType
1070
     4
1000
BYLAYER
1002
{
1002
}
1002
}
1000
TRKW
1070
     9
1000
7
1002
{
1000
Class
1070
     4
1000

1002
{
1002
}
1000
Color
1070
     1
1070
   256
1002
{
1002
}
1000
LType
1070
     4
1000
BYLAYER
1002
{
1002
}
1002
}
1000
TRLI
1070
     9
1000
4
1002
{
1000
Class
1070
     4
1000
BGD
1002
{
1002
}
1000
Color
1070
     1
1070
   256
1002
{
1002
}
1000
LType
1070
     4
1000
BYLAYER
1002
{
1002
}
1002
}
1000
TXT1
1070
     9
1000
6
1002
{
1000
Class
1070
     4
1000
SYM
1002
{
1002
}
1000
Color
1070
     1
1070
     2
1002
{
1002
}
1000
LType
1070
     4
1000
BYLAYER
1002
{
1002
}
1002
}
1000
TXT2
1070
     9
1000
6
1002
{
1000
Class
1070
     4
1000
SYM
1002
{
1002
}
1000
Color
1070
     1
1070
     2
1002
{
1002
}
1000
LType
1070
     4
1000
BYLAYER
1002
{
1002
}
1002
}
1000
TXT3
1070
     9
1000
6
1002
{
1000
Class
1070
     4
1000
SYM
1002
{
1002
}
1000
Color
1070
     1
1070
   256
1002
{
1002
}
1000
LType
1070
     4
1000
BYLAYER
1002
{
1002
}
1002
}
1000
TXT5
1070
     9
1000
6
1002
{
1000
Class
1070
     4
1000
SYM
1002
{
1002
}
1000
Color
1070
     1
1070
     7
1002
{
1002
}
1000
LType
1070
     4
1000
BYLAYER
1002
{
1002
}
1002
}
1000
TXT7
1070
     9
1000
6
1002
{
1000
Class
1070
     4
1000
SYM
1002
{
1002
}
1000
Color
1070
     1
1070
     7
1002
{
1002
}
1000
LType
1070
     4
1000
BYLAYER
1002
{
1002
}
1002
}
1000
VIEW
1070
     9
1000
VIEW
1002
{
1000
Class
1070
     4
1000
SPZ
1002
{
1002
}
1000
Color
1070
     1
1070
   256
1002
{
1002
}
1000
LType
1070
     4
1000
BYLAYER
1002
{
1002
}
1002
}
1000
VPLI
1070
     9
1000
2A
1002
{
1000
Class
1070
     4
1000

1002
{
1002
}
1000
Color
1070
     1
1070
   256
1002
{
1002
}
1000
LType
1070
     4
1000
BYLAYER
1002
{
1002
}
1002
}
1000
ZIZA
1070
     9
1000
4
1002
{
1000
Class
1070
     4
1000
BGD
1002
{
1002
}
1000
Color
1070
     1
1070
   256
1002
{
1002
}
1000
LType
1070
     4
1000
GENZIGZAG
1002
{
1002
}
1002
}
  0
APPID
  5
164F
330
9
100
AcDbSymbolTableRecord
100
AcDbRegAppTableRecord
  2
GENIUS_GENCFG4_13
 70
     0
1001
GENIUS_GENCFG_13
1071
938725495
1000
164F
1000
GEN
1070
     9
1000
GenCfgObject
1000
GenCfgShort
1000
GenCfgReal
1000
GenCfgBool
1000
GenCfgString
1000
GenCfgDim
1000
GenCfgLaySection
1000
GenCfgLType
1000
GenCfgFilter
1000
Balloon
1070
     0
1002
{
1000
GenIF
1070
     1
1070
     0
1002
{
1002
}
1000
GenPosInc
1070
     1
1070
     1
1002
{
1002
}
1000
GenPosBlk
1070
     1
1070
     3
1002
{
1002
}
1000
GenPosVar
1070
     1
1070
     3
1002
{
1002
}
1000
GenZiCir
1070
     2
1040
1.5
1002
{
1002
}
1000
MaxCharForCenteredText
1070
     1
1070
    30
1002
{
1002
}
1000
Snap
1070
     0
1002
{
1000
ActivationRadius
1070
     2
1040
1.0
1002
{
1002
}
1000
M
1070
     0
1002
{
1000
SnapStepX
1070
     2
1040
15.0
1002
{
1002
}
1000
SnapStepY
1070
     2
1040
15.0
1002
{
1002
}
1002
}
1000
I
1070
     0
1002
{
1000
SnapStepX
1070
     2
1040
1.0
1002
{
1002
}
1000
SnapStepY
1070
     2
1040
0.5
1002
{
1002
}
1002
}
1002
}
1002
}
1000
Centerline
1070
     0
1002
{
1000
ScaleNot
1070
     3
1070
     0
1002
{
1002
}
1000
M
1070
     0
1002
{
1000
GenCenAng
1070
     4
1000
45|90|135
1002
{
1002
}
1000
GenCenDia
1070
     2
1040
10.0
1002
{
1002
}
1000
GenCenDias
1070
     4
1000
10|20|30
1002
{
1002
}
1000
GenCenDist
1070
     2
1040
3.0
1002
{
1002
}
1000
GenCenLen
1070
     2
1040
10.0
1002
{
1002
}
1000
GenCenOff
1070
     2
1040
10.0
1002
{
1002
}
1000
GENCENOFF1
1070
     2
1040
10.0
1002
{
1002
}
1000
GENCENOFF2
1070
     2
1040
10.0
1002
{
1002
}
1002
}
1000
I
1070
     0
1002
{
1000
GenCenAng
1070
     4
1000
45|90|135
1002
{
1002
}
1000
GenCenDia
1070
     2
1040
0.5
1002
{
1002
}
1000
GenCenDias
1070
     4
1000
0.5|1.0|1.5
1002
{
1002
}
1000
GenCenDist
1070
     2
1040
0.125
1002
{
1002
}
1000
GenCenLen
1070
     2
1040
0.5
1002
{
1002
}
1000
GenCenOff
1070
     2
1040
0.5
1002
{
1002
}
1002
}
1002
}
1000
CLine
1070
     0
1002
{
1000
CAngArray
1070
     4
1000
30|45|60
1002
{
1002
}
1000
Typ
1070
     4
1000
XLINE
1002
{
1002
}
1000
M
1070
     0
1002
{
1000
CLinArray
1070
     4
1000
50
1002
{
1002
}
1002
}
1000
I
1070
     0
1002
{
1000
CLinArray
1070
     4
1000
0.125|0.25|0.5
1002
{
1002
}
1002
}
1002
}
1000
Detail
1070
     0
1002
{
1002
}
1000
Dimension
1070
     5
1002
{
1000
DIMALT
1070
     1
1070
     0
1002
{
1002
}
1000
DIMALTD
1070
     1
1070
     2
1002
{
1002
}
1000
DIMALTTD
1070
     1
1070
     4
1002
{
1002
}
1000
DIMALTTZ
1070
     1
1070
     0
1002
{
1002
}
1000
DIMALTU
1070
     1
1070
     2
1002
{
1002
}
1000
DIMALTZ
1070
     1
1070
     0
1002
{
1002
}
1000
DIMAUNIT
1070
     1
1070
     0
1002
{
1002
}
1000
DIMBLK
1070
     4
1000

1002
{
1002
}
1000
DIMBLK1
1070
     4
1000
_OPEN
1002
{
1002
}
1000
DIMBLK2
1070
     4
1000
_OPEN
1002
{
1002
}
1000
DIMCLRD
1070
     1
1070
   256
1002
{
1002
}
1000
DIMCLRE
1070
     1
1070
   256
1002
{
1002
}
1000
DIMCLRT
1070
     1
1070
   256
1002
{
1002
}
1000
DIMDLE
1070
     2
1040
0.0
1002
{
1002
}
1000
DIMFIT
1070
     1
1070
     3
1002
{
1002
}
1000
DIMJUST
1070
     1
1070
     0
1002
{
1002
}
1000
DIMLFAC
1070
     2
1040
1.0
1002
{
1002
}
1000
DIMLIM
1070
     1
1070
     0
1002
{
1002
}
1000
DIMPOST
1070
     4
1000
<>
1002
{
1002
}
1000
DIMRND
1070
     2
1040
0.0
1002
{
1002
}
1000
DIMSAH
1070
     1
1070
     1
1002
{
1002
}
1000
DIMSCALE
1070
     2
1040
10.0
1002
{
1002
}
1000
DIMSD1
1070
     1
1070
     0
1002
{
1002
}
1000
DIMSD2
1070
     1
1070
     0
1002
{
1002
}
1000
DIMSE1
1070
     1
1070
     0
1002
{
1002
}
1000
DIMSE2
1070
     1
1070
     0
1002
{
1002
}
1000
DIMSOXD
1070
     1
1070
     0
1002
{
1002
}
1000
DIMTAD
1070
     1
1070
     0
1002
{
1002
}
1000
DIMTFAC
1070
     2
1040
0.71
1002
{
1002
}
1000
DIMTIH
1070
     1
1070
     0
1002
{
1002
}
1000
DIMTIX
1070
     1
1070
     0
1002
{
1002
}
1000
DIMTM
1070
     2
1040
0.1
1002
{
1002
}
1000
DIMTOFL
1070
     1
1070
     0
1002
{
1002
}
1000
DIMTOH
1070
     1
1070
     0
1002
{
1002
}
1000
DIMTOL
1070
     1
1070
     0
1002
{
1002
}
1000
DIMTOLJ
1070
     1
1070
     1
1002
{
1002
}
1000
DIMTP
1070
     2
1040
0.1
1002
{
1002
}
1000
DIMTSZ
1070
     2
1040
0.0
1002
{
1002
}
1000
DIMTVP
1070
     2
1040
0.0
1002
{
1002
}
1000
DIMTXSTY
1070
     4
1000
STANDARD
1002
{
1002
}
1000
DIMTZIN
1070
     1
1070
     8
1002
{
1002
}
1000
DIMUNIT
1070
     1
1070
     2
1002
{
1002
}
1000
DIMUPT
1070
     1
1070
     0
1002
{
1002
}
1000
M
1070
     0
1002
{
1000
DIMALTF
1070
     2
1040
0.0393701
1002
{
1002
}
1000
DIMAPOST
1070
     4
1000
"
1002
{
1002
}
1000
DIMASZ
1070
     2
1040
3.0
1002
{
1002
}
1000
DIMCEN
1070
     2
1040
0.0
1002
{
1002
}
1000
DIMDEC
1070
     1
1070
     2
1002
{
1002
}
1000
DIMDLI
1070
     2
1040
10.0
1002
{
1002
}
1000
DIMEXE
1070
     2
1040
1.0
1002
{
1002
}
1000
DIMEXO
1070
     2
1040
1.0
1002
{
1002
}
1000
DIMGAP
1070
     2
1040
1.5
1002
{
1002
}
1000
DIMTDEC
1070
     1
1070
     3
1002
{
1002
}
1000
DIMTXT
1070
     2
1040
3.5
1002
{
1002
}
1000
DIMZIN
1070
     1
1070
     8
1002
{
1002
}
1002
}
1000
I
1070
     0
1002
{
1000
DIMALTF
1070
     2
1040
25.4
1002
{
1002
}
1000
DIMAPOST
1070
     4
1000
mm
1002
{
1002
}
1000
DIMASZ
1070
     2
1040
0.1
1002
{
1002
}
1000
DIMCEN
1070
     2
1040
0.0
1002
{
1002
}
1000
DIMDEC
1070
     1
1070
     4
1002
{
1002
}
1000
DIMDLI
1070
     2
1040
0.5
1002
{
1002
}
1000
DIMEXE
1070
     2
1040
0.1
1002
{
1002
}
1000
DIMEXO
1070
     2
1040
0.05
1002
{
1002
}
1000
DIMGAP
1070
     2
1040
0.06
1002
{
1002
}
1000
DIMTDEC
1070
     1
1070
     4
1002
{
1002
}
1000
DIMTXT
1070
     2
1040
0.12
1002
{
1002
}
1000
DIMZIN
1070
     1
1070
     7
1002
{
1002
}
1002
}
1000
GEN-ISO
1070
     5
1002
{
1000
NAME
1070
     4
1000
GEN-ISO
1002
{
1002
}
1000
DIMTAD
1070
     1
1070
     1
1002
{
1002
}
1000
DIMTOLJ
1070
     1
1070
     0
1002
{
1002
}
1000
DIMTOFL
1070
     1
1070
     1
1002
{
1002
}
1000
M
1070
     0
1002
{
1002
}
1000
I
1070
     0
1002
{
1002
}
1002
}
1000
GEN-ISO-POS
1070
     5
1002
{
1000
NAME
1070
     4
1000
GEN-ISO-POS
1002
{
1002
}
1000
DIMTOLJ
1070
     1
1070
     0
1002
{
1002
}
1000
DIMTXSTY
1070
     4
1000
STANDARD
1002
{
1002
}
1000
M
1070
     0
1002
{
1000
DIMASZ
1070
     2
1040
2.5
1002
{
1002
}
1000
DIMTXT
1070
     2
1040
5.0
1002
{
1002
}
1000
DIMGAP
1070
     2
1040
1.5
1002
{
1002
}
1002
}
1000
I
1070
     0
1002
{
1000
DIMASZ
1070
     2
1040
0.1
1002
{
1002
}
1000
DIMGAP
1070
     2
1040
0.06
1002
{
1002
}
1000
DIMTXT
1070
     2
1040
0.2
1002
{
1002
}
1002
}
1002
}
1000
GEN-ISO-CIR
1070
     5
1002
{
1000
NAME
1070
     4
1000
GEN-ISO$3
1002
{
1002
}
1000
DIMFIT
1070
     1
1070
     0
1002
{
1002
}
1000
DIMTAD
1070
     1
1070
     1
1002
{
1002
}
1000
DIMTIH
1070
     1
1070
     0
1002
{
1002
}
1000
DIMTIX
1070
     1
1070
     0
1002
{
1002
}
1000
DIMTOH
1070
     1
1070
     1
1002
{
1002
}
1000
DIMTOLJ
1070
     1
1070
     0
1002
{
1002
}
1000
DIMTOFL
1070
     1
1070
     0
1002
{
1002
}
1000
DIMUPT
1070
     1
1070
     1
1002
{
1002
}
1000
M
1070
     0
1002
{
1002
}
1000
I
1070
     0
1002
{
1002
}
1002
}
1000
GEN-ISO-RAD
1070
     5
1002
{
1000
NAME
1070
     4
1000
GEN-ISO$4
1002
{
1002
}
1000
DIMFIT
1070
     1
1070
     0
1002
{
1002
}
1000
DIMTAD
1070
     1
1070
     1
1002
{
1002
}
1000
DIMTIH
1070
     1
1070
     0
1002
{
1002
}
1000
DIMTIX
1070
     1
1070
     0
1002
{
1002
}
1000
DIMTOH
1070
     1
1070
     1
1002
{
1002
}
1000
DIMTOLJ
1070
     1
1070
     0
1002
{
1002
}
1000
DIMTOFL
1070
     1
1070
     0
1002
{
1002
}
1000
DIMUPT
1070
     1
1070
     1
1002
{
1002
}
1000
M
1070
     0
1002
{
1002
}
1000
I
1070
     0
1002
{
1002
}
1002
}
1000
GEN-ISO-ORD
1070
     5
1002
{
1000
NAME
1070
     4
1000
GEN-ISO$6
1002
{
1002
}
1000
DIMTOLJ
1070
     1
1070
     0
1002
{
1002
}
1000
M
1070
     0
1002
{
1000
DIMASZ
1070
     2
1040
3.0
1002
{
1002
}
1000
DIMGAP
1070
     2
1040
1.0
1002
{
1002
}
1000
DIMTXT
1070
     2
1040
3.0
1002
{
1002
}
1002
}
1000
I
1070
     0
1002
{
1002
}
1002
}
1000
GEN-ISO-AXE-F
1070
     5
1002
{
1000
NAME
1070
     4
1000
GEN-ISO-AXE-F
1002
{
1002
}
1000
DIMSE1
1070
     1
1070
     1
1002
{
1002
}
1000
DIMSE2
1070
     1
1070
     1
1002
{
1002
}
1000
DIMTAD
1070
     1
1070
     1
1002
{
1002
}
1000
DIMTOLJ
1070
     1
1070
     0
1002
{
1002
}
1000
DIMTOFL
1070
     1
1070
     1
1002
{
1002
}
1000
M
1070
     0
1002
{
1002
}
1000
I
1070
     0
1002
{
1002
}
1002
}
1000
GEN-ISO-AXE-H
1070
     5
1002
{
1000
NAME
1070
     4
1000
GEN-ISO-AXE-H
1002
{
1002
}
1000
DIMBLK1
1070
     4
1000
GENAXEH
1002
{
1002
}
1000
DIMLFAC
1070
     2
1040
2.0
1002
{
1002
}
1000
DIMSAH
1070
     1
1070
     1
1002
{
1002
}
1000
DIMSE1
1070
     1
1070
     1
1002
{
1002
}
1000
DIMSE2
1070
     1
1070
     1
1002
{
1002
}
1000
DIMTAD
1070
     1
1070
     1
1002
{
1002
}
1000
DIMTOLJ
1070
     1
1070
     0
1002
{
1002
}
1000
DIMTOFL
1070
     1
1070
     1
1002
{
1002
}
1000
M
1070
     0
1002
{
1002
}
1000
I
1070
     0
1002
{
1002
}
1002
}
1000
GEN-ANSI
1070
     5
1002
{
1000
NAME
1070
     4
1000
GEN-ANSI
1002
{
1002
}
1000
DIMTIH
1070
     1
1070
     1
1002
{
1002
}
1000
DIMTOH
1070
     1
1070
     1
1002
{
1002
}
1000
DIMTAD
1070
     1
1070
     0
1002
{
1002
}
1000
DIMTOLJ
1070
     1
1070
     1
1002
{
1002
}
1000
M
1070
     0
1002
{
1002
}
1000
I
1070
     0
1002
{
1002
}
1002
}
1000
GEN-ANSI-POS
1070
     5
1002
{
1000
NAME
1070
     4
1000
GEN-ANSI-POS
1002
{
1002
}
1000
DIMTOLJ
1070
     1
1070
     1
1002
{
1002
}
1000
DIMTXSTY
1070
     4
1000
STANDARD
1002
{
1002
}
1000
M
1070
     0
1002
{
1000
DIMASZ
1070
     2
1040
2.5
1002
{
1002
}
1000
DIMGAP
1070
     2
1040
1.5
1002
{
1002
}
1000
DIMTXT
1070
     2
1040
5.0
1002
{
1002
}
1002
}
1000
I
1070
     0
1002
{
1000
DIMASZ
1070
     2
1040
0.1
1002
{
1002
}
1000
DIMGAP
1070
     2
1040
0.06
1002
{
1002
}
1000
DIMTXT
1070
     2
1040
0.2
1002
{
1002
}
1002
}
1002
}
1000
GEN-ANSI-CIR
1070
     5
1002
{
1000
NAME
1070
     4
1000
GEN-ANSI$3
1002
{
1002
}
1000
DIMFIT
1070
     1
1070
     0
1002
{
1002
}
1000
DIMTAD
1070
     1
1070
     0
1002
{
1002
}
1000
DIMTIH
1070
     1
1070
     1
1002
{
1002
}
1000
DIMTIX
1070
     1
1070
     0
1002
{
1002
}
1000
DIMTOFL
1070
     1
1070
     0
1002
{
1002
}
1000
DIMTOH
1070
     1
1070
     1
1002
{
1002
}
1000
DIMTOLJ
1070
     1
1070
     1
1002
{
1002
}
1000
DIMUPT
1070
     1
1070
     1
1002
{
1002
}
1000
M
1070
     0
1002
{
1002
}
1000
I
1070
     0
1002
{
1002
}
1002
}
1000
GEN-ANSI-RAD
1070
     5
1002
{
1000
NAME
1070
     4
1000
GEN-ANSI$4
1002
{
1002
}
1000
DIMFIT
1070
     1
1070
     0
1002
{
1002
}
1000
DIMTAD
1070
     1
1070
     0
1002
{
1002
}
1000
DIMTIH
1070
     1
1070
     1
1002
{
1002
}
1000
DIMTIX
1070
     1
1070
     0
1002
{
1002
}
1000
DIMTOFL
1070
     1
1070
     0
1002
{
1002
}
1000
DIMTOH
1070
     1
1070
     1
1002
{
1002
}
1000
DIMTOLJ
1070
     1
1070
     1
1002
{
1002
}
1000
DIMUPT
1070
     1
1070
     1
1002
{
1002
}
1000
M
1070
     0
1002
{
1002
}
1000
I
1070
     0
1002
{
1002
}
1002
}
1000
GEN-ANSI-ORD
1070
     5
1002
{
1000
NAME
1070
     4
1000
GEN-ANSI$6
1002
{
1002
}
1000
DIMTAD
1070
     1
1070
     0
1002
{
1002
}
1000
DIMTIH
1070
     1
1070
     1
1002
{
1002
}
1000
DIMTOH
1070
     1
1070
     1
1002
{
1002
}
1000
DIMTOLJ
1070
     1
1070
     1
1002
{
1002
}
1000
M
1070
     0
1002
{
1002
}
1000
I
1070
     0
1002
{
1002
}
1002
}
1000
GEN-ANSI-AXE-F
1070
     5
1002
{
1000
NAME
1070
     4
1000
GEN-ANSI-AXE-F
1002
{
1002
}
1000
DIMBLK1
1070
     4
1000
GENAXEH
1002
{
1002
}
1000
DIMSAH
1070
     1
1070
     1
1002
{
1002
}
1000
DIMSE1
1070
     1
1070
     1
1002
{
1002
}
1000
DIMSE2
1070
     1
1070
     1
1002
{
1002
}
1000
DIMTAD
1070
     1
1070
     0
1002
{
1002
}
1000
DIMTIH
1070
     1
1070
     1
1002
{
1002
}
1000
DIMTOH
1070
     1
1070
     1
1002
{
1002
}
1000
DIMTOLJ
1070
     1
1070
     1
1002
{
1002
}
1000
M
1070
     0
1002
{
1002
}
1000
I
1070
     0
1002
{
1002
}
1002
}
1000
GEN-ANSI-AXE-H
1070
     5
1002
{
1000
NAME
1070
     4
1000
GEN-ANSI-AXE-H
1002
{
1002
}
1000
DIMBLK1
1070
     4
1000
GENAXEH
1002
{
1002
}
1000
DIMLFAC
1070
     2
1040
2.0
1002
{
1002
}
1000
DIMSAH
1070
     1
1070
     1
1002
{
1002
}
1000
DIMSE1
1070
     1
1070
     1
1002
{
1002
}
1000
DIMSE2
1070
     1
1070
     1
1002
{
1002
}
1000
DIMTAD
1070
     1
1070
     0
1002
{
1002
}
1000
DIMTOFL
1070
     1
1070
     1
1002
{
1002
}
1000
DIMTOLJ
1070
     1
1070
     1
1002
{
1002
}
1000
M
1070
     0
1002
{
1002
}
1000
I
1070
     0
1002
{
1002
}
1002
}
1002
}
1000
DimSet
1070
     0
1002
{
1000
ChainSum
1070
     3
1070
     0
1002
{
1002
}
1000
DimDclTyp0
1070
     4
1000
dim23
1002
{
1002
}
1000
HorBra
1070
     3
1070
     0
1002
{
1002
}
1000
StrDia
1070
     4
1000
%%c<>
1002
{
1002
}
1000
StrRad
1070
     4
1000
R<>
1002
{
1002
}
1000
TextMinus
1070
     4
1000
<>
1002
{
1002
}
1000
TextPlus
1070
     4
1000
<>
1002
{
1002
}
1000
M
1070
     0
1002
{
1000
DimdliFirst
1070
     2
1040
12.0
1002
{
1002
}
1000
PointMakeDist
1070
     2
1040
10.0
1002
{
1002
}
1002
}
1000
I
1070
     0
1002
{
1000
DimdliFirst
1070
     2
1040
0.5
1002
{
1002
}
1000
PointMakeDist
1070
     2
1040
0.5
1002
{
1002
}
1002
}
1000
ordinate
1070
     4
1000
JIS
1002
{
1002
}
1002
}
1000
Drawing
1070
     0
1002
{
1000
ChamferDimMode
1070
     1
1070
     2
1002
{
1002
}
1000
Gen_Fiso
1070
    -3
1040
1.0
1002
{
1002
}
1000
GenDimStil
1070
     4
1000
ISO
1002
{
1002
}
1000
GenDwgUScale
1070
     2
1040
1.0
1002
{
1002
}
1000
GenInch
1070
     4
1000
M
1002
{
1002
}
1000
GenPlotScale
1070
     4
1000
1:1
1002
{
1002
}
1000
Revisi
1070
     4
1000
0
1002
{
1002
}
1000
Version
1070
    -5
1000
14.01a/Sep 23 1998
1002
{
1002
}
1000
Platform
1070
    -5
1000
WINNT
1002
{
1002
}
1002
}
1000
DwgVar
1070
     0
1002
{
1000
M
1070
     0
1002
{
1002
}
1000
I
1070
     0
1002
{
1002
}
1002
}
1000
Hatch
1070
     0
1002
{
1000
GenHtcFlag
1070
     3
1070
     0
1002
{
1002
}
1002
}
1000
Info_Pos
1070
     0
1002
{
1000
>
1002
}
1000
Layer
1070
     6
1002
{
1000
Defs
1070
     0
1002
{
1000
>
1002
}
1000
EntSort
1070
     0
1002
{
1000
>
1002
}
1000
Match
1070
     0
1002
{
1002
}
1000
Settings
1070
     0
1002
{
1000
FocGrNC
1070
     3
1070
     0
1002
{
1002
}
1000
FocGrLo
1070
     3
1070
     0
1002
{
1002
}
1000
FocLoNC
1070
     3
1070
     0
1002
{
1002
}
1000
FocusCol
1070
     1
1070
   253
1002
{
1002
}
1000
GenStdLG
1070
     4
1000

1002
{
1002
}
1000
LayMatch
1070
     3
1070
     0
1002
{
1002
}
1000
LgOff
1070
     3
1070
     0
1002
{
1002
}
1000
CurLG
1070
    -5
1000

1002
{
1002
}
1002
}
1002
}
1000
LType
1070
     0
1002
{
1000
GEN3
1070
     7
1000
genius.lin
1002
{
1002
}
1000
GEN7
1070
     7
1000
genius.lin
1002
{
1002
}
1000
GEN4A
1070
     7
1000
genius.lin
1002
{
1002
}
1000
GEN3A
1070
     7
1000
genius.lin
1002
{
1002
}
1000
GEN7A
1070
     7
1000
genius.lin
1002
{
1002
}
1000
GENZIGZAG
1070
     7
1000
genius.lin
1002
{
1002
}
1002
}
1000
Objecter
1070
     0
1002
{
1000
CreateGroups
1070
     3
1070
     0
1002
{
1002
}
1000
LaySwitch
1070
     3
1070
     1
1002
{
1002
}
1000
LastObj
1070
    -5
1000
269B
1002
{
1002
}
1000
TimeStamp
1070
    -5
1000
19990930.14031158
1002
{
1002
}
1002
}
1000
OSWiz
1070
     0
1002
{
1000
Filter
1070
     0
1002
{
1000
HATCH
1070
     8
1002
{
1000
EntityType
1070
     4
1000
LINE
1002
{
1002
}
1000
Layer
1070
     4
1000
8,8N,*-8,*-8N
1002
{
1002
}
1000
Linetype
1070
     4
1000
*
1002
{
1002
}
1000
Color
1070
     4
1000
*
1002
{
1002
}
1000
ApplyInDims
1070
     3
1070
     1
1002
{
1002
}
1002
}
1000
SYMBOLS
1070
     8
1002
{
1000
EntityType
1070
     4
1000
*
1002
{
1002
}
1000
Layer
1070
     4
1000
[5-6],[5-6]N,*-[5-6],*-[5-6]N,AM_PARDIM,AM_REFDIM
1002
{
1002
}
1000
Linetype
1070
     4
1000
*
1002
{
1002
}
1000
Color
1070
     4
1000
*
1002
{
1002
}
1000
ApplyInDims
1070
     3
1070
     1
1002
{
1002
}
1002
}
1000
FEM
1070
     8
1002
{
1000
EntityType
1070
     4
1000
*
1002
{
1002
}
1000
Layer
1070
     4
1000
4A,4AN,*-4A,*-4AN
1002
{
1002
}
1000
Linetype
1070
     4
1000
*
1002
{
1002
}
1000
Color
1070
     4
1000
*
1002
{
1002
}
1000
ApplyInDims
1070
     3
1070
     1
1002
{
1002
}
1002
}
1002
}
1002
}
1000
PaList
1070
     0
1002
{
1000
AcadMBomWarning
1070
     3
1070
     1
1002
{
1002
}
1000
AutoUpdatePartList
1070
     1
1070
     0
1002
{
1002
}
1000
ReadInfoPoint
1070
     3
1070
     0
1002
{
1002
}
1000
ReadPosNr
1070
     3
1070
     1
1002
{
1002
}
1000
RevStr
1070
     4
1000
0
1002
{
1002
}
1000
rebuildpending
1070
    -4
1070
     1
1002
{
1002
}
1000
rebuildpendingtime
1070
    -5
1000
929490300
1002
{
1002
}
1002
}
1000
Paper
1070
     0
1002
{
1000
Layer
1070
    -5
1000
7A
1002
{
1002
}
1002
}
1000
PartDB
1070
     0
1002
{
1000
GenDbOwner
1070
     4
1000

1002
{
1002
}
1000
stang
1070
     2
1040
0.01
1002
{
1002
}
1002
}
1000
System
1070
     0
1002
{
1002
}
1000
Title
1070
     0
1002
{
1000
MakeView
1070
     1
1070
     2
1002
{
1002
}
1002
}
1000
Tools
1070
     0
1002
{
1000
Trans
1070
     0
1002
{
1000
Drawingtranslation
1070
    -4
1070
     1
1002
{
1002
}
1000
upreserve
1070
     3
1070
     0
1002
{
1002
}
1000
originally_on
1070
    -4
1070
     0
1002
{
1002
}
1000
sourcelang
1070
    -5
1000
J
1002
{
1002
}
1002
}
1002
}
  0
APPID
  5
1650
330
9
100
AcDbSymbolTableRecord
100
AcDbRegAppTableRecord
  2
GENIUS_GEVCFG0_13
 70
     0
1001
GENIUS_GENCFG_13
1071
938725396
1000
1650
1000
GEV
1070
     1
1000
GenCfgObject
1000
VED
1070
     0
1002
{
1002
}
  0
APPID
  5
1675
330
9
100
AcDbSymbolTableRecord
100
AcDbRegAppTableRecord
  2
GENIUS_GENOBJ-N-CEN_13
 70
     0
  0
APPID
  5
2723
330
9
100
AcDbSymbolTableRecord
100
AcDbRegAppTableRecord
  2
GENIUS_GEFCFG0_13
 70
     0
1001
GENIUS_GENCFG_13
1071
938725396
1000
2723
1000
GEF
1070
     5
1000
GenCfgObject
1000
GenCfgString
1000
GenCfgReal
1000
GenCfgShort
1000
GenCfgBool
1000
System
1070
     0
1002
{
1002
}
1000
Prese
1070
     0
1002
{
1000
Funk
1070
     1
1000

1002
{
1002
}
1000
FunkDef
1070
     1
1000

1002
{
1002
}
1000
GefIso
1070
     1
1000
DIN
1002
{
1002
}
1002
}
1000
FEM
1070
     0
1002
{
1000
LayGroup
1070
     1
1000
FEM
1002
{
1002
}
1000
IncrCoef
1070
     2
1040
0.0
1002
{
1002
}
1002
}
1000
Shaft
1070
     0
1002
{
1000
Interrupt
1070
     3
1070
     0
1002
{
1002
}
1002
}
1000
PartDb
1070
     0
1002
{
1000
PartCreate
1070
     0
1002
{
1002
}
1000
SCP
1070
     0
1002
{
1002
}
1000
Symbol
1070
     0
1002
{
1002
}
1002
}
1000
Symbol
1070
     0
1002
{
1000
WeldStyle
1070
     1
1000
JIS
1002
{
1002
}
1000
WeldSize
1070
     2
1040
1.0
1002
{
1002
}
1000
WeldFlag
1070
     4
1070
     1
1002
{
1002
}
1000
WeldOffset
1070
     4
1070
     1
1002
{
1002
}
1000
TolCType
1070
     1
1000
ISO
1002
{
1002
}
1000
TolCSize
1070
     2
1040
1.0
1002
{
1002
}
1000
STextureSize
1070
     2
1040
1.0
1002
{
1002
}
1000
SurfaceType
1070
     1
1000

1002
{
1002
}
1000
M
1070
     0
1002
{
1000
WeldWidth
1070
     2
1040
3.0
1002
{
1002
}
1002
}
1000
I
1070
     0
1002
{
1000
WeldWidth
1070
     2
1040
0.125
1002
{
1002
}
1002
}
1002
}
1000
FEA
1070
     0
1002
{
1000
LayGroup
1070
     1
1000
FEA
1002
{
1002
}
1002
}
  0
APPID
  5
2735
330
9
100
AcDbSymbolTableRecord
100
AcDbRegAppTableRecord
  2
MCAD_NO_VIS
 70
     0
  0
APPID
  5
2736
330
9
100
AcDbSymbolTableRecord
100
AcDbRegAppTableRecord
  2
ACAD_TEMP_GRAPHIC
 70
     0
  0
APPID
  5
2749
330
9
100
AcDbSymbolTableRecord
100
AcDbRegAppTableRecord
  2
ACATTRIBSERVICES
 70
     0
  0
APPID
  5
2823
330
9
100
AcDbSymbolTableRecord
100
AcDbRegAppTableRecord
  2
GENIUS_GENDIMSH_14
 70
     0
  0
APPID
  5
28C0
330
9
100
AcDbSymbolTableRecord
100
AcDbRegAppTableRecord
  2
GENIUS_GENFIL_13
 70
     0
  0
APPID
  5
28C1
330
9
100
AcDbSymbolTableRecord
100
AcDbRegAppTableRecord
  2
GENIUS_GENOBJ-N-CHA_13
 70
     0
  0
APPID
  5
3909
330
9
100
AcDbSymbolTableRecord
100
AcDbRegAppTableRecord
  2
GENIUS_GENREC_14
 70
     0
  0
APPID
  5
390A
330
9
100
AcDbSymbolTableRecord
100
AcDbRegAppTableRecord
  2
GENIUS_GENOBJ-N-REC_13
 70
     0
  0
APPID
  5
3E7F
330
9
100
AcDbSymbolTableRecord
100
AcDbRegAppTableRecord
  2
GENIUS_GENDIM_13
 70
     0
  0
APPID
  5
3E81
330
9
100
AcDbSymbolTableRecord
100
AcDbRegAppTableRecord
  2
GENIUS_GE3DTOL_13
 70
     0
  0
APPID
  5
3EA6
330
9
100
AcDbSymbolTableRecord
100
AcDbRegAppTableRecord
  2
AD_DRAW
 70
     0
  0
APPID
  5
3EF2
330
9
100
AcDbSymbolTableRecord
100
AcDbRegAppTableRecord
  2
ASURF_PCURVE_APPNAME
 70
     0
  0
APPID
  5
3EF7
330
9
100
AcDbSymbolTableRecord
100
AcDbRegAppTableRecord
  2
AMG_3D2D_5_0
 70
     0
  0
APPID
  5
3F25
330
9
100
AcDbSymbolTableRecord
100
AcDbRegAppTableRecord
  2
DESIGNERASSEMBLIES
 70
     0
  0
APPID
  5
3F2A
330
9
100
AcDbSymbolTableRecord
100
AcDbRegAppTableRecord
  2
ACADM_DIM_EDIT
 70
     0
  0
APPID
  5
3F2B
330
9
100
AcDbSymbolTableRecord
100
AcDbRegAppTableRecord
  2
AMDT_DM_ADJ
 70
     0
  0
ENDTAB
  0
TABLE
  2
DIMSTYLE
  5
A
330
0
100
AcDbSymbolTable
 70
     8
  0
DIMSTYLE
105
520
330
A
100
AcDbSymbolTableRecord
100
AcDbDimStyleTableRecord
  2
STANDARD
 70
     0
  3

  4

  5

  6

  7

 40
1.0
 41
0.18
 42
0.0625
 43
0.38
 44
0.18
 45
0.0
 46
0.0
 47
0.0
 48
0.0
140
0.18
141
0.09
142
0.0
143
25.4
144
1.0
145
0.0
146
1.0
147
0.09
 71
     0
 72
     0
 73
     1
 74
     1
 75
     0
 76
     0
 77
     0
 78
     0
170
     0
171
     2
172
     0
173
     0
174
     0
175
     0
176
     0
177
     0
178
     0
270
     2
271
     4
272
     4
273
     2
274
     2
340
F
275
     0
280
     0
281
     0
282
     0
283
     1
284
     0
285
     0
286
     0
287
     3
288
     0
  0
DIMSTYLE
105
1210
330
A
100
AcDbSymbolTableRecord
100
AcDbDimStyleTableRecord
  2
GEN-ISO$4
 70
     0
  3
<>
  4
"
  5
OPEN
  6

  7

 40
5.0
 41
3.0
 42
1.0
 43
10.0
 44
1.0
 45
0.0
 46
0.0
 47
0.1
 48
0.1
140
3.5
141
0.0
142
0.0
143
0.0393701
144
1.0
145
0.0
146
0.71
147
1.5
 71
     0
 72
     0
 73
     0
 74
     1
 75
     0
 76
     0
 77
     1
 78
     8
170
     0
171
     2
172
     0
173
     1
174
     0
175
     0
176
   256
177
   256
178
   256
270
     2
271
     2
272
     3
273
     2
274
     4
340
F
275
     0
280
     0
281
     0
282
     0
283
     0
284
     8
285
     0
286
     0
287
     3
288
     1
  0
DIMSTYLE
105
1211
102
{ACAD_REACTORS
330
4199
102
}
330
A
100
AcDbSymbolTableRecord
100
AcDbDimStyleTableRecord
  2
GEN-ISO$3
 70
     0
  3
<>
  4
"
  5
OPEN
  6

  7

 40
5.0
 41
3.0
 42
1.0
 43
10.0
 44
1.0
 45
0.0
 46
0.0
 47
0.1
 48
0.1
140
3.5
141
0.0
142
0.0
143
0.0393701
144
1.0
145
0.0
146
0.71
147
1.5
 71
     0
 72
     0
 73
     0
 74
     1
 75
     0
 76
     0
 77
     1
 78
     8
170
     0
171
     2
172
     0
173
     1
174
     0
175
     0
176
   256
177
   256
178
   256
270
     2
271
     2
272
     3
273
     2
274
     4
340
F
275
     0
280
     0
281
     0
282
     0
283
     0
284
     8
285
     0
286
     0
287
     3
288
     1
  0
DIMSTYLE
105
1212
102
{ACAD_REACTORS
330
3F86
330
3F90
330
424B
330
3F56
330
442B
330
3FB2
330
4438
330
3F80
330
3F85
330
46D9
102
}
330
A
100
AcDbSymbolTableRecord
100
AcDbDimStyleTableRecord
  2
GEN-ISO
 70
     0
  3
<>
  4
"
  5
OPEN
  6

  7

 40
5.0
 41
3.0
 42
1.0
 43
10.0
 44
1.0
 45
0.0
 46
0.0
 47
0.1
 48
0.1
140
3.5
141
0.0
142
0.0
143
0.0393701
144
1.0
145
0.0
146
0.71
147
1.5
 71
     0
 72
     0
 73
     0
 74
     0
 75
     0
 76
     0
 77
     1
 78
     8
170
     0
171
     2
172
     1
173
     1
174
     0
175
     0
176
   256
177
   256
178
   256
270
     2
271
     2
272
     3
273
     2
274
     4
340
F
275
     0
280
     0
281
     0
282
     0
283
     0
284
     8
285
     0
286
     0
287
     3
288
     0
  0
DIMSTYLE
105
2780
330
A
100
AcDbSymbolTableRecord
100
AcDbDimStyleTableRecord
  2
GEN-ISO$6
 70
     0
  3
<>
  4
"
  5

  6
OPEN
  7
OPEN
 40
5.0
 41
3.0
 42
1.0
 43
10.0
 44
1.0
 45
0.0
 46
0.0
 47
0.1
 48
0.1
140
3.0
141
0.0
142
0.0
143
0.0393701
144
1.0
145
0.0
146
0.71
147
1.0
 71
     0
 72
     0
 73
     0
 74
     0
 75
     0
 76
     0
 77
     0
 78
     8
170
     0
171
     2
172
     0
173
     1
174
     0
175
     0
176
   256
177
   256
178
   256
270
     2
271
     2
272
     3
273
     2
274
     4
340
F
275
     0
280
     0
281
     0
282
     0
283
     0
284
     8
285
     0
286
     0
287
     3
288
     0
  0
DIMSTYLE
105
2781
330
A
100
AcDbSymbolTableRecord
100
AcDbDimStyleTableRecord
  2
GEN-ISO-POS
 70
     0
  3
<>
  4
"
  5

  6
OPEN
  7
OPEN
 40
5.0
 41
2.5
 42
1.0
 43
10.0
 44
1.0
 45
0.0
 46
0.0
 47
0.1
 48
0.1
140
5.0
141
0.0
142
0.0
143
0.0393701
144
1.0
145
0.0
146
0.71
147
1.5
 71
     0
 72
     0
 73
     0
 74
     0
 75
     0
 76
     0
 77
     0
 78
     8
170
     0
171
     2
172
     0
173
     1
174
     0
175
     0
176
   256
177
   256
178
   256
270
     2
271
     2
272
     3
273
     2
274
     4
340
F
275
     0
280
     0
281
     0
282
     0
283
     0
284
     8
285
     0
286
     0
287
     3
288
     0
  0
DIMSTYLE
105
2782
330
A
100
AcDbSymbolTableRecord
100
AcDbDimStyleTableRecord
  2
GEN-ISO-AXE-F
 70
     0
  3
<>
  4
"
  5

  6
OPEN
  7
OPEN
 40
5.0
 41
3.0
 42
1.0
 43
10.0
 44
1.0
 45
0.0
 46
0.0
 47
0.1
 48
0.1
140
3.5
141
0.0
142
0.0
143
0.0393701
144
1.0
145
0.0
146
0.71
147
1.5
 71
     0
 72
     0
 73
     0
 74
     0
 75
     1
 76
     1
 77
     1
 78
     8
170
     0
171
     2
172
     1
173
     1
174
     0
175
     0
176
   256
177
   256
178
   256
270
     2
271
     2
272
     3
273
     2
274
     4
340
F
275
     0
280
     0
281
     0
282
     0
283
     0
284
     8
285
     0
286
     0
287
     3
288
     0
  0
DIMSTYLE
105
2783
330
A
100
AcDbSymbolTableRecord
100
AcDbDimStyleTableRecord
  2
GEN-ISO-AXE-H
 70
     0
  3
<>
  4
"
  5

  6
GENAXEH
  7
OPEN
 40
5.0
 41
3.0
 42
1.0
 43
10.0
 44
1.0
 45
0.0
 46
0.0
 47
0.1
 48
0.1
140
3.5
141
0.0
142
0.0
143
0.0393701
144
2.0
145
0.0
146
0.71
147
1.5
 71
     0
 72
     0
 73
     0
 74
     0
 75
     1
 76
     1
 77
     1
 78
     8
170
     0
171
     2
172
     1
173
     1
174
     0
175
     0
176
   256
177
   256
178
   256
270
     2
271
     2
272
     3
273
     2
274
     4
340
F
275
     0
280
     0
281
     0
282
     0
283
     0
284
     8
285
     0
286
     0
287
     3
288
     0
  0
ENDTAB
  0
TABLE
  2
BLOCK_RECORD
  5
1
330
0
100
AcDbSymbolTable
 70
    22
  0
BLOCK_RECORD
  5
18
102
{ACAD_XDICTIONARY
360
2793
102
}
330
1
100
AcDbSymbolTableRecord
100
AcDbBlockTableRecord
  2
*MODEL_SPACE
  0
BLOCK_RECORD
  5
15
102
{ACAD_XDICTIONARY
360
46B5
102
}
330
1
100
AcDbSymbolTableRecord
100
AcDbBlockTableRecord
  2
*PAPER_SPACE
  0
BLOCK_RECORD
  5
A07
330
1
100
AcDbSymbolTableRecord
100
AcDbBlockTableRecord
  2
_OPEN
  0
BLOCK_RECORD
  5
277A
330
1
100
AcDbSymbolTableRecord
100
AcDbBlockTableRecord
  2
GENAXEH
  0
BLOCK_RECORD
  5
3F1C
330
1
100
AcDbSymbolTableRecord
100
AcDbBlockTableRecord
  2
*U2
  0
BLOCK_RECORD
  5
3FB8
330
1
100
AcDbSymbolTableRecord
100
AcDbBlockTableRecord
  2
*D3
  0
BLOCK_RECORD
  5
3FC4
330
1
100
AcDbSymbolTableRecord
100
AcDbBlockTableRecord
  2
*D4
  0
BLOCK_RECORD
  5
3FD0
330
1
100
AcDbSymbolTableRecord
100
AcDbBlockTableRecord
  2
*D5
  0
BLOCK_RECORD
  5
3FDE
330
1
100
AcDbSymbolTableRecord
100
AcDbBlockTableRecord
  2
*D6
  0
BLOCK_RECORD
  5
3FEA
330
1
100
AcDbSymbolTableRecord
100
AcDbBlockTableRecord
  2
*D7
  0
BLOCK_RECORD
  5
3FF6
330
1
100
AcDbSymbolTableRecord
100
AcDbBlockTableRecord
  2
*D8
  0
BLOCK_RECORD
  5
4002
330
1
100
AcDbSymbolTableRecord
100
AcDbBlockTableRecord
  2
*D9
  0
BLOCK_RECORD
  5
419A
330
1
100
AcDbSymbolTableRecord
100
AcDbBlockTableRecord
  2
*D10
  0
BLOCK_RECORD
  5
422C
330
1
100
AcDbSymbolTableRecord
100
AcDbBlockTableRecord
  2
*D11
  0
BLOCK_RECORD
  5
424C
330
1
100
AcDbSymbolTableRecord
100
AcDbBlockTableRecord
  2
*D12
  0
BLOCK_RECORD
  5
441F
330
1
100
AcDbSymbolTableRecord
100
AcDbBlockTableRecord
  2
*D13
  0
BLOCK_RECORD
  5
442C
330
1
100
AcDbSymbolTableRecord
100
AcDbBlockTableRecord
  2
*D14
  0
BLOCK_RECORD
  5
4439
330
1
100
AcDbSymbolTableRecord
100
AcDbBlockTableRecord
  2
*D15
  0
BLOCK_RECORD
  5
44B1
330
1
100
AcDbSymbolTableRecord
100
AcDbBlockTableRecord
  2
*D16
  0
BLOCK_RECORD
  5
44BE
330
1
100
AcDbSymbolTableRecord
100
AcDbBlockTableRecord
  2
*D17
  0
BLOCK_RECORD
  5
4659
330
1
100
AcDbSymbolTableRecord
100
AcDbBlockTableRecord
  2
*D18
  0
BLOCK_RECORD
  5
467A
330
1
100
AcDbSymbolTableRecord
100
AcDbBlockTableRecord
  2
*D19
  0
BLOCK_RECORD
  5
4687
330
1
100
AcDbSymbolTableRecord
100
AcDbBlockTableRecord
  2
*D20
  0
BLOCK_RECORD
  5
46DA
330
1
100
AcDbSymbolTableRecord
100
AcDbBlockTableRecord
  2
*D21
  0
ENDTAB
  0
ENDSEC
  0
SECTION
  2
BLOCKS
  0
BLOCK
  5
19
330
18
100
AcDbEntity
  8
0
100
AcDbBlockBegin
  2
*MODEL_SPACE
 70
     0
 10
0.0
 20
0.0
 30
0.0
  3
*MODEL_SPACE
  1

  0
ENDBLK
  5
1A
330
18
100
AcDbEntity
  8
0
100
AcDbBlockEnd
  0
BLOCK
  5
16
330
15
100
AcDbEntity
 67
     1
  8
0
100
AcDbBlockBegin
  2
*PAPER_SPACE
 70
     0
 10
0.0
 20
0.0
 30
0.0
  3
*PAPER_SPACE
  1

  0
ENDBLK
  5
17
330
15
100
AcDbEntity
 67
     1
  8
0
100
AcDbBlockEnd
  0
BLOCK
  5
A08
330
A07
100
AcDbEntity
  8
0
100
AcDbBlockBegin
  2
_OPEN
 70
     0
 10
0.0
 20
0.0
 30
0.0
  3
_OPEN
  1

  0
LINE
  5
A09
330
A07
100
AcDbEntity
  8
0
  6
BYBLOCK
 62
     0
100
AcDbLine
 10
-1.0
 20
0.1666666666666666
 30
0.0
 11
0.0
 21
0.0
 31
0.0
  0
LINE
  5
A0A
330
A07
100
AcDbEntity
  8
0
  6
BYBLOCK
 62
     0
100
AcDbLine
 10
0.0
 20
0.0
 30
0.0
 11
-1.0
 21
-0.1666666666666666
 31
0.0
  0
LINE
  5
A0B
330
A07
100
AcDbEntity
  8
0
  6
BYBLOCK
 62
     0
100
AcDbLine
 10
0.0
 20
0.0
 30
0.0
 11
-1.0
 21
0.0
 31
0.0
  0
ENDBLK
  5
A0C
330
A07
100
AcDbEntity
  8
0
100
AcDbBlockEnd
  0
BLOCK
  5
277C
330
277A
100
AcDbEntity
  8
0
100
AcDbBlockBegin
  2
GENAXEH
 70
     0
 10
0.0
 20
0.0
 30
0.0
  3
GENAXEH
  1

  0
LINE
  5
277B
330
277A
100
AcDbEntity
  8
0
100
AcDbLine
 10
-1.0
 20
0.0
 30
0.0
 11
1.0
 21
0.0
 31
0.0
  0
ENDBLK
  5
277D
330
277A
100
AcDbEntity
  8
0
100
AcDbBlockEnd
  0
BLOCK
  5
3F1D
330
3F1C
100
AcDbEntity
  8
0
100
AcDbBlockBegin
  2
*U2
 70
     1
 10
0.0
 20
0.0
 30
0.0
  3
*U2
  1

  0
ENDBLK
  5
3F1E
330
3F1C
100
AcDbEntity
  8
0
100
AcDbBlockEnd
  0
BLOCK
  5
3FC2
330
3FB8
100
AcDbEntity
  8
0
100
AcDbBlockBegin
  2
*D3
 70
     1
 10
0.0
 20
0.0
 30
0.0
  3
*D3
  1

  0
LINE
  5
471C
330
3FB8
100
AcDbEntity
  8
5
100
AcDbLine
 10
124.7272803830232
 20
192.9266015390443
 30
0.0
 11
-14.70081836966762
 21
192.9266015390444
 31
0.0
  0
LINE
  5
471D
330
3FB8
100
AcDbEntity
  8
5
100
AcDbLine
 10
229.2272803830231
 20
512.9266015390445
 30
0.0
 11
-14.70081836966755
 21
512.9266015390445
 31
0.0
  0
LINE
  5
471E
330
3FB8
100
AcDbEntity
  8
5
100
AcDbLine
 10
-9.700818369667624
 20
207.9266015390444
 30
0.0
 11
-9.70081836966756
 21
497.9266015390445
 31
0.0
  0
INSERT
  5
471F
330
3FB8
100
AcDbEntity
  8
5
100
AcDbBlockReference
  2
_OPEN
 10
-9.700818369667628
 20
192.9266015390444
 30
0.0
 41
15.0
 42
15.0
 43
15.0
 50
270.0
  0
INSERT
  5
4720
330
3FB8
100
AcDbEntity
  8
5
100
AcDbBlockReference
  2
_OPEN
 10
-9.700818369667556
 20
512.9266015390445
 30
0.0
 41
15.0
 42
15.0
 43
15.0
 50
90.0
  0
MTEXT
  5
4721
330
3FB8
100
AcDbEntity
  8
5
100
AcDbMText
 10
-25.95254081061253
 20
352.9266015390445
 30
0.0
 40
17.5
 41
0.0
 71
     5
 72
     1
  1
320
 11
0.0000000000000001
 21
1.0
 31
0.0
1001
ACAD
1000
MTEXTBEGIN
1070
    73
1070
     1
1070
    44
1040
1.0
1070
    74
1070
     0
1000
MTEXTEND
  0
POINT
  5
4722
330
3FB8
100
AcDbEntity
  8
DEFPOINTS
 62
     0
100
AcDbPoint
 10
129.7272803830233
 20
192.9266015390443
 30
0.0
  0
POINT
  5
4723
330
3FB8
100
AcDbEntity
  8
DEFPOINTS
 62
     0
100
AcDbPoint
 10
234.2272803830232
 20
512.9266015390445
 30
0.0
  0
POINT
  5
4724
330
3FB8
100
AcDbEntity
  8
DEFPOINTS
 62
     0
100
AcDbPoint
 10
-9.700818369667556
 20
512.9266015390445
 30
0.0
  0
ENDBLK
  5
3FC3
330
3FB8
100
AcDbEntity
  8
0
100
AcDbBlockEnd
  0
BLOCK
  5
3FCE
330
3FC4
100
AcDbEntity
  8
0
100
AcDbBlockBegin
  2
*D4
 70
     1
 10
0.0
 20
0.0
 30
0.0
  3
*D4
  1

  0
LINE
  5
43CB
330
3FC4
100
AcDbEntity
  8
5
100
AcDbLine
 10
234.2272803830232
 20
566.3322883903966
 30
0.0
 11
234.2272803830232
 21
916.9187247799454
 31
0.0
  0
LINE
  5
43CC
330
3FC4
100
AcDbEntity
  8
5
100
AcDbLine
 10
111.2272803830232
 20
867.8322883903966
 30
0.0
 11
111.2272803830232
 21
916.9187247799454
 31
0.0
  0
LINE
  5
43CD
330
3FC4
100
AcDbEntity
  8
5
100
AcDbLine
 10
219.2272803830233
 20
911.9187247799457
 30
0.0
 11
126.2272803830233
 21
911.9187247799457
 31
0.0
  0
INSERT
  5
43CE
330
3FC4
100
AcDbEntity
  8
5
100
AcDbBlockReference
  2
_OPEN
 10
234.2272803830232
 20
911.9187247799457
 30
0.0
 41
15.0
 42
15.0
 43
15.0
  0
INSERT
  5
43CF
330
3FC4
100
AcDbEntity
  8
5
100
AcDbBlockReference
  2
_OPEN
 10
111.2272803830232
 20
911.9187247799457
 30
0.0
 41
15.0
 42
15.0
 43
15.0
 50
180.0
  0
MTEXT
  5
43D0
330
3FC4
100
AcDbEntity
  8
5
 62
     2
100
AcDbMText
 10
172.7272803830229
 20
928.1704472208902
 30
0.0
 40
17.5
 41
0.0
 71
     5
 72
     1
  1
123
1001
ACAD
1000
MTEXTBEGIN
1070
    73
1070
     1
1070
    44
1040
1.0
1070
    74
1070
     0
1000
MTEXTEND
1000
MTEXTBEGIN
1070
    73
1070
     1
1070
    44
1040
1.0
1070
    74
1070
     0
1000
MTEXTEND
  0
POINT
  5
43D1
330
3FC4
100
AcDbEntity
  8
DEFPOINTS
 62
     0
100
AcDbPoint
 10
234.2272803830232
 20
561.3322883903967
 30
0.0
  0
POINT
  5
43D2
330
3FC4
100
AcDbEntity
  8
DEFPOINTS
 62
     0
100
AcDbPoint
 10
111.2272803830232
 20
862.8322883903967
 30
0.0
  0
POINT
  5
43D3
330
3FC4
100
AcDbEntity
  8
DEFPOINTS
 62
     0
100
AcDbPoint
 10
111.2272803830232
 20
911.9187247799457
 30
0.0
  0
ENDBLK
  5
3FCF
330
3FC4
100
AcDbEntity
  8
0
100
AcDbBlockEnd
  0
BLOCK
  5
3FDC
330
3FD0
100
AcDbEntity
  8
0
100
AcDbBlockBegin
  2
*D5
 70
     1
 10
0.0
 20
0.0
 30
0.0
  3
*D5
  1

  0
LINE
  5
462B
330
3FD0
100
AcDbEntity
  8
5
100
AcDbLine
 10
133.837550826749
 20
90.42246905699926
 30
0.0
 11
133.837550826749
 21
120.4613272231197
 31
0.0
  0
LINE
  5
462C
330
3FD0
100
AcDbEntity
  8
5
100
AcDbLine
 10
111.7889575831927
 20
90.42246905699926
 30
0.0
 11
111.7889575831927
 21
120.4613272231197
 31
0.0
  0
LINE
  5
462D
330
3FD0
100
AcDbEntity
  8
5
100
AcDbLine
 10
148.837550826749
 20
115.4613272231197
 30
0.0
 11
163.837550826749
 21
115.4613272231197
 31
0.0
  0
LINE
  5
462E
330
3FD0
100
AcDbEntity
  8
5
100
AcDbLine
 10
96.78895758319271
 20
115.4613272231197
 30
0.0
 11
46.20661422005331
 21
115.4613272231197
 31
0.0
  0
LINE
  5
462F
330
3FD0
100
AcDbEntity
  8
5
100
AcDbLine
 10
133.837550826749
 20
115.4613272231197
 30
0.0
 11
111.7889575831927
 21
115.4613272231197
 31
0.0
  0
INSERT
  5
4630
330
3FD0
100
AcDbEntity
  8
5
100
AcDbBlockReference
  2
_OPEN
 10
133.837550826749
 20
115.4613272231197
 30
0.0
 41
15.0
 42
15.0
 43
15.0
 50
180.0
  0
INSERT
  5
4631
330
3FD0
100
AcDbEntity
  8
5
100
AcDbBlockReference
  2
_OPEN
 10
111.7889575831927
 20
115.4613272231197
 30
0.0
 41
15.0
 42
15.0
 43
15.0
  0
MTEXT
  5
4632
330
3FD0
100
AcDbEntity
  8
5
100
AcDbMText
 10
63.91624596901952
 20
131.7130496640644
 30
0.0
 40
17.5
 41
0.0
 71
     5
 72
     1
  1
23
1001
ACAD
1000
MTEXTBEGIN
1070
    73
1070
     1
1070
    44
1040
1.0
1070
    74
1070
     0
1000
MTEXTEND
1000
MTEXTBEGIN
1070
    73
1070
     1
1070
    44
1040
1.0
1070
    74
1070
     0
1000
MTEXTEND
  0
POINT
  5
4633
330
3FD0
100
AcDbEntity
  8
DEFPOINTS
 62
     0
100
AcDbPoint
 10
133.837550826749
 20
85.42246905699926
 30
0.0
  0
POINT
  5
4634
330
3FD0
100
AcDbEntity
  8
DEFPOINTS
 62
     0
100
AcDbPoint
 10
111.7889575831927
 20
85.42246905699926
 30
0.0
  0
POINT
  5
4635
330
3FD0
100
AcDbEntity
  8
DEFPOINTS
 62
     0
100
AcDbPoint
 10
111.7889575831927
 20
115.4613272231197
 30
0.0
  0
ENDBLK
  5
3FDD
330
3FD0
100
AcDbEntity
  8
0
100
AcDbBlockEnd
  0
BLOCK
  5
3FE8
330
3FDE
100
AcDbEntity
  8
0
100
AcDbBlockBegin
  2
*D6
 70
     1
 10
0.0
 20
0.0
 30
0.0
  3
*D6
  1

  0
LINE
  5
4619
330
3FDE
100
AcDbEntity
  8
5
100
AcDbLine
 10
111.8613109109172
 20
85.42246905699926
 30
0.0
 11
45.72728038302328
 21
85.42246905699926
 31
0.0
  0
LINE
  5
461A
330
3FDE
100
AcDbEntity
  8
5
100
AcDbLine
 10
105.7272803830233
 20
0.4224690569992636
 30
0.0
 11
45.72728038302328
 21
0.4224690569992803
 31
0.0
  0
LINE
  5
461B
330
3FDE
100
AcDbEntity
  8
5
100
AcDbLine
 10
50.72728038302329
 20
70.42246905699926
 30
0.0
 11
50.72728038302329
 21
15.42246905699927
 31
0.0
  0
INSERT
  5
461C
330
3FDE
100
AcDbEntity
  8
5
100
AcDbBlockReference
  2
_OPEN
 10
50.72728038302331
 20
85.42246905699926
 30
0.0
 41
15.0
 42
15.0
 43
15.0
 50
90.0
  0
INSERT
  5
461D
330
3FDE
100
AcDbEntity
  8
5
100
AcDbBlockReference
  2
_OPEN
 10
50.72728038302329
 20
0.4224690569992789
 30
0.0
 41
15.0
 42
15.0
 43
15.0
 50
270.0
  0
MTEXT
  5
461E
330
3FDE
100
AcDbEntity
  8
5
100
AcDbMText
 10
34.47728038302329
 20
42.92246905699928
 30
0.0
 40
17.5
 41
0.0
 71
     5
 72
     1
  1
85
 11
0.0000000000000001
 21
1.0
 31
0.0
1001
ACAD
1000
MTEXTBEGIN
1070
    73
1070
     1
1070
    44
1040
1.0
1070
    74
1070
     0
1000
MTEXTEND
1000
MTEXTBEGIN
1070
    73
1070
     1
1070
    44
1040
1.0
1070
    74
1070
     0
1000
MTEXTEND
  0
POINT
  5
461F
330
3FDE
100
AcDbEntity
  8
DEFPOINTS
 62
     0
100
AcDbPoint
 10
116.8613109109172
 20
85.42246905699926
 30
0.0
  0
POINT
  5
4620
330
3FDE
100
AcDbEntity
  8
DEFPOINTS
 62
     0
100
AcDbPoint
 10
110.7272803830233
 20
0.4224690569992621
 30
0.0
  0
POINT
  5
4621
330
3FDE
100
AcDbEntity
  8
DEFPOINTS
 62
     0
100
AcDbPoint
 10
50.72728038302329
 20
0.4224690569992789
 30
0.0
  0
ENDBLK
  5
3FE9
330
3FDE
100
AcDbEntity
  8
0
100
AcDbBlockEnd
  0
BLOCK
  5
3FF4
330
3FEA
100
AcDbEntity
  8
0
100
AcDbBlockBegin
  2
*D7
 70
     1
 10
0.0
 20
0.0
 30
0.0
  3
*D7
  1

  0
LINE
  5
4737
330
3FEA
100
AcDbEntity
  8
5
100
AcDbLine
 10
124.7272803830232
 20
832.9266015390444
 30
0.0
 11
-14.70081836966748
 21
832.9266015390444
 31
0.0
  0
LINE
  5
4738
330
3FEA
100
AcDbEntity
  8
5
100
AcDbLine
 10
229.2272803830231
 20
512.9266015390445
 30
0.0
 11
-14.70081836966755
 21
512.9266015390445
 31
0.0
  0
LINE
  5
4739
330
3FEA
100
AcDbEntity
  8
5
100
AcDbLine
 10
-9.700818369667489
 20
817.9266015390444
 30
0.0
 11
-9.700818369667553
 21
527.9266015390446
 31
0.0
  0
INSERT
  5
473A
330
3FEA
100
AcDbEntity
  8
5
100
AcDbBlockReference
  2
_OPEN
 10
-9.700818369667485
 20
832.9266015390444
 30
0.0
 41
15.0
 42
15.0
 43
15.0
 50
90.0
  0
INSERT
  5
473B
330
3FEA
100
AcDbEntity
  8
5
100
AcDbBlockReference
  2
_OPEN
 10
-9.700818369667556
 20
512.9266015390445
 30
0.0
 41
15.0
 42
15.0
 43
15.0
 50
270.0
  0
MTEXT
  5
473C
330
3FEA
100
AcDbEntity
  8
5
100
AcDbMText
 10
-25.95254081061251
 20
672.9266015390444
 30
0.0
 40
17.5
 41
0.0
 71
     5
 72
     1
  1
320
 11
0.0000000000000001
 21
1.0
 31
0.0
1001
ACAD
1000
MTEXTBEGIN
1070
    73
1070
     1
1070
    44
1040
1.0
1070
    74
1070
     0
1000
MTEXTEND
  0
POINT
  5
473D
330
3FEA
100
AcDbEntity
  8
DEFPOINTS
 62
     0
100
AcDbPoint
 10
129.7272803830233
 20
832.9266015390444
 30
0.0
  0
POINT
  5
473E
330
3FEA
100
AcDbEntity
  8
DEFPOINTS
 62
     0
100
AcDbPoint
 10
234.2272803830232
 20
512.9266015390445
 30
0.0
  0
POINT
  5
473F
330
3FEA
100
AcDbEntity
  8
DEFPOINTS
 62
     0
100
AcDbPoint
 10
-9.700818369667556
 20
512.9266015390445
 30
0.0
  0
ENDBLK
  5
3FF5
330
3FEA
100
AcDbEntity
  8
0
100
AcDbBlockEnd
  0
BLOCK
  5
4000
330
3FF6
100
AcDbEntity
  8
0
100
AcDbBlockBegin
  2
*D8
 70
     1
 10
0.0
 20
0.0
 30
0.0
  3
*D8
  1

  0
LINE
  5
4725
330
3FF6
100
AcDbEntity
  8
5
100
AcDbLine
 10
124.7272803830232
 20
832.9266015390444
 30
0.0
 11
-108.7883915120676
 21
832.9266015390444
 31
0.0
  0
LINE
  5
4726
330
3FF6
100
AcDbEntity
  8
5
100
AcDbLine
 10
121.2272803830233
 20
192.9266015390443
 30
0.0
 11
-108.7883915120677
 21
192.9266015390444
 31
0.0
  0
LINE
  5
4727
330
3FF6
100
AcDbEntity
  8
5
100
AcDbLine
 10
-103.7883915120676
 20
817.9266015390444
 30
0.0
 11
-103.7883915120678
 21
207.9266015390444
 31
0.0
  0
INSERT
  5
4728
330
3FF6
100
AcDbEntity
  8
5
100
AcDbBlockReference
  2
_OPEN
 10
-103.7883915120676
 20
832.9266015390444
 30
0.0
 41
15.0
 42
15.0
 43
15.0
 50
90.0
  0
INSERT
  5
4729
330
3FF6
100
AcDbEntity
  8
5
100
AcDbBlockReference
  2
_OPEN
 10
-103.7883915120678
 20
192.9266015390444
 30
0.0
 41
15.0
 42
15.0
 43
15.0
 50
270.0
  0
MTEXT
  5
472A
330
3FF6
100
AcDbEntity
  8
5
100
AcDbMText
 10
-120.0383915120678
 20
512.9266015390444
 30
0.0
 40
17.5
 41
0.0
 71
     5
 72
     1
  1
640
 11
0.0000000000000001
 21
1.0
 31
0.0
1001
ACAD
1000
MTEXTBEGIN
1070
    73
1070
     1
1070
    44
1040
1.0
1070
    74
1070
     0
1000
MTEXTEND
  0
POINT
  5
472B
330
3FF6
100
AcDbEntity
  8
DEFPOINTS
 62
     0
100
AcDbPoint
 10
129.7272803830233
 20
832.9266015390444
 30
0.0
  0
POINT
  5
472C
330
3FF6
100
AcDbEntity
  8
DEFPOINTS
 62
     0
100
AcDbPoint
 10
126.2272803830233
 20
192.9266015390443
 30
0.0
  0
POINT
  5
472D
330
3FF6
100
AcDbEntity
  8
DEFPOINTS
 62
     0
100
AcDbPoint
 10
-103.7883915120678
 20
192.9266015390444
 30
0.0
  0
ENDBLK
  5
4001
330
3FF6
100
AcDbEntity
  8
0
100
AcDbBlockEnd
  0
BLOCK
  5
400C
330
4002
100
AcDbEntity
  8
0
100
AcDbBlockBegin
  2
*D9
 70
     1
 10
0.0
 20
0.0
 30
0.0
  3
*D9
  1

  0
LINE
  5
4713
330
4002
100
AcDbEntity
  8
5
100
AcDbLine
 10
111.2272803830232
 20
819.4266015390445
 30
0.0
 11
111.2272803830232
 21
943.9190939740107
 31
0.0
  0
LINE
  5
4714
330
4002
100
AcDbEntity
  8
5
100
AcDbLine
 10
911.2272803830231
 20
819.4266015390445
 30
0.0
 11
911.2272803830231
 21
943.9190939740107
 31
0.0
  0
LINE
  5
4715
330
4002
100
AcDbEntity
  8
5
100
AcDbLine
 10
126.2272803830232
 20
938.9190939740108
 30
0.0
 11
896.2272803830231
 21
938.9190939740108
 31
0.0
  0
INSERT
  5
4716
330
4002
100
AcDbEntity
  8
5
100
AcDbBlockReference
  2
_OPEN
 10
111.2272803830232
 20
938.9190939740108
 30
0.0
 41
15.0
 42
15.0
 43
15.0
 50
180.0
  0
INSERT
  5
4717
330
4002
100
AcDbEntity
  8
5
100
AcDbBlockReference
  2
_OPEN
 10
911.2272803830231
 20
938.9190939740108
 30
0.0
 41
15.0
 42
15.0
 43
15.0
  0
MTEXT
  5
4718
330
4002
100
AcDbEntity
  8
5
100
AcDbMText
 10
511.2272803830231
 20
955.1690939740108
 30
0.0
 40
17.5
 41
0.0
 71
     5
 72
     1
  1
800
1001
ACAD
1000
MTEXTBEGIN
1070
    73
1070
     1
1070
    44
1040
1.0
1070
    74
1070
     0
1000
MTEXTEND
  0
POINT
  5
4719
330
4002
100
AcDbEntity
  8
DEFPOINTS
 62
     0
100
AcDbPoint
 10
111.2272803830232
 20
814.4266015390446
 30
0.0
  0
POINT
  5
471A
330
4002
100
AcDbEntity
  8
DEFPOINTS
 62
     0
100
AcDbPoint
 10
911.2272803830231
 20
814.4266015390446
 30
0.0
  0
POINT
  5
471B
330
4002
100
AcDbEntity
  8
DEFPOINTS
 62
     0
100
AcDbPoint
 10
911.2272803830231
 20
938.9190939740108
 30
0.0
  0
ENDBLK
  5
400D
330
4002
100
AcDbEntity
  8
0
100
AcDbBlockEnd
  0
BLOCK
  5
41A1
330
419A
100
AcDbEntity
  8
0
100
AcDbBlockBegin
  2
*D10
 70
     1
 10
0.0
 20
0.0
 30
0.0
  3
*D10
  1

  0
LINE
  5
4752
330
419A
100
AcDbEntity
  8
5
100
AcDbLine
 10
386.7173151374804
 20
617.2327887564153
 30
0.0
 11
295.7181394622969
 21
554.9875602738723
 31
0.0
  0
LINE
  5
4753
330
419A
100
AcDbEntity
  8
5
100
AcDbLine
 10
172.7364213037491
 20
470.8656428042166
 30
0.0
 11
160.3557114220161
 21
462.3969933945197
 31
0.0
  0
MTEXT
  5
4754
330
419A
100
AcDbEntity
  8
5
100
AcDbMText
 10
354.2247503572328
 20
614.6951200891173
 30
0.0
 40
17.5
 41
0.0
 71
     5
 72
     1
  1
%%c119
 11
0.8253806587821983
 21
0.5645766273131258
 31
0.0
1001
ACAD
1000
MTEXTBEGIN
1070
    73
1070
     1
1070
    44
1040
1.0
1070
    74
1070
     0
1000
MTEXTEND
  0
LINE
  5
4755
330
419A
100
AcDbEntity
  8
5
100
AcDbLine
 10
185.117131185482
 20
479.3342922139134
 30
0.0
 11
283.3374295805639
 21
546.5189108641754
 31
0.0
  0
INSERT
  5
4756
330
419A
100
AcDbEntity
  8
5
100
AcDbBlockReference
  2
_OPEN
 10
185.117131185482
 20
479.3342922139134
 30
0.0
 41
15.0
 42
15.0
 43
15.0
 50
34.37289671930456
  0
INSERT
  5
4757
330
419A
100
AcDbEntity
  8
5
100
AcDbBlockReference
  2
_OPEN
 10
283.3374295805639
 20
546.5189108641754
 30
0.0
 41
15.0
 42
15.0
 43
15.0
 50
214.3728967193045
  0
POINT
  5
4758
330
419A
100
AcDbEntity
  8
DEFPOINTS
 62
     0
100
AcDbPoint
 10
283.3374295805639
 20
546.5189108641754
 30
0.0
  0
POINT
  5
4759
330
419A
100
AcDbEntity
  8
DEFPOINTS
 62
     0
100
AcDbPoint
 10
185.117131185482
 20
479.3342922139134
 30
0.0
  0
ENDBLK
  5
41A2
330
419A
100
AcDbEntity
  8
0
100
AcDbBlockEnd
  0
BLOCK
  5
4236
330
422C
100
AcDbEntity
  8
0
100
AcDbBlockBegin
  2
*D11
 70
     1
 10
0.0
 20
0.0
 30
0.0
  3
*D11
  1

  0
LINE
  5
4667
330
422C
100
AcDbEntity
  8
5
100
AcDbLine
 10
140.6572803830229
 20
290.7622883903966
 30
0.0
 11
140.6572803830229
 21
160.5388721058701
 31
0.0
  0
LINE
  5
4668
330
422C
100
AcDbEntity
  8
5
100
AcDbLine
 10
881.7972803830231
 20
290.7622883903966
 30
0.0
 11
881.7972803830231
 21
160.5388721058701
 31
0.0
  0
LINE
  5
4669
330
422C
100
AcDbEntity
  8
5
100
AcDbLine
 10
155.6572803830229
 20
165.5388721058701
 30
0.0
 11
866.7972803830231
 21
165.5388721058701
 31
0.0
  0
INSERT
  5
466A
330
422C
100
AcDbEntity
  8
5
100
AcDbBlockReference
  2
_OPEN
 10
140.6572803830229
 20
165.5388721058701
 30
0.0
 41
15.0
 42
15.0
 43
15.0
 50
180.0
  0
INSERT
  5
466B
330
422C
100
AcDbEntity
  8
5
100
AcDbBlockReference
  2
_OPEN
 10
881.7972803830231
 20
165.5388721058701
 30
0.0
 41
15.0
 42
15.0
 43
15.0
  0
MTEXT
  5
466C
330
422C
100
AcDbEntity
  8
5
100
AcDbMText
 10
511.2272803830228
 20
181.7888721058699
 30
0.0
 40
17.5
 41
0.0
 71
     5
 72
     1
  1
756
1001
ACAD
1000
MTEXTBEGIN
1070
    73
1070
     1
1070
    44
1040
1.0
1070
    74
1070
     0
1000
MTEXTEND
1000
MTEXTBEGIN
1070
    73
1070
     1
1070
    44
1040
1.0
1070
    74
1070
     0
1000
MTEXTEND
  0
POINT
  5
466D
330
422C
100
AcDbEntity
  8
DEFPOINTS
 62
     0
100
AcDbPoint
 10
140.6572803830229
 20
295.7622883903966
 30
0.0
  0
POINT
  5
466E
330
422C
100
AcDbEntity
  8
DEFPOINTS
 62
     0
100
AcDbPoint
 10
881.7972803830231
 20
295.7622883903966
 30
0.0
  0
POINT
  5
466F
330
422C
100
AcDbEntity
  8
DEFPOINTS
 62
     0
100
AcDbPoint
 10
881.7972803830231
 20
165.5388721058701
 30
0.0
  0
ENDBLK
  5
4237
330
422C
100
AcDbEntity
  8
0
100
AcDbBlockEnd
  0
BLOCK
  5
4256
330
424C
100
AcDbEntity
  8
0
100
AcDbBlockBegin
  2
*D12
 70
     1
 10
0.0
 20
0.0
 30
0.0
  3
*D12
  1

  0
LINE
  5
475A
330
424C
100
AcDbEntity
  8
5
100
AcDbLine
 10
861.797280383023
 20
803.4966015390443
 30
0.0
 11
1004.38568053908
 21
803.4966015390443
 31
0.0
  0
LINE
  5
475B
330
424C
100
AcDbEntity
  8
5
100
AcDbLine
 10
861.797280383023
 20
222.3566015390443
 30
0.0
 11
1004.38568053908
 21
222.3566015390443
 31
0.0
  0
LINE
  5
475C
330
424C
100
AcDbEntity
  8
5
100
AcDbLine
 10
999.3856805390803
 20
788.4966015390443
 30
0.0
 11
999.3856805390802
 21
237.3566015390443
 31
0.0
  0
INSERT
  5
475D
330
424C
100
AcDbEntity
  8
5
100
AcDbBlockReference
  2
_OPEN
 10
999.3856805390803
 20
803.4966015390443
 30
0.0
 41
15.0
 42
15.0
 43
15.0
 50
90.0
  0
INSERT
  5
475E
330
424C
100
AcDbEntity
  8
5
100
AcDbBlockReference
  2
_OPEN
 10
999.3856805390802
 20
222.3566015390443
 30
0.0
 41
15.0
 42
15.0
 43
15.0
 50
270.0
  0
MTEXT
  5
475F
330
424C
100
AcDbEntity
  8
5
100
AcDbMText
 10
983.1356805390802
 20
512.9266015390444
 30
0.0
 40
17.5
 41
0.0
 71
     5
 72
     1
  1
594
 11
0.0000000000000001
 21
1.0
 31
0.0
1001
ACAD
1000
MTEXTBEGIN
1070
    73
1070
     1
1070
    44
1040
1.0
1070
    74
1070
     0
1000
MTEXTEND
  0
POINT
  5
4760
330
424C
100
AcDbEntity
  8
DEFPOINTS
 62
     0
100
AcDbPoint
 10
856.7972803830231
 20
803.4966015390443
 30
0.0
  0
POINT
  5
4761
330
424C
100
AcDbEntity
  8
DEFPOINTS
 62
     0
100
AcDbPoint
 10
856.7972803830231
 20
222.3566015390443
 30
0.0
  0
POINT
  5
4762
330
424C
100
AcDbEntity
  8
DEFPOINTS
 62
     0
100
AcDbPoint
 10
999.3856805390802
 20
222.3566015390443
 30
0.0
  0
ENDBLK
  5
4257
330
424C
100
AcDbEntity
  8
0
100
AcDbBlockEnd
  0
BLOCK
  5
4429
330
441F
100
AcDbEntity
  8
0
100
AcDbBlockBegin
  2
*D13
 70
     1
 10
0.0
 20
0.0
 30
0.0
  3
*D13
  1

  0
LINE
  5
4420
330
441F
100
AcDbEntity
  8
枠
  6
CONTINUOUS
100
AcDbLine
 10
224.2272803830231
 20
758.3322883903965
 30
0.0
 11
62.03802992860937
 21
758.3322883903965
 31
0.0
  0
LINE
  5
4421
330
441F
100
AcDbEntity
  8
枠
  6
CONTINUOUS
100
AcDbLine
 10
114.7272803830233
 20
881.3322883903966
 30
0.0
 11
62.03802992860939
 21
881.3322883903966
 31
0.0
  0
LINE
  5
4422
330
441F
100
AcDbEntity
  8
枠
  6
CONTINUOUS
100
AcDbLine
 10
72.03802992860937
 20
788.3322883903965
 30
0.0
 11
72.03802992860939
 21
851.3322883903965
 31
0.0
  0
INSERT
  5
4423
330
441F
100
AcDbEntity
  8
枠
  6
CONTINUOUS
100
AcDbBlockReference
  2
_OPEN
 10
72.03802992860937
 20
758.3322883903965
 30
0.0
 41
30.0
 42
30.0
 43
30.0
 50
270.0
  0
INSERT
  5
4424
330
441F
100
AcDbEntity
  8
枠
  6
CONTINUOUS
100
AcDbBlockReference
  2
_OPEN
 10
72.0380299286094
 20
881.3322883903966
 30
0.0
 41
30.0
 42
30.0
 43
30.0
 50
90.0
  0
MTEXT
  5
4425
330
441F
100
AcDbEntity
  8
枠
  6
CONTINUOUS
100
AcDbMText
 10
39.53458504671949
 20
819.8322883903966
 30
0.0
 40
35.0
 41
0.0
 71
     5
 72
     1
  1
123
 11
0.0000000000000001
 21
1.0
 31
0.0
1001
ACAD
1000
MTEXTBEGIN
1070
    73
1070
     1
1070
    44
1040
1.0
1070
    74
1070
     0
1000
MTEXTEND
1000
MTEXTBEGIN
1070
    73
1070
     1
1070
    44
1040
1.0
1070
    74
1070
     0
1000
MTEXTEND
  0
POINT
  5
4426
330
441F
100
AcDbEntity
  8
DEFPOINTS
  6
CONTINUOUS
 62
     0
100
AcDbPoint
 10
234.2272803830232
 20
758.3322883903965
 30
0.0
  0
POINT
  5
4427
330
441F
100
AcDbEntity
  8
DEFPOINTS
  6
CONTINUOUS
 62
     0
100
AcDbPoint
 10
124.7272803830232
 20
881.3322883903966
 30
0.0
  0
POINT
  5
4428
330
441F
100
AcDbEntity
  8
DEFPOINTS
  6
CONTINUOUS
 62
     0
100
AcDbPoint
 10
72.0380299286094
 20
881.3322883903966
 30
0.0
  0
ENDBLK
  5
442A
330
441F
100
AcDbEntity
  8
0
100
AcDbBlockEnd
  0
BLOCK
  5
4436
330
442C
100
AcDbEntity
  8
0
100
AcDbBlockBegin
  2
*D14
 70
     1
 10
0.0
 20
0.0
 30
0.0
  3
*D14
  1

  0
LINE
  5
4749
330
442C
100
AcDbEntity
  8
5
 62
     3
100
AcDbLine
 10
114.7272803830232
 20
832.9266015390444
 30
0.0
 11
51.5201177526465
 21
832.9266015390444
 31
0.0
  0
LINE
  5
474A
330
442C
100
AcDbEntity
  8
5
 62
     3
100
AcDbLine
 10
224.2272803830231
 20
709.9266015390444
 30
0.0
 11
51.52011775264647
 21
709.9266015390444
 31
0.0
  0
LINE
  5
474B
330
442C
100
AcDbEntity
  8
5
 62
     3
100
AcDbLine
 10
61.52011775264649
 20
817.9266015390444
 30
0.0
 11
61.52011775264647
 21
724.9266015390444
 31
0.0
  0
INSERT
  5
474C
330
442C
100
AcDbEntity
  8
5
 62
     3
100
AcDbBlockReference
  2
_OPEN
 10
61.52011775264649
 20
832.9266015390444
 30
0.0
 41
15.0
 42
15.0
 43
15.0
 50
90.0
  0
INSERT
  5
474D
330
442C
100
AcDbEntity
  8
5
 62
     3
100
AcDbBlockReference
  2
_OPEN
 10
61.52011775264647
 20
709.9266015390444
 30
0.0
 41
15.0
 42
15.0
 43
15.0
 50
270.0
  0
MTEXT
  5
474E
330
442C
100
AcDbEntity
  8
5
100
AcDbMText
 10
45.26839531170147
 20
771.4266015390444
 30
0.0
 40
17.5
 41
0.0
 71
     5
 72
     1
  1
123
 11
0.0000000000000001
 21
1.0
 31
0.0
1001
ACAD
1000
MTEXTBEGIN
1070
    73
1070
     1
1070
    44
1040
1.0
1070
    74
1070
     0
1000
MTEXTEND
  0
POINT
  5
474F
330
442C
100
AcDbEntity
  8
DEFPOINTS
 62
     0
100
AcDbPoint
 10
124.7272803830232
 20
832.9266015390444
 30
0.0
  0
POINT
  5
4750
330
442C
100
AcDbEntity
  8
DEFPOINTS
 62
     0
100
AcDbPoint
 10
234.2272803830232
 20
709.9266015390444
 30
0.0
  0
POINT
  5
4751
330
442C
100
AcDbEntity
  8
DEFPOINTS
 62
     0
100
AcDbPoint
 10
61.52011775264647
 20
709.9266015390444
 30
0.0
  0
ENDBLK
  5
4437
330
442C
100
AcDbEntity
  8
0
100
AcDbBlockEnd
  0
BLOCK
  5
4443
330
4439
100
AcDbEntity
  8
0
100
AcDbBlockBegin
  2
*D15
 70
     1
 10
0.0
 20
0.0
 30
0.0
  3
*D15
  1

  0
LINE
  5
472E
330
4439
100
AcDbEntity
  8
5
 62
     3
100
AcDbLine
 10
116.2272803830233
 20
192.9266015390443
 30
0.0
 11
45.48695715999878
 21
192.9266015390444
 31
0.0
  0
LINE
  5
472F
330
4439
100
AcDbEntity
  8
5
 62
     3
100
AcDbLine
 10
224.2272803830231
 20
315.9266015390443
 30
0.0
 11
45.48695715999879
 21
315.9266015390444
 31
0.0
  0
LINE
  5
4730
330
4439
100
AcDbEntity
  8
5
 62
     3
100
AcDbLine
 10
55.48695715999878
 20
207.9266015390444
 30
0.0
 11
55.4869571599988
 21
300.9266015390444
 31
0.0
  0
INSERT
  5
4731
330
4439
100
AcDbEntity
  8
5
 62
     3
100
AcDbBlockReference
  2
_OPEN
 10
55.48695715999878
 20
192.9266015390444
 30
0.0
 41
15.0
 42
15.0
 43
15.0
 50
270.0
  0
INSERT
  5
4732
330
4439
100
AcDbEntity
  8
5
 62
     3
100
AcDbBlockReference
  2
_OPEN
 10
55.48695715999881
 20
315.9266015390444
 30
0.0
 41
15.0
 42
15.0
 43
15.0
 50
90.0
  0
MTEXT
  5
4733
330
4439
100
AcDbEntity
  8
5
100
AcDbMText
 10
39.23523471905387
 20
254.4266015390444
 30
0.0
 40
17.5
 41
0.0
 71
     5
 72
     1
  1
123
 11
0.0000000000000001
 21
1.0
 31
0.0
1001
ACAD
1000
MTEXTBEGIN
1070
    73
1070
     1
1070
    44
1040
1.0
1070
    74
1070
     0
1000
MTEXTEND
  0
POINT
  5
4734
330
4439
100
AcDbEntity
  8
DEFPOINTS
 62
     0
100
AcDbPoint
 10
126.2272803830233
 20
192.9266015390443
 30
0.0
  0
POINT
  5
4735
330
4439
100
AcDbEntity
  8
DEFPOINTS
 62
     0
100
AcDbPoint
 10
234.2272803830232
 20
315.9266015390443
 30
0.0
  0
POINT
  5
4736
330
4439
100
AcDbEntity
  8
DEFPOINTS
 62
     0
100
AcDbPoint
 10
55.48695715999881
 20
315.9266015390444
 30
0.0
  0
ENDBLK
  5
4444
330
4439
100
AcDbEntity
  8
0
100
AcDbBlockEnd
  0
BLOCK
  5
44BB
330
44B1
100
AcDbEntity
  8
0
100
AcDbBlockBegin
  2
*D16
 70
     1
 10
0.0
 20
0.0
 30
0.0
  3
*D16
  1

  0
LINE
  5
44B2
330
44B1
100
AcDbEntity
  8
枠
  6
CONTINUOUS
 62
     3
100
AcDbLine
 10
111.2272803830232
 20
876.3322883903965
 30
0.0
 11
111.2272803830232
 21
996.9764376917837
 31
0.0
  0
LINE
  5
44B3
330
44B1
100
AcDbEntity
  8
枠
  6
CONTINUOUS
 62
     3
100
AcDbLine
 10
911.2272803830231
 20
861.9022883903964
 30
0.0
 11
911.2272803830231
 21
996.9764376917837
 31
0.0
  0
LINE
  5
44B4
330
44B1
100
AcDbEntity
  8
枠
  6
CONTINUOUS
 62
     3
100
AcDbLine
 10
141.2272803830231
 20
986.9764376917837
 30
0.0
 11
881.2272803830232
 21
986.9764376917837
 31
0.0
  0
INSERT
  5
44B5
330
44B1
100
AcDbEntity
  8
枠
  6
CONTINUOUS
 62
     3
100
AcDbBlockReference
  2
_OPEN
 10
111.2272803830232
 20
986.9764376917837
 30
0.0
 41
30.0
 42
30.0
 43
30.0
 50
180.0
  0
INSERT
  5
44B6
330
44B1
100
AcDbEntity
  8
枠
  6
CONTINUOUS
 62
     3
100
AcDbBlockReference
  2
_OPEN
 10
911.2272803830231
 20
986.9764376917837
 30
0.0
 41
30.0
 42
30.0
 43
30.0
  0
MTEXT
  5
44B7
330
44B1
100
AcDbEntity
  8
枠
  6
CONTINUOUS
 62
     2
100
AcDbMText
 10
511.2272803830231
 20
1019.476437691783
 30
0.0
 40
35.0
 41
0.0
 71
     5
 72
     1
  1
800
1001
ACAD
1000
MTEXTBEGIN
1070
    73
1070
     1
1070
    44
1040
1.0
1070
    74
1070
     0
1000
MTEXTEND
1000
MTEXTBEGIN
1070
    73
1070
     1
1070
    44
1040
1.0
1070
    74
1070
     0
1000
MTEXTEND
  0
POINT
  5
44B8
330
44B1
100
AcDbEntity
  8
DEFPOINTS
  6
CONTINUOUS
 62
     0
100
AcDbPoint
 10
111.2272803830232
 20
866.3322883903965
 30
0.0
  0
POINT
  5
44B9
330
44B1
100
AcDbEntity
  8
DEFPOINTS
  6
CONTINUOUS
 62
     0
100
AcDbPoint
 10
911.2272803830231
 20
851.9022883903964
 30
0.0
  0
POINT
  5
44BA
330
44B1
100
AcDbEntity
  8
DEFPOINTS
  6
CONTINUOUS
 62
     0
100
AcDbPoint
 10
911.2272803830231
 20
986.9764376917837
 30
0.0
  0
ENDBLK
  5
44BC
330
44B1
100
AcDbEntity
  8
0
100
AcDbBlockEnd
  0
BLOCK
  5
44C8
330
44BE
100
AcDbEntity
  8
0
100
AcDbBlockBegin
  2
*D17
 70
     1
 10
0.0
 20
0.0
 30
0.0
  3
*D17
  1

  0
LINE
  5
44BF
330
44BE
100
AcDbEntity
  8
枠
  6
CONTINUOUS
 62
     3
100
AcDbLine
 10
111.2272803830232
 20
856.3322883903966
 30
0.0
 11
111.2272803830232
 21
589.9091630174519
 31
0.0
  0
LINE
  5
44C0
330
44BE
100
AcDbEntity
  8
枠
  6
CONTINUOUS
 62
     3
100
AcDbLine
 10
911.2272803830231
 20
841.9022883903963
 30
0.0
 11
911.2272803830231
 21
589.9091630174519
 31
0.0
  0
LINE
  5
44C1
330
44BE
100
AcDbEntity
  8
枠
  6
CONTINUOUS
 62
     3
100
AcDbLine
 10
141.2272803830233
 20
599.9091630174517
 30
0.0
 11
881.2272803830232
 21
599.9091630174517
 31
0.0
  0
INSERT
  5
44C2
330
44BE
100
AcDbEntity
  8
枠
  6
CONTINUOUS
 62
     3
100
AcDbBlockReference
  2
_OPEN
 10
111.2272803830232
 20
599.9091630174517
 30
0.0
 41
30.0
 42
30.0
 43
30.0
 50
180.0
  0
INSERT
  5
44C3
330
44BE
100
AcDbEntity
  8
枠
  6
CONTINUOUS
 62
     3
100
AcDbBlockReference
  2
_OPEN
 10
911.2272803830231
 20
599.9091630174517
 30
0.0
 41
30.0
 42
30.0
 43
30.0
  0
MTEXT
  5
44C4
330
44BE
100
AcDbEntity
  8
枠
  6
CONTINUOUS
 62
     2
100
AcDbMText
 10
511.2272803830232
 20
632.4091630174518
 30
0.0
 40
35.0
 41
0.0
 71
     5
 72
     1
  1
800
1001
ACAD
1000
MTEXTBEGIN
1070
    73
1070
     1
1070
    44
1040
1.0
1070
    74
1070
     0
1000
MTEXTEND
1000
MTEXTBEGIN
1070
    73
1070
     1
1070
    44
1040
1.0
1070
    74
1070
     0
1000
MTEXTEND
  0
POINT
  5
44C5
330
44BE
100
AcDbEntity
  8
DEFPOINTS
  6
CONTINUOUS
 62
     0
100
AcDbPoint
 10
111.2272803830232
 20
866.3322883903965
 30
0.0
  0
POINT
  5
44C6
330
44BE
100
AcDbEntity
  8
DEFPOINTS
  6
CONTINUOUS
 62
     0
100
AcDbPoint
 10
911.2272803830231
 20
851.9022883903964
 30
0.0
  0
POINT
  5
44C7
330
44BE
100
AcDbEntity
  8
DEFPOINTS
  6
CONTINUOUS
 62
     0
100
AcDbPoint
 10
911.2272803830231
 20
599.9091630174517
 30
0.0
  0
ENDBLK
  5
44C9
330
44BE
100
AcDbEntity
  8
0
100
AcDbBlockEnd
  0
BLOCK
  5
4665
330
4659
100
AcDbEntity
  8
0
100
AcDbBlockBegin
  2
*D18
 70
     1
 10
0.0
 20
0.0
 30
0.0
  3
*D18
  1

  0
LINE
  5
465A
330
4659
100
AcDbEntity
  8
枠
  6
CONTINUOUS
 62
     3
100
AcDbLine
 10
111.7889575831927
 20
125.4613272231196
 30
0.0
 11
111.7889575831927
 21
139.5278208105634
 31
0.0
  0
LINE
  5
465B
330
4659
100
AcDbEntity
  8
枠
  6
CONTINUOUS
 62
     3
100
AcDbLine
 10
133.837550826749
 20
125.4613272231196
 30
0.0
 11
133.837550826749
 21
139.5278208105634
 31
0.0
  0
LINE
  5
465C
330
4659
100
AcDbEntity
  8
枠
  6
CONTINUOUS
 62
     3
100
AcDbLine
 10
81.78895758319269
 20
129.5278208105635
 30
0.0
 11
51.78895758319271
 21
129.5278208105635
 31
0.0
  0
LINE
  5
465D
330
4659
100
AcDbEntity
  8
枠
  6
CONTINUOUS
 62
     3
100
AcDbLine
 10
163.837550826749
 20
129.5278208105635
 30
0.0
 11
324.1760778226138
 21
129.5278208105635
 31
0.0
  0
LINE
  5
465E
330
4659
100
AcDbEntity
  8
枠
  6
CONTINUOUS
 62
     3
100
AcDbLine
 10
111.7889575831927
 20
129.5278208105635
 30
0.0
 11
133.837550826749
 21
129.5278208105635
 31
0.0
  0
INSERT
  5
465F
330
4659
100
AcDbEntity
  8
枠
  6
CONTINUOUS
 62
     3
100
AcDbBlockReference
  2
_OPEN
 10
111.7889575831927
 20
129.5278208105635
 30
0.0
 41
30.0
 42
30.0
 43
30.0
  0
INSERT
  5
4660
330
4659
100
AcDbEntity
  8
枠
  6
CONTINUOUS
 62
     3
100
AcDbBlockReference
  2
_OPEN
 10
133.837550826749
 20
129.5278208105635
 30
0.0
 41
30.0
 42
30.0
 43
30.0
 50
180.0
  0
MTEXT
  5
4661
330
4659
100
AcDbEntity
  8
枠
  6
CONTINUOUS
 62
     2
100
AcDbMText
 10
259.0068143246814
 20
162.0312656924531
 30
0.0
 40
35.0
 41
0.0
 71
     5
 72
     1
  1
22.05
1001
ACAD
1000
MTEXTBEGIN
1070
    73
1070
     1
1070
    44
1040
1.0
1070
    74
1070
     0
1000
MTEXTEND
1000
MTEXTBEGIN
1070
    73
1070
     1
1070
    44
1040
1.0
1070
    74
1070
     0
1000
MTEXTEND
  0
POINT
  5
4662
330
4659
100
AcDbEntity
  8
DEFPOINTS
  6
CONTINUOUS
 62
     0
100
AcDbPoint
 10
111.7889575831927
 20
115.4613272231197
 30
0.0
  0
POINT
  5
4663
330
4659
100
AcDbEntity
  8
DEFPOINTS
  6
CONTINUOUS
 62
     0
100
AcDbPoint
 10
133.837550826749
 20
115.4613272231197
 30
0.0
  0
POINT
  5
4664
330
4659
100
AcDbEntity
  8
DEFPOINTS
  6
CONTINUOUS
 62
     0
100
AcDbPoint
 10
133.837550826749
 20
129.5278208105635
 30
0.0
  0
ENDBLK
  5
4666
330
4659
100
AcDbEntity
  8
0
100
AcDbBlockEnd
  0
BLOCK
  5
4684
330
467A
100
AcDbEntity
  8
0
100
AcDbBlockBegin
  2
*D19
 70
     1
 10
0.0
 20
0.0
 30
0.0
  3
*D19
  1

  0
LINE
  5
467B
330
467A
100
AcDbEntity
  8
枠
  6
CONTINUOUS
 62
     3
100
AcDbLine
 10
906.227280383023
 20
881.3322883903966
 30
0.0
 11
1125.705324242007
 21
881.3322883903966
 31
0.0
  0
LINE
  5
467C
330
467A
100
AcDbEntity
  8
枠
  6
CONTINUOUS
 62
     3
100
AcDbLine
 10
906.227280383023
 20
241.3322883903965
 30
0.0
 11
1125.705324242007
 21
241.3322883903964
 31
0.0
  0
LINE
  5
467D
330
467A
100
AcDbEntity
  8
枠
  6
CONTINUOUS
 62
     3
100
AcDbLine
 10
1115.705324242007
 20
851.3322883903965
 30
0.0
 11
1115.705324242007
 21
271.3322883903964
 31
0.0
  0
INSERT
  5
467E
330
467A
100
AcDbEntity
  8
枠
  6
CONTINUOUS
 62
     3
100
AcDbBlockReference
  2
_OPEN
 10
1115.705324242007
 20
881.3322883903966
 30
0.0
 41
30.0
 42
30.0
 43
30.0
 50
90.0
  0
INSERT
  5
467F
330
467A
100
AcDbEntity
  8
枠
  6
CONTINUOUS
 62
     3
100
AcDbBlockReference
  2
_OPEN
 10
1115.705324242007
 20
241.3322883903964
 30
0.0
 41
30.0
 42
30.0
 43
30.0
 50
270.0
  0
MTEXT
  5
4680
330
467A
100
AcDbEntity
  8
枠
  6
CONTINUOUS
 62
     2
100
AcDbMText
 10
1083.205324242006
 20
561.3322883903967
 30
0.0
 40
35.0
 41
0.0
 71
     5
 72
     1
  1
640
 11
0.0000000000000001
 21
1.0
 31
0.0
1001
ACAD
1000
MTEXTBEGIN
1070
    73
1070
     1
1070
    44
1040
1.0
1070
    74
1070
     0
1000
MTEXTEND
1000
MTEXTBEGIN
1070
    73
1070
     1
1070
    44
1040
1.0
1070
    74
1070
     0
1000
MTEXTEND
  0
POINT
  5
4681
330
467A
100
AcDbEntity
  8
DEFPOINTS
  6
CONTINUOUS
 62
     0
100
AcDbPoint
 10
896.2272803830231
 20
881.3322883903966
 30
0.0
  0
POINT
  5
4682
330
467A
100
AcDbEntity
  8
DEFPOINTS
  6
CONTINUOUS
 62
     0
100
AcDbPoint
 10
896.2272803830231
 20
241.3322883903965
 30
0.0
  0
POINT
  5
4683
330
467A
100
AcDbEntity
  8
DEFPOINTS
  6
CONTINUOUS
 62
     0
100
AcDbPoint
 10
1115.705324242007
 20
241.3322883903964
 30
0.0
  0
ENDBLK
  5
4685
330
467A
100
AcDbEntity
  8
0
100
AcDbBlockEnd
  0
BLOCK
  5
4691
330
4687
100
AcDbEntity
  8
0
100
AcDbBlockBegin
  2
*D20
 70
     1
 10
0.0
 20
0.0
 30
0.0
  3
*D20
  1

  0
LINE
  5
4688
330
4687
100
AcDbEntity
  8
枠
  6
CONTINUOUS
 62
     3
100
AcDbLine
 10
871.7972803830232
 20
851.9022883903964
 30
0.0
 11
1042.088006433977
 21
851.9022883903964
 31
0.0
  0
LINE
  5
4689
330
4687
100
AcDbEntity
  8
枠
  6
CONTINUOUS
 62
     3
100
AcDbLine
 10
871.7972803830232
 20
270.7622883903965
 30
0.0
 11
1042.088006433976
 21
270.7622883903963
 31
0.0
  0
LINE
  5
468A
330
4687
100
AcDbEntity
  8
枠
  6
CONTINUOUS
 62
     3
100
AcDbLine
 10
1032.088006433977
 20
821.9022883903964
 30
0.0
 11
1032.088006433976
 21
300.7622883903964
 31
0.0
  0
INSERT
  5
468B
330
4687
100
AcDbEntity
  8
枠
  6
CONTINUOUS
 62
     3
100
AcDbBlockReference
  2
_OPEN
 10
1032.088006433977
 20
851.9022883903964
 30
0.0
 41
30.0
 42
30.0
 43
30.0
 50
90.0
  0
INSERT
  5
468C
330
4687
100
AcDbEntity
  8
枠
  6
CONTINUOUS
 62
     3
100
AcDbBlockReference
  2
_OPEN
 10
1032.088006433976
 20
270.7622883903963
 30
0.0
 41
30.0
 42
30.0
 43
30.0
 50
270.0
  0
MTEXT
  5
468D
330
4687
100
AcDbEntity
  8
枠
  6
CONTINUOUS
 62
     2
100
AcDbMText
 10
999.5880064339766
 20
561.3322883903967
 30
0.0
 40
35.0
 41
0.0
 71
     5
 72
     1
  1
581.14
 11
0.0000000000000001
 21
1.0
 31
0.0
1001
ACAD
1000
MTEXTBEGIN
1070
    73
1070
     1
1070
    44
1040
1.0
1070
    74
1070
     0
1000
MTEXTEND
1000
MTEXTBEGIN
1070
    73
1070
     1
1070
    44
1040
1.0
1070
    74
1070
     0
1000
MTEXTEND
  0
POINT
  5
468E
330
4687
100
AcDbEntity
  8
DEFPOINTS
  6
CONTINUOUS
 62
     0
100
AcDbPoint
 10
861.797280383023
 20
851.9022883903964
 30
0.0
  0
POINT
  5
468F
330
4687
100
AcDbEntity
  8
DEFPOINTS
  6
CONTINUOUS
 62
     0
100
AcDbPoint
 10
861.797280383023
 20
270.7622883903965
 30
0.0
  0
POINT
  5
4690
330
4687
100
AcDbEntity
  8
DEFPOINTS
  6
CONTINUOUS
 62
     0
100
AcDbPoint
 10
1032.088006433976
 20
270.7622883903963
 30
0.0
  0
ENDBLK
  5
4692
330
4687
100
AcDbEntity
  8
0
100
AcDbBlockEnd
  0
BLOCK
  5
46E4
330
46DA
100
AcDbEntity
  8
0
100
AcDbBlockBegin
  2
*D21
 70
     1
 10
0.0
 20
0.0
 30
0.0
  3
*D21
  1

  0
LINE
  5
4787
330
46DA
100
AcDbEntity
  8
枠
  6
CONTINUOUS
 62
     3
100
AcDbLine
 10
111.2272803830232
 20
827.9266015390444
 30
0.0
 11
111.2272803830232
 21
877.2105264568329
 31
0.0
  0
LINE
  5
4788
330
46DA
100
AcDbEntity
  8
枠
  6
CONTINUOUS
 62
     3
100
AcDbLine
 10
234.2272803830232
 20
719.9266015390444
 30
0.0
 11
234.2272803830232
 21
877.2105264568329
 31
0.0
  0
LINE
  5
4789
330
46DA
100
AcDbEntity
  8
枠
  6
CONTINUOUS
 62
     3
100
AcDbLine
 10
141.2272803830231
 20
867.2105264568328
 30
0.0
 11
204.2272803830231
 21
867.2105264568328
 31
0.0
  0
INSERT
  5
478A
330
46DA
100
AcDbEntity
  8
枠
  6
CONTINUOUS
 62
     3
100
AcDbBlockReference
  2
_OPEN
 10
111.2272803830232
 20
867.2105264568328
 30
0.0
 41
30.0
 42
30.0
 43
30.0
 50
180.0
  0
INSERT
  5
478B
330
46DA
100
AcDbEntity
  8
枠
  6
CONTINUOUS
 62
     3
100
AcDbBlockReference
  2
_OPEN
 10
234.2272803830232
 20
867.2105264568328
 30
0.0
 41
30.0
 42
30.0
 43
30.0
  0
MTEXT
  5
478C
330
46DA
100
AcDbEntity
  8
枠
  6
CONTINUOUS
 62
     3
100
AcDbMText
 10
172.7272803830231
 20
890.9622488977777
 30
0.0
 40
17.5
 41
0.0
 71
     5
 72
     1
  1
123
  0
POINT
  5
478D
330
46DA
100
AcDbEntity
  8
DEFPOINTS
  6
CONTINUOUS
 62
     0
100
AcDbPoint
 10
111.2272803830232
 20
817.9266015390444
 30
0.0
  0
POINT
  5
478E
330
46DA
100
AcDbEntity
  8
DEFPOINTS
  6
CONTINUOUS
 62
     0
100
AcDbPoint
 10
234.2272803830232
 20
709.9266015390444
 30
0.0
  0
POINT
  5
478F
330
46DA
100
AcDbEntity
  8
DEFPOINTS
  6
CONTINUOUS
 62
     0
100
AcDbPoint
 10
234.2272803830232
 20
867.2105264568328
 30
0.0
  0
ENDBLK
  5
46E5
330
46DA
100
AcDbEntity
  8
0
100
AcDbBlockEnd
  0
ENDSEC
  0
SECTION
  2
ENTITIES
  0
LINE
  5
2E4
330
18
100
AcDbEntity
  8
最小図面
100
AcDbLine
 10
1125.738881332191
 20
-109.9927968984548
 30
0.0
 11
1125.738881332191
 21
-64.99279636449418
 31
0.0
  0
LINE
  5
2E5
330
18
100
AcDbEntity
  8
最小図面
100
AcDbLine
 10
1095.738881332191
 20
-109.9927968984548
 30
0.0
 11
1095.738881332191
 21
-64.99279636449417
 31
0.0
  0
LWPOLYLINE
  5
3911
330
18
100
AcDbEntity
  8
最小図面
100
AcDbPolyline
 90
        4
 70
     1
 43
0.0
 10
-271.7811186678082
 20
-109.9927968984544
 10
-271.7811186678082
 20
1039.127203101543
 10
1305.738881332191
 20
1039.127203101543
 10
1305.738881332191
 20
-109.9927968984548
1001
GENIUS_GENREC_14
1002
{
1000
PYDIR
1011
1305.738881332191
1021
-109.9927968984544
1031
0.0
1002
}
1002
{
1000
PXDIR
1011
-271.7811186678082
1021
1039.127203101543
1031
0.0
1002
}
1002
{
1000
PORI
1011
-271.7811186678082
1021
-109.9927968984544
1031
0.0
1002
}
1002
{
1000
PINS
1011
-271.7811186678082
1021
-109.9927968984544
1031
0.0
1002
}
1002
{
1000
PINS2
1011
1305.738881332191
1021
1039.127203101543
1031
0.0
1002
}
1002
{
1000
C
1070
     1
1002
}
1001
GENIUS_GENODEF_13
1002
{
1000
HIER
1070
     0
1002
}
1002
{
1000
MANEDIT
1070
     0
1002
}
1002
{
1000
NOSEL
1070
     0
1002
}
1002
{
1000
BEHIND
1070
     0
1002
}
1002
{
1000
OTHER
1070
     0
1002
}
1002
{
1000
REACTOR
1002
}
1001
GENIUS_GENOBJ-N-REC_13
1002
{
1000
OWNER
1000
GEN
1002
}
  0
LINE
  5
39BB
330
18
100
AcDbEntity
  8
最小図面
100
AcDbLine
 10
1095.738881332191
 20
-64.99279636449418
 30
0.0
 11
1305.738881332192
 21
-64.99279636449418
 31
0.0
  0
DIMENSION
  5
3F56
330
18
100
AcDbEntity
  8
5
 48
5.0
100
AcDbDimension
  2
*D9
 10
911.2272803830231
 20
938.9190939740108
 30
0.0
 11
511.2272803830231
 21
955.1690939740108
 31
0.0
 70
    32
  1
<>
  3
GEN-ISO
100
AcDbAlignedDimension
 13
111.2272803830232
 23
814.4266015390446
 33
0.0
 14
911.2272803830231
 24
814.4266015390446
 34
0.0
 50
180.0
100
AcDbRotatedDimension
1001
GENIUS_GENDREL_13
1005
0
1005
0
1040
10.0
1001
GENIUS_GENDTOL_13
1000

1000
h7
1000

1040
0.0
1000
<>
1001
ACAD
1000
DSTYLE
1002
{
1070
   340
1005
F
1070
   178
1070
   256
1070
    40
1040
5.0
1002
}
  0
LINE
  5
3F57
330
18
100
AcDbEntity
  8
最小図面
100
AcDbLine
 10
511.227280383023
 20
192.9266015390443
 30
0.0
 11
126.2272803830233
 21
192.9266015390443
 31
0.0
  0
LINE
  5
3F58
330
18
100
AcDbEntity
  8
最小図面
100
AcDbLine
 10
511.227280383023
 20
222.3566015390443
 30
0.0
 11
165.6572803830229
 21
222.3566015390443
 31
0.0
  0
LINE
  5
3F59
330
18
100
AcDbEntity
  8
最小図面
100
AcDbLine
 10
511.227280383023
 20
832.9266015390444
 30
0.0
 11
126.2272803830233
 21
832.9266015390444
 31
0.0
  0
LINE
  5
3F5A
330
18
100
AcDbEntity
  8
最小図面
100
AcDbLine
 10
511.227280383023
 20
803.4966015390443
 30
0.0
 11
165.6572803830229
 21
803.4966015390443
 31
0.0
  0
LINE
  5
3F5D
330
18
100
AcDbEntity
  8
最小図面
100
AcDbLine
 10
893.2682803830232
 20
85.42246905699926
 30
0.0
 11
129.1862803830236
 21
85.42246905699926
 31
0.0
  0
LINE
  5
3F5E
330
18
100
AcDbEntity
  8
最小図面
100
AcDbLine
 10
911.7272803830232
 20
0.4224690569992621
 30
0.0
 11
310.2272803830233
 21
0.4224690569992621
 31
0.0
  0
LINE
  5
3F5F
330
18
100
AcDbEntity
  8
最小図面
100
AcDbLine
 10
911.2272803830231
 20
207.9266015390444
 30
0.0
 11
911.2272803830231
 21
512.9266015390445
 31
0.0
  0
LINE
  5
3F60
330
18
100
AcDbEntity
  8
最小図面
100
AcDbLine
 10
881.7972803830231
 20
247.3566015390445
 30
0.0
 11
881.7972803830231
 21
512.9266015390445
 31
0.0
  0
LINE
  5
3F61
330
18
100
AcDbEntity
  8
最小図面
100
AcDbLine
 10
856.7972803830231
 20
222.3566015390443
 30
0.0
 11
511.227280383023
 21
222.3566015390443
 31
0.0
  0
LINE
  5
3F62
330
18
100
AcDbEntity
  8
最小図面
100
AcDbLine
 10
896.2272803830231
 20
192.9266015390443
 30
0.0
 11
511.227280383023
 21
192.9266015390443
 31
0.0
  0
LINE
  5
3F65
330
18
100
AcDbEntity
  8
最小図面
100
AcDbLine
 10
911.7272803830232
 20
0.4224690569992621
 30
0.0
 11
910.7272803830227
 21
80.42246905699926
 31
0.0
  0
ARC
  5
3F6F
330
18
100
AcDbEntity
  8
最小図面
100
AcDbCircle
 10
905.7272803830228
 20
80.42246905699926
 30
0.0
 40
5.0
100
AcDbArc
 50
0.000000000000007
 51
90.0
  0
LINE
  5
3F73
330
18
100
AcDbEntity
  8
最小図面
100
AcDbLine
 10
905.7272803830228
 20
85.42246905699926
 30
0.0
 11
893.2682803830232
 21
85.42246905699926
 31
0.0
  0
ARC
  5
3F74
330
18
100
AcDbEntity
  8
最小図面
100
AcDbCircle
 10
896.2272803830231
 20
207.9266015390444
 30
0.0
 40
15.0
100
AcDbArc
 50
270.0
 51
0.000000000000007
  0
ARC
  5
3F75
330
18
100
AcDbEntity
  8
最小図面
100
AcDbCircle
 10
856.7972803830231
 20
247.3566015390445
 30
0.0
 40
25.0
100
AcDbArc
 50
270.0
 51
0.000000000000007
  0
CIRCLE
  5
3F76
330
18
100
AcDbEntity
  8
最小図面
100
AcDbCircle
 10
892.7272803830231
 20
211.4266015390443
 30
0.0
 40
10.0
  0
LINE
  5
3F78
330
18
100
AcDbEntity
  8
最小図面
100
AcDbLine
 10
856.7972803830231
 20
803.4966015390443
 30
0.0
 11
511.227280383023
 21
803.4966015390443
 31
0.0
  0
LINE
  5
3F79
330
18
100
AcDbEntity
  8
最小図面
100
AcDbLine
 10
896.2272803830231
 20
832.9266015390444
 30
0.0
 11
511.227280383023
 21
832.9266015390444
 31
0.0
  0
LINE
  5
3F7A
330
18
100
AcDbEntity
  8
最小図面
100
AcDbLine
 10
911.2272803830231
 20
512.9266015390445
 30
0.0
 11
911.2272803830231
 21
817.9266015390444
 31
0.0
  0
LINE
  5
3F7B
330
18
100
AcDbEntity
  8
最小図面
100
AcDbLine
 10
881.7972803830231
 20
512.9266015390445
 30
0.0
 11
881.7972803830231
 21
778.4966015390442
 31
0.0
  0
ARC
  5
3F7C
330
18
100
AcDbEntity
  8
最小図面
100
AcDbCircle
 10
896.2272803830231
 20
817.9266015390444
 30
0.0
 40
15.0
100
AcDbArc
 50
0.000000000000007
 51
90.0
  0
ARC
  5
3F7D
330
18
100
AcDbEntity
  8
最小図面
100
AcDbCircle
 10
856.7972803830231
 20
778.4966015390442
 30
0.0
 40
25.0
100
AcDbArc
 50
0.000000000000007
 51
90.0
  0
CIRCLE
  5
3F7E
330
18
100
AcDbEntity
  8
最小図面
100
AcDbCircle
 10
892.7272803830231
 20
814.4266015390446
 30
0.0
 40
10.0
  0
DIMENSION
  5
3F80
330
18
100
AcDbEntity
  8
5
 48
5.0
100
AcDbDimension
  2
*D8
 10
-103.7883915120678
 20
192.9266015390444
 30
0.0
 11
-120.0383915120678
 21
512.9266015390444
 31
0.0
 70
    32
  1
<>
  3
GEN-ISO
100
AcDbAlignedDimension
 13
129.7272803830233
 23
832.9266015390444
 33
0.0
 14
126.2272803830233
 24
192.9266015390443
 34
0.0
 50
90.0
100
AcDbRotatedDimension
1001
GENIUS_GENDREL_13
1005
3FB2
1005
0
1040
10.0
1001
GENIUS_GENDTOL_13
1000

1000
h7
1000

1040
0.0
1000
<>
1001
ACAD
1000
DSTYLE
1002
{
1070
   340
1005
F
1070
   178
1070
   256
1070
    40
1040
5.0
1002
}
  0
CIRCLE
  5
3F82
330
18
100
AcDbEntity
  8
最小図面
100
AcDbCircle
 10
234.2272803830232
 20
512.9266015390445
 30
0.0
 40
72.0
  0
LINE
  5
3F83
330
18
100
AcDbEntity
  8
最小図面
100
AcDbLine
 10
111.2272803830232
 20
207.9266015390444
 30
0.0
 11
111.2272803830232
 21
512.9266015390445
 31
0.0
  0
LINE
  5
3F84
330
18
100
AcDbEntity
  8
最小図面
100
AcDbLine
 10
140.6572803830229
 20
247.3566015390445
 30
0.0
 11
140.6572803830229
 21
512.9266015390445
 31
0.0
  0
DIMENSION
  5
3F85
330
18
100
AcDbEntity
  8
5
 48
5.0
100
AcDbDimension
  2
*D3
 10
-9.700818369667556
 20
512.9266015390445
 30
0.0
 11
-25.95254081061253
 21
352.9266015390445
 31
0.0
 70
    32
  1
<>
  3
GEN-ISO
100
AcDbAlignedDimension
 13
129.7272803830233
 23
192.9266015390443
 33
0.0
 14
234.2272803830232
 24
512.9266015390445
 34
0.0
 50
90.0
100
AcDbRotatedDimension
1001
GENIUS_GENDREL_13
1005
0
1005
0
1040
10.0
1001
GENIUS_GENDTOL_13
1000

1000
h7
1000

1040
0.0
1000
<>
1001
ACAD
1000
DSTYLE
1002
{
1070
   340
1005
F
1070
   178
1070
   256
1070
    40
1040
5.0
1002
}
  0
DIMENSION
  5
3F86
330
18
100
AcDbEntity
  8
5
 48
5.0
100
AcDbDimension
  2
*D5
 10
111.7889575831927
 20
115.4613272231197
 30
0.0
 11
63.91624596901952
 21
115.4613272231197
 31
0.0
 70
   160
  1
23
  3
GEN-ISO
100
AcDbAlignedDimension
 13
133.837550826749
 23
85.42246905699926
 33
0.0
 14
111.7889575831927
 24
85.42246905699926
 34
0.0
 50
180.0
100
AcDbRotatedDimension
1001
ACAD
1000
DSTYLE
1002
{
1070
   340
1005
F
1070
   178
1070
   256
1070
    40
1040
5.0
1002
}
  0
LINE
  5
3F88
330
18
100
AcDbEntity
  8
最小図面
100
AcDbLine
 10
307.2272803830232
 20
-3.883530943000778
 30
0.0
 11
161.2272803830228
 21
-3.883530943000778
 31
0.0
  0
ARC
  5
3F8C
330
18
100
AcDbEntity
  8
最小図面
100
AcDbCircle
 10
307.2272803830232
 20
-0.8835309430007781
 30
0.0
 40
3.0
100
AcDbArc
 50
270.0
 51
0.000000000000007
  0
LINE
  5
3F8E
330
18
100
AcDbEntity
  8
最小図面
100
AcDbLine
 10
310.2272803830233
 20
-0.8835309430007781
 30
0.0
 11
310.2272803830233
 21
0.4224690569992621
 31
0.0
  0
DIMENSION
  5
3F90
330
18
100
AcDbEntity
  8
5
 48
5.0
100
AcDbDimension
  2
*D6
 10
50.72728038302329
 20
0.4224690569992789
 30
0.0
 11
34.47728038302329
 21
42.92246905699928
 31
0.0
 70
    32
  1
<>
  3
GEN-ISO
100
AcDbAlignedDimension
 13
116.8613109109172
 23
85.42246905699926
 33
0.0
 14
110.7272803830233
 24
0.4224690569992621
 34
0.0
 50
90.0
100
AcDbRotatedDimension
1001
GENIUS_GENDTOL_13
1000

1000
h7
1000

1040
0.0
1000
<>
1001
ACAD
1000
DSTYLE
1002
{
1070
   340
1005
F
1070
   178
1070
   256
1070
    40
1040
5.0
1002
}
  0
LINE
  5
3F92
330
18
100
AcDbEntity
  8
最小図面
100
AcDbLine
 10
111.7272803830233
 20
80.48446905699917
 30
0.0
 11
110.7272803830233
 21
0.4224690569992621
 31
0.0
  0
LINE
  5
3F97
330
18
100
AcDbEntity
  8
最小図面
100
AcDbLine
 10
158.2272803830228
 20
0.4224690569992621
 30
0.0
 11
115.7272803830233
 21
0.4224690569992621
 31
0.0
  0
LINE
  5
3F9D
330
18
100
AcDbEntity
  8
最小図面
100
AcDbLine
 10
158.2272803830228
 20
-0.8835309430007781
 30
0.0
 11
158.2272803830228
 21
0.308469056999229
 31
0.0
  0
ARC
  5
3F9E
330
18
100
AcDbEntity
  8
最小図面
100
AcDbCircle
 10
157.7272803830233
 20
0.308469056999229
 30
0.0
 40
0.5
100
AcDbArc
 50
0.000000000000007
 51
13.17935192794266
  0
ARC
  5
3FA0
330
18
100
AcDbEntity
  8
最小図面
100
AcDbCircle
 10
161.2272803830228
 20
-0.8835309430007781
 30
0.0
 40
3.0
100
AcDbArc
 50
180.0
 51
270.0
  0
LINE
  5
3FA5
330
18
100
AcDbEntity
  8
最小図面
100
AcDbLine
 10
115.7272803830233
 20
0.4224690569992621
 30
0.0
 11
110.7272803830233
 21
0.4224690569992621
 31
0.0
  0
LINE
  5
3FA7
330
18
100
AcDbEntity
  8
最小図面
100
AcDbLine
 10
129.1862803830236
 20
85.42246905699926
 30
0.0
 11
116.7272803830232
 21
85.42246905699926
 31
0.0
  0
ARC
  5
3FAB
330
18
100
AcDbEntity
  8
最小図面
100
AcDbCircle
 10
116.7272803830232
 20
80.42246905699926
 30
0.0
 40
5.0
100
AcDbArc
 50
90.0
 51
180.0
  0
ARC
  5
3FAC
330
18
100
AcDbEntity
  8
最小図面
100
AcDbCircle
 10
165.6572803830229
 20
247.3566015390445
 30
0.0
 40
25.0
100
AcDbArc
 50
180.0
 51
270.0
  0
ARC
  5
3FAD
330
18
100
AcDbEntity
  8
最小図面
100
AcDbCircle
 10
126.2272803830233
 20
207.9266015390444
 30
0.0
 40
15.0
100
AcDbArc
 50
180.0
 51
270.0
  0
CIRCLE
  5
3FAE
330
18
100
AcDbEntity
  8
最小図面
100
AcDbCircle
 10
129.7272803830233
 20
211.4266015390443
 30
0.0
 40
10.0
  0
LINE
  5
3FB0
330
18
100
AcDbEntity
  8
最小図面
100
AcDbLine
 10
111.2272803830232
 20
512.9266015390445
 30
0.0
 11
111.2272803830232
 21
817.9266015390444
 31
0.0
  0
LINE
  5
3FB1
330
18
100
AcDbEntity
  8
最小図面
100
AcDbLine
 10
140.6572803830229
 20
512.9266015390445
 30
0.0
 11
140.6572803830229
 21
778.4966015390442
 31
0.0
  0
DIMENSION
  5
3FB2
330
18
100
AcDbEntity
  8
5
 48
5.0
100
AcDbDimension
  2
*D7
 10
-9.700818369667556
 20
512.9266015390445
 30
0.0
 11
-25.95254081061251
 21
672.9266015390444
 31
0.0
 70
    32
  1
<>
  3
GEN-ISO
100
AcDbAlignedDimension
 13
129.7272803830233
 23
832.9266015390444
 33
0.0
 14
234.2272803830232
 24
512.9266015390445
 34
0.0
 50
90.0
100
AcDbRotatedDimension
1001
GENIUS_GENDREL_13
1005
0
1005
3F80
1040
10.0
1001
GENIUS_GENDTOL_13
1000

1000
h7
1000

1040
0.0
1000
<>
1001
ACAD
1000
DSTYLE
1002
{
1070
   340
1005
F
1070
   178
1070
   256
1070
    40
1040
5.0
1002
}
  0
ARC
  5
3FB4
330
18
100
AcDbEntity
  8
最小図面
100
AcDbCircle
 10
165.6572803830229
 20
778.4966015390442
 30
0.0
 40
25.0
100
AcDbArc
 50
90.0
 51
180.0
  0
CIRCLE
  5
3FB5
330
18
100
AcDbEntity
  8
最小図面
100
AcDbCircle
 10
129.7272803830233
 20
814.4266015390446
 30
0.0
 40
10.0
  0
ARC
  5
3FB6
330
18
100
AcDbEntity
  8
最小図面
100
AcDbCircle
 10
126.2272803830233
 20
817.9266015390444
 30
0.0
 40
15.0
100
AcDbArc
 50
90.0
 51
180.0
  0
LINE
  5
412E
330
18
100
AcDbEntity
  8
最小図面
100
AcDbLine
 10
1095.738881332191
 20
-109.9927963644941
 30
0.0
 11
1305.738881332192
 21
-109.9927963644941
 31
0.0
  0
TEXT
  5
412F
330
18
100
AcDbEntity
  8
最小図面
100
AcDbText
 10
1102.338881332191
 20
-83.89279636449421
 30
0.0
 40
18.0
  1
品
 72
     1
 11
1110.738881332191
 21
-74.8927963644942
 31
0.0
100
AcDbText
 73
     2
  0
TEXT
  5
4130
330
18
100
AcDbEntity
  8
最小図面
100
AcDbText
 10
1102.338881332191
 20
-107.8927958305335
 30
0.0
 40
18.0
  1
番
 72
     1
 11
1110.738881332191
 21
-98.89279583053353
 31
0.0
100
AcDbText
 73
     2
  0
TEXT
  5
4132
330
18
100
AcDbEntity
  8
最小図面
100
AcDbText
 10
1161.407885750881
 20
-101.5089474639916
 30
0.0
 40
24.0
  1
MB8064
 72
     1
 11
1216.607885750882
 21
-89.50894746399166
 31
0.0
100
AcDbText
 73
     2
  0
LINE
  5
4159
330
18
100
AcDbEntity
  8
最小図面
  6
CONTINUOUS
100
AcDbLine
 10
1095.738881332191
 20
-64.99279636449418
 30
0.0
 11
1095.738881332191
 21
-109.9927968984548
 31
0.0
  0
LINE
  5
415A
330
18
100
AcDbEntity
  8
最小図面
  6
CONTINUOUS
100
AcDbLine
 10
1125.738881332191
 20
-64.99279636449418
 30
0.0
 11
1125.738881332191
 21
-109.9927968984548
 31
0.0
  0
DIMENSION
  5
4199
330
18
100
AcDbEntity
  8
5
 48
5.0
100
AcDbDimension
  2
*D10
 10
185.117131185482
 20
479.3342922139134
 30
0.0
 11
363.3991205510711
 21
601.2826843839065
 31
0.0
 70
   163
  1
%%c<>
  3
GEN-ISO$3
100
AcDbDiametricDimension
 15
283.3374295805639
 25
546.5189108641754
 35
0.0
 40
0.0
1001
ACAD
1000
DSTYLE
1002
{
1070
   287
1070
     3
1070
   340
1005
F
1070
   178
1070
   256
1070
    74
1070
     0
1070
   172
1070
     1
1070
   288
1070
     0
1070
   289
1070
     3
1002
}
  0
DIMENSION
  5
424B
330
18
100
AcDbEntity
  8
5
 48
5.0
100
AcDbDimension
  2
*D12
 10
999.3856805390802
 20
222.3566015390443
 30
0.0
 11
983.1356805390802
 21
512.9266015390444
 31
0.0
 70
    32
  1
594
  3
GEN-ISO
100
AcDbAlignedDimension
 13
856.7972803830231
 23
803.4966015390443
 33
0.0
 14
856.7972803830231
 24
222.3566015390443
 34
0.0
 50
90.0
100
AcDbRotatedDimension
1001
ACAD
1000
DSTYLE
1002
{
1070
   340
1005
F
1070
   178
1070
   256
1002
}
  0
CIRCLE
  5
43E5
330
18
100
AcDbEntity
  8
最小図面
  6
CONTINUOUS
100
AcDbCircle
 10
234.2272803830232
 20
512.9266015390445
 30
0.0
 40
59.5
  0
CIRCLE
  5
43FD
330
18
100
AcDbEntity
  8
5
  6
HIDDEN
100
AcDbCircle
 10
234.2272803830232
 20
709.9266015390444
 30
0.0
 40
59.5
  0
CIRCLE
  5
43FE
330
18
100
AcDbEntity
  8
5
  6
HIDDEN
100
AcDbCircle
 10
234.2272803830232
 20
709.9266015390444
 30
0.0
 40
72.0
  0
CIRCLE
  5
4401
330
18
100
AcDbEntity
  8
5
  6
HIDDEN
100
AcDbCircle
 10
234.2272803830232
 20
315.9266015390443
 30
0.0
 40
59.5
  0
CIRCLE
  5
4402
330
18
100
AcDbEntity
  8
5
  6
HIDDEN
100
AcDbCircle
 10
234.2272803830232
 20
315.9266015390443
 30
0.0
 40
72.0
  0
DIMENSION
  5
442B
330
18
100
AcDbEntity
  8
5
100
AcDbDimension
  2
*D14
 10
61.52011775264647
 20
709.9266015390444
 30
0.0
 11
45.26839531170147
 21
771.4266015390444
 31
0.0
 70
    32
  3
GEN-ISO
100
AcDbAlignedDimension
 13
124.7272803830232
 23
832.9266015390444
 33
0.0
 14
234.2272803830232
 24
709.9266015390444
 34
0.0
 50
90.0
100
AcDbRotatedDimension
1001
ACAD
1000
DSTYLE
1002
{
1070
   340
1005
F
1070
    41
1040
1.5
1070
   147
1040
0.75
1070
   140
1040
1.75
1070
    40
1040
10.0
1070
   176
1070
     3
1070
   177
1070
     3
1070
   178
1070
   256
1070
   272
1070
     2
1070
   274
1070
     2
1070
     5
1000

1070
     6
1000
OPEN
1070
     7
1000
OPEN
1002
}
  0
DIMENSION
  5
4438
330
18
100
AcDbEntity
  8
5
100
AcDbDimension
  2
*D15
 10
55.48695715999881
 20
315.9266015390444
 30
0.0
 11
39.23523471905387
 21
254.4266015390444
 31
0.0
 70
    32
  3
GEN-ISO
100
AcDbAlignedDimension
 13
126.2272803830233
 23
192.9266015390443
 33
0.0
 14
234.2272803830232
 24
315.9266015390443
 34
0.0
 50
90.0
100
AcDbRotatedDimension
1001
ACAD
1000
DSTYLE
1002
{
1070
   340
1005
F
1070
    41
1040
1.5
1070
   147
1040
0.75
1070
   140
1040
1.75
1070
    40
1040
10.0
1070
   176
1070
     3
1070
   177
1070
     3
1070
   178
1070
   256
1070
   272
1070
     2
1070
   274
1070
     2
1070
     5
1000

1070
     6
1000
OPEN
1070
     7
1000
OPEN
1002
}
  0
MTEXT
  5
4494
330
18
100
AcDbEntity
  8
枠
  6
CONTINUOUS
100
AcDbMText
 10
230.227280171478
 20
333.2599338710193
 30
0.0
 40
20.0
 41
88.3474
 71
     1
 72
     5
  1
{\C3;Ｌ}
1001
ACAD
1000
MTEXTBEGIN
1070
    73
1070
     1
1070
    44
1040
1.0
1070
    74
1070
     0
1000
MTEXTEND
1000
MTEXTBEGIN
1070
    73
1070
     1
1070
    44
1040
1.0
1070
    74
1070
     0
1000
MTEXTEND
  0
MTEXT
  5
449A
330
18
100
AcDbEntity
  8
枠
  6
CONTINUOUS
100
AcDbMText
 10
220.2272801714784
 20
727.2599338710197
 30
0.0
 40
20.0
 41
88.3474
 71
     1
 72
     5
  1
{\C3;Ｒ}
1001
ACAD
1000
MTEXTBEGIN
1070
    73
1070
     1
1070
    44
1040
1.0
1070
    74
1070
     0
1000
MTEXTEND
1000
MTEXTBEGIN
1070
    73
1070
     1
1070
    44
1040
1.0
1070
    74
1070
     0
1000
MTEXTEND
  0
MTEXT
  5
44A0
330
18
100
AcDbEntity
  8
枠
  6
CONTINUOUS
100
AcDbMText
 10
246.4472683184543
 20
507.1169169322075
 30
0.0
 40
20.0
 41
88.3474
 71
     1
 72
     5
  1
{\C3;Ｃ}
1001
ACAD
1000
MTEXTBEGIN
1070
    73
1070
     1
1070
    44
1040
1.0
1070
    74
1070
     0
1000
MTEXTEND
1000
MTEXTBEGIN
1070
    73
1070
     1
1070
    44
1040
1.0
1070
    74
1070
     0
1000
MTEXTEND
  0
DIMENSION
  5
46D9
330
18
100
AcDbEntity
  8
枠
  6
CONTINUOUS
100
AcDbDimension
  2
*D21
 10
234.2272803830232
 20
867.2105264568328
 30
0.0
 11
172.7272803830231
 21
890.9622488977777
 31
0.0
 70
    32
  3
GEN-ISO
100
AcDbAlignedDimension
 13
111.2272803830232
 23
817.9266015390444
 33
0.0
 14
234.2272803830232
 24
709.9266015390444
 34
0.0
100
AcDbRotatedDimension
1001
ACAD
1000
DSTYLE
1002
{
1070
   140
1040
1.75
1070
    40
1040
10.0
1070
   176
1070
     3
1070
   177
1070
     3
1070
   178
1070
     3
1070
   272
1070
     2
1070
   274
1070
     2
1070
     5
1000

1070
     6
1000
OPEN
1070
     7
1000
OPEN
1002
}
  0
ENDSEC
  0
SECTION
  2
OBJECTS
  0
DICTIONARY
  5
C
330
0
100
AcDbDictionary
  3
ACAD_GROUP
350
D
  3
ACAD_LAYOUT
350
272B
  3
ACAD_MLINESTYLE
350
1B
  3
ACAD_PLOTSETTINGS
350
272C
  3
ACAD_PLOTSTYLENAME
350
2729
  3
ACAMCATALOGSTATE
350
3F27
  3
ACASAPPOBJECT
350
3EAB
  3
ACASGREF_MASTER
350
3EF3
  3
ACDBHEADERROUNDTRIPXREC
350
4764
  3
ACDBVARIABLEDICTIONARY
350
2739
  3
ACDMSYSVARMGR
350
3E8B
  3
ACGREF_MASTER
350
2746
  3
ACGREFACAD_MASTER
350
274A
  3
ACMDICTIONARY
350
2750
  3
ACME_BOM_MANAGER_NAME
350
273F
  3
ACME_COMMAND_HISTORY
350
2738
  3
ACME_SCOPE_NAME
350
2737
  3
ACMESTATEMGR
350
2744
  3
ACMESYSVARMANAGER
350
273B
  3
ACMSYSTEMVARIABLEMANAGER
350
2754
  3
AD_APPL
350
3F0B
  3
AD_GREF_MODULE
350
3EF4
  3
AD_HOLENOTE_REPOSITORY
350
3F0D
  3
AD_MAPI_MODULE
350
3F10
  3
ADSYSVARMGR
350
3EFD
  3
AMDTNAMEDDWGMGR
350
3EA5
  3
AMG
350
274C
  3
AMGSNAPSETTINGS
350
278B
  3
AMI_MASTER
350
274B
  3
ASURF_STATIC_VARS
350
3EAC
  3
AUTOCAD_ASSEMBLIES_PROJECT
350
3F1B
  3
AUTOSURF_SYSVARS
350
3EAD
  3
DESIGNER_ASSEMBLIES_SYSVARS
350
3F12
  3
DWGPROPS
350
437C
  3
GREFAM_MODULE
350
3EF6
  3
MAPISURF_MODULE
350
3EF5
  0
DICTIONARY
  5
2793
330
18
100
AcDbDictionary
280
     1
  3
ACAD_INDEX
360
44A2
  3
ACAD_LAYOUTSELFREF
360
4786
  0
DICTIONARY
  5
46B5
330
15
100
AcDbDictionary
280
     1
  3
ACAD_LAYOUTSELFREF
360
4785
  0
DICTIONARY
  5
D
102
{ACAD_REACTORS
330
C
102
}
330
C
100
AcDbDictionary
  0
DICTIONARY
  5
272B
102
{ACAD_REACTORS
330
C
102
}
330
C
100
AcDbDictionary
  0
DICTIONARY
  5
1B
102
{ACAD_REACTORS
330
C
102
}
330
C
100
AcDbDictionary
  3
STANDARD
350
1C
  0
DICTIONARY
  5
272C
102
{ACAD_REACTORS
330
C
102
}
330
C
100
AcDbDictionary
  0
ACDBDICTIONARYWDFLT
  5
2729
102
{ACAD_REACTORS
330
C
102
}
330
C
100
AcDbDictionary
281
     1
  3
Normal
350
272A
100
AcDbDictionaryWithDefault
340
272A
  0
ACAD_PROXY_OBJECT
  5
3F27
102
{ACAD_REACTORS
330
C
102
}
330
C
100
AcDbProxyObject
 90
      499
 91
      585
 93
      392
310
3FFFFFFFE00A028140292219D2E494348DD4BB82E21A0A241B340ADC1AF2E41A541AF41C6C1A7BB37B61A9AAE1818C00AA00
 94
        0
1001
ACAD
1000
AcadProxyRoundTripData
1071
      580
1071
   655383
1070
     0
  0
ACAD_PROXY_OBJECT
  5
3EAB
102
{ACAD_REACTORS
330
C
102
}
330
C
100
AcDbProxyObject
 90
      499
 91
      585
 93
       10
310
4044
 94
        0
1001
ACAD
1000
AcadProxyRoundTripData
1071
      553
1071
   655383
1070
     0
  0
ACAD_PROXY_OBJECT
  5
3EF3
102
{ACAD_REACTORS
330
C
102
}
330
C
100
AcDbProxyObject
 90
      499
 91
      585
 93
       34
310
0100004059
 94
        0
1001
ACAD
1000
AcadProxyRoundTripData
1071
      558
1071
   655383
1070
     0
  0
DICTIONARY
  5
4764
102
{ACAD_REACTORS
330
C
102
}
330
C
100
AcDbDictionary
  3
CEPSNTYPE
350
476E
  3
DIMSTYLEDATA
350
4772
  3
FINGERPRINTGUID
350
476F
  3
HYPERLINKBASE
350
4767
  3
INSUNITS
350
476D
  3
LAYOUTDICT
350
4769
  3
LWETCUNION
350
476C
  3
PLOTSETDICT
350
476A
  3
PLOTSTYLNAMDICT
350
476B
  3
PSVPSCALE
350
4771
  3
PUCSBASE
350
4775
  3
PUCSORGBACK
350
477B
  3
PUCSORGBOTTOM
350
4777
  3
PUCSORGFRONT
350
477A
  3
PUCSORGLEFT
350
4778
  3
PUCSORGRIGHT
350
4779
  3
PUCSORGTOP
350
4776
  3
PUCSORTHOREF
350
4773
  3
PUCSORTHOVIEW
350
4774
  3
STYLESHEET
350
4768
  3
TSTACKALIGN
350
4765
  3
TSTACKSIZE
350
4766
  3
UCSBASE
350
477E
  3
UCSORGBACK
350
4784
  3
UCSORGBOTTOM
350
4780
  3
UCSORGFRONT
350
4783
  3
UCSORGLEFT
350
4781
  3
UCSORGRIGHT
350
4782
  3
UCSORGTOP
350
477F
  3
UCSORTHOREF
350
477C
  3
UCSORTHOVIEW
350
477D
  3
VERSIONGUID
350
4770
  0
DICTIONARY
  5
2739
102
{ACAD_REACTORS
330
C
102
}
330
C
100
AcDbDictionary
  3
INDEXCTL
350
273A
  0
ACAD_PROXY_OBJECT
  5
3E8B
102
{ACAD_REACTORS
330
C
102
}
330
C
100
AcDbProxyObject
 90
      499
 91
      585
 93
      224
310
4C518472000000000000000000000000000000000000000000000000B1
330
3E8C
330
3E8D
330
3E8E
330
3E8F
330
3E90
330
3E91
330
3E92
330
3E94
330
3E95
330
3E96
330
3E97
330
3E98
330
3E99
330
3E9A
330
3E9B
330
3E9C
330
3E9D
330
3E9E
330
3E9F
330
3EA0
330
3EA1
330
3EA2
330
3EA3
330
3EA4
 94
        0
1001
ACAD
1000
AcadProxyRoundTripData
1071
      508
1071
   655383
1070
     0
  0
ACAD_PROXY_OBJECT
  5
2746
102
{ACAD_REACTORS
330
C
102
}
330
C
100
AcDbProxyObject
 90
      499
 91
      585
 93
       34
310
0400004299
 94
        0
1001
ACAD
1000
AcadProxyRoundTripData
1071
      517
1071
   655383
1070
     0
  0
ACAD_PROXY_OBJECT
  5
274A
102
{ACAD_REACTORS
330
C
102
}
330
C
100
AcDbProxyObject
 90
      499
 91
      585
 93
      114
310
04000041C000000000000000000000
 94
        0
1001
ACAD
1000
AcadProxyRoundTripData
1071
      520
1071
   655383
1070
     0
  0
DICTIONARY
  5
2750
102
{ACAD_REACTORS
330
C
102
}
330
C
100
AcDbDictionary
  3
ACMBOMDATA
350
2751
  3
ACMSTDDICTIONARY
350
2756
  0
ACAD_PROXY_OBJECT
  5
273F
102
{ACAD_REACTORS
330
C
102
}
330
C
100
AcDbProxyObject
 90
      499
 91
      585
 93
       50
310
00010040400000
330
0
330
0
330
2740
 94
        0
1001
ACAD
1000
AcadProxyRoundTripData
1071
      511
1071
   655383
1070
     0
  0
ACAD_PROXY_OBJECT
  5
2738
102
{ACAD_REACTORS
330
C
102
}
330
C
100
AcDbProxyObject
 90
      499
 91
      585
 93
     2342
310
4780504554E444F80504554E444F80504504C4F548050E414D4454524553455444424D4F4440805084E202D20554E444F014213880B4815539113C0504554E444F80504554E444F80504554E444F80504554E444F80504554E444F80504504C4F548050E414D4454524553455444424D4F4440805084E202D20554E444F014
310
213880B4815539113C0504554E444F80504554E444F80504554E444F80504554E444F80504554E444F80504554E444F80504554E444F80504554E444F8050E414D4454524553455444424D4F4440805084E202D20554E444F014213880B4815539113C0504554E444F80504554E444F80504554E444F80504554E444F80504
310
554E444F80504554E444F80504554E444F80504554E444F8050644444544495480504504C4F548
 94
        0
1001
ACAD
1000
AcadProxyRoundTripData
1071
      506
1071
   655383
1070
     0
  0
ACAD_PROXY_OBJECT
  5
2737
102
{ACAD_REACTORS
330
C
102
}
330
C
100
AcDbProxyObject
 90
      499
 91
      585
 93
     1234
310
05000044000000000000000000001856260000000000000000000000000000000000000000000000000000000000000000000000000000000000000000000000000000000000000000000000000000000000000000000000000000000000000000000000000000000000000000000000000000000000000000000000000000
310
0000000000000000000000000000000000000000000000AAA406AA80
360
273C
360
273D
360
273E
360
2740
360
2755
360
29E9
360
3E86
360
3E87
360
3E88
360
3E89
360
3E8C
360
3E8D
360
3E8E
360
3E8F
360
3E90
360
3E91
360
3E92
360
3E94
360
3E95
360
3E96
360
3E97
360
3E98
360
3E99
360
3E9A
360
3E9B
360
3E9C
360
3E9D
360
3E9E
360
3E9F
360
3EA0
360
3EA1
360
3EA2
360
3EA3
360
3EA4
360
3EAE
360
3EAF
360
3EB0
360
3EB1
360
3EB2
360
3EB3
360
3EB4
360
3EB5
360
3EB6
360
3EB7
360
3EB8
360
3EB9
360
3EBA
360
3EBB
360
3EBC
360
3EBD
360
3EBE
360
3EBF
360
3EC0
360
3EC1
360
3EC2
360
3EC3
360
3EC4
360
3EC5
360
3EC6
360
3EC7
360
3EC8
360
3EC9
360
3ECA
360
3ECB
360
3ECC
360
3ECD
360
3ECE
360
3ECF
360
3ED0
360
3ED1
360
3ED2
360
3ED3
360
3ED4
360
3ED5
360
3ED6
360
3ED7
360
3ED8
360
3ED9
360
3EDA
360
3EDB
360
3EDC
360
3EDD
360
3EDE
360
3EDF
360
3EE0
360
3EE1
360
3EE2
360
3EE3
360
3EE4
360
3EE5
360
3EE6
360
3EE7
360
3EE8
360
3EE9
360
3EEA
360
3EEB
360
3EEC
360
3EED
360
3EEE
360
3EEF
360
3EF9
360
3EFA
360
3EFB
360
3EFC
360
3EFE
360
3EFF
360
3F00
360
3F01
360
3F02
360
3F03
360
3F04
360
3F05
360
3F06
360
3F07
360
3F08
360
3F09
360
3F0A
360
3F0C
360
3F0E
360
3F13
360
3F14
360
3F15
360
3F16
360
3F17
360
3F18
360
3F19
360
3F1A
360
3F1F
360
3F20
360
3F21
360
3F22
360
3F23
360
3F24
 94
        0
1001
ACAD
1000
AcadProxyRoundTripData
1071
      505
1071
   655383
1070
     0
  0
ACAD_PROXY_OBJECT
  5
2744
102
{ACAD_REACTORS
330
C
102
}
330
C
100
AcDbProxyObject
 90
      499
 91
      585
 93
       50
310
05000041241280
 94
        0
1001
ACAD
1000
AcadProxyRoundTripData
1071
      516
1071
   655383
1070
     0
  0
ACAD_PROXY_OBJECT
  5
273B
102
{ACAD_REACTORS
330
C
102
}
330
C
100
AcDbProxyObject
 90
      499
 91
      585
 93
       48
310
90341200000011
330
273C
330
273D
330
273E
 94
        0
1001
ACAD
1000
AcadProxyRoundTripData
1071
      508
1071
   655383
1070
     0
  0
ACAD_PROXY_OBJECT
  5
2754
102
{ACAD_REACTORS
330
C
102
}
330
C
100
AcDbProxyObject
 90
      499
 91
      585
 93
       32
310
90140A0000
330
2755
 94
        0
1001
ACAD
1000
AcadProxyRoundTripData
1071
      508
1071
   655383
1070
     0
  0
ACAD_PROXY_OBJECT
  5
3F0B
102
{ACAD_REACTORS
330
C
102
}
330
C
100
AcDbProxyObject
 90
      499
 91
      585
 93
       42
310
000500004381
330
3EF9
 94
        0
1001
ACAD
1000
AcadProxyRoundTripData
1071
      567
1071
   655383
1070
     0
  0
ACAD_PROXY_OBJECT
  5
3EF4
102
{ACAD_REACTORS
330
C
102
}
330
C
100
AcDbProxyObject
 90
      499
 91
      585
 93
      114
310
000000438000000000000000000000
 94
        0
1001
ACAD
1000
AcadProxyRoundTripData
1071
      559
1071
   655383
1070
     0
  0
ACAD_PROXY_OBJECT
  5
3F0D
102
{ACAD_REACTORS
330
C
102
}
330
C
100
AcDbProxyObject
 90
      499
 91
      585
 93
        8
310
0000
330
3F0C
 94
        0
1001
ACAD
1000
AcadProxyRoundTripData
1071
      569
1071
   655383
1070
     0
  0
ACAD_PROXY_OBJECT
  5
3F10
102
{ACAD_REACTORS
330
C
102
}
330
C
100
AcDbProxyObject
 90
      499
 91
      585
 93
       34
310
05000044D9
 94
        0
1001
ACAD
1000
AcadProxyRoundTripData
1071
      571
1071
   655383
1070
     0
  0
ACAD_PROXY_OBJECT
  5
3EFD
102
{ACAD_REACTORS
330
C
102
}
330
C
100
AcDbProxyObject
 90
      499
 91
      585
 93
      136
310
90E44A000000000000000000000000000000
330
3EFE
330
3EFF
330
3F00
330
3F01
330
3F02
330
3F03
330
3F04
330
3F05
330
3F06
330
3F07
330
3F08
330
3F09
330
3F0A
330
3F0E
 94
        0
1001
ACAD
1000
AcadProxyRoundTripData
1071
      508
1071
   655383
1070
     0
  0
ACAD_PROXY_OBJECT
  5
3EA5
102
{ACAD_REACTORS
330
C
102
}
330
C
100
AcDbProxyObject
 90
      499
 91
      585
 93
       42
310
0001000055C1
330
3E86
 94
        0
1001
ACAD
1000
AcadProxyRoundTripData
1071
      550
1071
   655383
1070
     0
  0
DICTIONARY
  5
274C
102
{ACAD_REACTORS
330
C
102
}
330
C
100
AcDbDictionary
  3
ACMGSETTINGS
350
274D
  3
AMGLAYCFG
350
2758
  0
DICTIONARY
  5
278B
102
{ACAD_REACTORS
330
C
102
}
330
C
100
AcDbDictionary
  3
DIMENSION
350
2790
  3
FEA
350
278F
  3
HATCH__1_
350
278C
  3
HATCH__2_
350
278D
  3
SIMPLE_WELD
350
2791
  3
SYMBOLS
350
278E
  0
ACAD_PROXY_OBJECT
  5
274B
102
{ACAD_REACTORS
330
C
102
}
330
C
100
AcDbProxyObject
 90
      499
 91
      585
 93
       34
310
0500004299
 94
        0
1001
ACAD
1000
AcadProxyRoundTripData
1071
      521
1071
   655383
1070
     0
  0
ACAD_PROXY_OBJECT
  5
3EAC
102
{ACAD_REACTORS
330
C
102
}
330
C
100
AcDbProxyObject
 90
      499
 91
      585
 93
      424
310
585314D60000000000000000000000000000000000000000000000000000000000000000000000000000000000000000000000000000
330
3EBF
330
3EC0
330
3EC1
330
3EC2
330
3EC3
330
3EC4
330
3EC5
330
3EC6
330
3EC7
330
3EC8
330
3EC9
330
3ECA
330
3ECB
330
3ECC
330
3ECD
330
3ECE
330
3ECF
330
3ED0
330
3ED1
330
3ED2
330
3ED3
330
3ED4
330
3ED5
330
3ED6
330
3ED7
330
3ED8
330
3ED9
330
3EDA
330
3EDB
330
3EDC
330
3EDD
330
3EDE
330
3EDF
330
3EE0
330
3EE1
330
3EE2
330
3EE3
330
3EE4
330
3EE5
330
3EE6
330
3EE7
330
3EE8
330
3EE9
330
3EEA
330
3EEB
330
3EEC
330
3EED
330
3EEE
330
3EEF
 94
        0
1001
ACAD
1000
AcadProxyRoundTripData
1071
      554
1071
   655383
1070
     0
  0
ACAD_PROXY_OBJECT
  5
3F1B
102
{ACAD_REACTORS
330
C
102
}
330
C
100
AcDbProxyObject
 90
      499
 91
      585
 93
       74
310
05000049800000000000
330
3F22
330
0
330
3F23
330
0
330
0
 94
        0
1001
ACAD
1000
AcadProxyRoundTripData
1071
      573
1071
   655383
1070
     0
  0
ACAD_PROXY_OBJECT
  5
3EAD
102
{ACAD_REACTORS
330
C
102
}
330
C
100
AcDbProxyObject
 90
      499
 91
      585
 93
      168
310
4C511456000000000000000000000000000000000000
330
3EAE
330
3EAF
330
3EB0
330
3EB1
330
3EB2
330
3EB3
330
3EB4
330
3EB5
330
3EB6
330
3EB7
330
3EB8
330
3EB9
330
3EBA
330
3EBB
330
3EBC
330
3EBD
330
3EBE
 94
        0
1001
ACAD
1000
AcadProxyRoundTripData
1071
      508
1071
   655383
1070
     0
  0
ACAD_PROXY_OBJECT
  5
3F12
102
{ACAD_REACTORS
330
C
102
}
330
C
100
AcDbProxyObject
 90
      499
 91
      585
 93
       88
310
908432000000000000000000
330
3F13
330
3F14
330
3F15
330
3F16
330
3F17
330
3F18
330
3F19
330
3F1A
 94
        0
1001
ACAD
1000
AcadProxyRoundTripData
1071
      508
1071
   655383
1070
     0
  0
XRECORD
  5
437C
102
{ACAD_REACTORS
330
C
102
}
330
C
100
AcDbXrecord
  1
DWGPROPS COOKIE
  2

  3

  4

  6

  7

  8

  9

300
AmdtFileType=84
301
=
302
=
303
=
304
=
305
=
306
=
307
=
308
=
309
=
 40
0.3264967939814815
 41
2451332.598188681
 42
2454487.716048946
  1

 90
        1
  0
ACAD_PROXY_OBJECT
  5
3EF6
102
{ACAD_REACTORS
330
C
102
}
330
C
100
AcDbProxyObject
 90
      499
 91
      585
 93
        8
310
0500
 94
        0
1001
ACAD
1000
AcadProxyRoundTripData
1071
      561
1071
   655383
1070
     0
  0
ACAD_PROXY_OBJECT
  5
3EF5
102
{ACAD_REACTORS
330
C
102
}
330
C
100
AcDbProxyObject
 90
      499
 91
      585
 93
        8
310
0400
 94
        0
1001
ACAD
1000
AcadProxyRoundTripData
1071
      560
1071
   655383
1070
     0
  0
DICTIONARY
  5
44A2
102
{ACAD_REACTORS
330
2793
102
}
330
2793
100
AcDbDictionary
  3
*A1
350
44A3
  0
XRECORD
  5
4786
102
{ACAD_REACTORS
330
2793
102
}
330
2793
100
AcDbXrecord
340
18
  0
XRECORD
  5
4785
102
{ACAD_REACTORS
330
46B5
102
}
330
46B5
100
AcDbXrecord
340
15
  0
MLINESTYLE
  5
1C
102
{ACAD_REACTORS
330
1B
102
}
330
1B
100
AcDbMlineStyle
  2
STANDARD
 70
     0
  3

 62
   256
 51
90.0
 52
90.0
 71
     2
 49
0.5
 62
   256
  6
BYLAYER
 49
-0.5
 62
   256
  6
BYLAYER
  0
ACDBPLACEHOLDER
  5
272A
102
{ACAD_REACTORS
330
2729
102
}
330
2729
100
AcDbPlaceHolder
280
     0
  0
XRECORD
  5
476E
102
{ACAD_REACTORS
330
4764
102
}
330
4764
100
AcDbXrecord
 90
        0
  0
XRECORD
  5
4772
102
{ACAD_REACTORS
330
4764
102
}
330
4764
100
AcDbXrecord
1000
DSTYLE
1002
{
1070
   341
340
A07
1070
   343
340
A07
1070
   344
340
A07
1002
}
  0
XRECORD
  5
476F
102
{ACAD_REACTORS
330
4764
102
}
330
4764
100
AcDbXrecord
  1
{935A57F6-5EC8-447F-B215-0075650EC403}
  0
XRECORD
  5
4767
102
{ACAD_REACTORS
330
4764
102
}
330
4764
100
AcDbXrecord
  1

  0
XRECORD
  5
476D
102
{ACAD_REACTORS
330
4764
102
}
330
4764
100
AcDbXrecord
 90
        0
  0
XRECORD
  5
4769
102
{ACAD_REACTORS
330
4764
102
}
330
4764
100
AcDbXrecord
340
272B
  0
XRECORD
  5
476C
102
{ACAD_REACTORS
330
4764
102
}
330
4764
100
AcDbXrecord
 90
    10781
  0
XRECORD
  5
476A
102
{ACAD_REACTORS
330
4764
102
}
330
4764
100
AcDbXrecord
340
272C
  0
XRECORD
  5
476B
102
{ACAD_REACTORS
330
4764
102
}
330
4764
100
AcDbXrecord
340
2729
  0
XRECORD
  5
4771
102
{ACAD_REACTORS
330
4764
102
}
330
4764
100
AcDbXrecord
 40
0.0
  0
XRECORD
  5
4775
102
{ACAD_REACTORS
330
4764
102
}
330
4764
100
AcDbXrecord
340
0
  0
XRECORD
  5
477B
102
{ACAD_REACTORS
330
4764
102
}
330
4764
100
AcDbXrecord
 10
0.0
 20
0.0
 30
0.0
  0
XRECORD
  5
4777
102
{ACAD_REACTORS
330
4764
102
}
330
4764
100
AcDbXrecord
 10
0.0
 20
0.0
 30
0.0
  0
XRECORD
  5
477A
102
{ACAD_REACTORS
330
4764
102
}
330
4764
100
AcDbXrecord
 10
0.0
 20
0.0
 30
0.0
  0
XRECORD
  5
4778
102
{ACAD_REACTORS
330
4764
102
}
330
4764
100
AcDbXrecord
 10
0.0
 20
0.0
 30
0.0
  0
XRECORD
  5
4779
102
{ACAD_REACTORS
330
4764
102
}
330
4764
100
AcDbXrecord
 10
0.0
 20
0.0
 30
0.0
  0
XRECORD
  5
4776
102
{ACAD_REACTORS
330
4764
102
}
330
4764
100
AcDbXrecord
 10
0.0
 20
0.0
 30
0.0
  0
XRECORD
  5
4773
102
{ACAD_REACTORS
330
4764
102
}
330
4764
100
AcDbXrecord
340
0
  0
XRECORD
  5
4774
102
{ACAD_REACTORS
330
4764
102
}
330
4764
100
AcDbXrecord
 70
     0
  0
XRECORD
  5
4768
102
{ACAD_REACTORS
330
4764
102
}
330
4764
100
AcDbXrecord
  1
monochrome.ctb
  0
XRECORD
  5
4765
102
{ACAD_REACTORS
330
4764
102
}
330
4764
100
AcDbXrecord
 90
        1
  0
XRECORD
  5
4766
102
{ACAD_REACTORS
330
4764
102
}
330
4764
100
AcDbXrecord
 90
       70
  0
XRECORD
  5
477E
102
{ACAD_REACTORS
330
4764
102
}
330
4764
100
AcDbXrecord
340
0
  0
XRECORD
  5
4784
102
{ACAD_REACTORS
330
4764
102
}
330
4764
100
AcDbXrecord
 10
0.0
 20
0.0
 30
0.0
  0
XRECORD
  5
4780
102
{ACAD_REACTORS
330
4764
102
}
330
4764
100
AcDbXrecord
 10
0.0
 20
0.0
 30
0.0
  0
XRECORD
  5
4783
102
{ACAD_REACTORS
330
4764
102
}
330
4764
100
AcDbXrecord
 10
0.0
 20
0.0
 30
0.0
  0
XRECORD
  5
4781
102
{ACAD_REACTORS
330
4764
102
}
330
4764
100
AcDbXrecord
 10
0.0
 20
0.0
 30
0.0
  0
XRECORD
  5
4782
102
{ACAD_REACTORS
330
4764
102
}
330
4764
100
AcDbXrecord
 10
0.0
 20
0.0
 30
0.0
  0
XRECORD
  5
477F
102
{ACAD_REACTORS
330
4764
102
}
330
4764
100
AcDbXrecord
 10
0.0
 20
0.0
 30
0.0
  0
XRECORD
  5
477C
102
{ACAD_REACTORS
330
4764
102
}
330
4764
100
AcDbXrecord
340
0
  0
XRECORD
  5
477D
102
{ACAD_REACTORS
330
4764
102
}
330
4764
100
AcDbXrecord
 70
     0
  0
XRECORD
  5
4770
102
{ACAD_REACTORS
330
4764
102
}
330
4764
100
AcDbXrecord
  1
{FA2EEA41-AF9D-4217-B753-44460F4F8A1B}
  0
DICTIONARYVAR
  5
273A
102
{ACAD_REACTORS
330
2739
102
}
330
2739
100
DictionaryVariables
280
     0
  1
1
  0
ACAD_PROXY_OBJECT
  5
2751
102
{ACAD_REACTORS
330
2750
102
}
330
2750
100
AcDbProxyObject
 90
      499
 91
      585
 93
      118
310
405010040CA904C415CD5B07545068
350
2752
 94
        0
1001
ACAD
1000
AcadProxyRoundTripData
1071
      523
1071
   655383
1070
     0
  0
DICTIONARY
  5
2756
102
{ACAD_REACTORS
330
2750
102
}
330
2750
100
AcDbDictionary
  3
ISO
350
2757
  0
ACAD_PROXY_OBJECT
  5
273C
330
0
100
AcDbProxyObject
 90
      499
 91
      585
 93
      156
310
00010143D050D351505391D5531054925390D490
330
2737
 94
        0
1001
ACAD
1000
AcadProxyRoundTripData
1071
      509
1071
   655383
1070
     0
  0
ACAD_PROXY_OBJECT
  5
273D
330
0
100
AcDbProxyObject
 90
      499
 91
      585
 93
      148
310
000101439050D351531253915054925390D494
330
2737
 94
        0
1001
ACAD
1000
AcadProxyRoundTripData
1071
      509
1071
   655383
1070
     0
  0
ACAD_PROXY_OBJECT
  5
273E
330
0
100
AcDbProxyObject
 90
      499
 91
      585
 93
      156
310
000101439050D35154D6535093D314D256915080
330
2737
 94
        0
1001
ACAD
1000
AcadProxyRoundTripData
1071
      510
1071
   655383
1070
     0
  0
ACAD_PROXY_OBJECT
  5
2740
330
0
100
AcDbProxyObject
 90
      499
 91
      585
 93
      120
310
000101422565255A6557080C402B0000
330
2737
330
0
330
0
 94
        0
1001
ACAD
1000
AcadProxyRoundTripData
1071
      512
1071
   655383
1070
     0
  0
ACAD_PROXY_OBJECT
  5
2755
330
0
100
AcDbProxyObject
 90
      499
 91
      585
 93
      140
310
00010142105350D55494D5110050349534F1
330
2737
 94
        0
1001
ACAD
1000
AcadProxyRoundTripData
1071
      525
1071
   655383
1070
     0
  0
ACAD_PROXY_OBJECT
  5
29E9
330
0
100
AcDbProxyObject
 90
      499
 91
      585
 93
       28
310
00014062
330
2737
 94
        0
1001
ACAD
1000
AcadProxyRoundTripData
1071
      545
1071
   655383
1070
     0
  0
ACAD_PROXY_OBJECT
  5
3E86
330
0
100
AcDbProxyObject
 90
      499
 91
      585
 93
      358
310
0001014124FEA55D00507352E312E342E31014124FEA55D00507352E312E342E3140501000041505391D311658
330
2737
330
3E87
330
3E8B
 94
        0
1001
ACAD
1000
AcadProxyRoundTripData
1071
      546
1071
   655383
1070
     0
  0
ACAD_PROXY_OBJECT
  5
3E87
330
0
100
AcDbProxyObject
 90
      499
 91
      585
 93
       48
310
000190140A0011
330
2737
330
3E88
 94
        0
1001
ACAD
1000
AcadProxyRoundTripData
1071
      547
1071
   655383
1070
     0
  0
ACAD_PROXY_OBJECT
  5
3E88
330
0
100
AcDbProxyObject
 90
      499
 91
      585
 93
       48
310
0001AA00000011
330
2737
330
272E
330
3E89
330
0
 94
        0
1001
ACAD
1000
AcadProxyRoundTripData
1071
      548
1071
   655383
1070
     0
  0
ACAD_PROXY_OBJECT
  5
3E89
330
0
100
AcDbProxyObject
 90
      499
 91
      585
 93
       28
310
0001AAA2
330
2737
 94
        0
1001
ACAD
1000
AcadProxyRoundTripData
1071
      549
1071
   655383
1070
     0
  0
ACAD_PROXY_OBJECT
  5
3E8C
330
0
100
AcDbProxyObject
 90
      499
 91
      585
 93
      108
310
000101421053521310D05310D017
330
2737
 94
        0
1001
ACAD
1000
AcadProxyRoundTripData
1071
      510
1071
   655383
1070
     0
  0
ACAD_PROXY_OBJECT
  5
3E8D
330
0
100
AcDbProxyObject
 90
      499
 91
      585
 93
      124
310
00010142905354915554D15112535010
330
2737
 94
        0
1001
ACAD
1000
AcadProxyRoundTripData
1071
      510
1071
   655383
1070
     0
  0
ACAD_PROXY_OBJECT
  5
3E8E
330
0
100
AcDbProxyObject
 90
      499
 91
      585
 93
      132
310
00010143105354D150D51253D391125360
330
2737
 94
        0
1001
ACAD
1000
AcadProxyRoundTripData
1071
      510
1071
   655383
1070
     0
  0
ACAD_PROXY_OBJECT
  5
3E8F
330
0
100
AcDbProxyObject
 90
      499
 91
      585
 93
      124
310
00010142905355941093D49111549013
330
2737
 94
        0
1001
ACAD
1000
AcadProxyRoundTripData
1071
      510
1071
   655383
1070
     0
  0
ACAD_PROXY_OBJECT
  5
3E90
330
0
100
AcDbProxyObject
 90
      499
 91
      585
 93
      116
310
0001014290535115D1D0D3D313D4A0
330
2737
 94
        0
1001
ACAD
1000
AcadProxyRoundTripData
1071
      510
1071
   655383
1070
     0
  0
ACAD_PROXY_OBJECT
  5
3E91
330
0
100
AcDbProxyObject
 90
      499
 91
      585
 93
      148
310
00010143505355925155D49151949154D21010
330
2737
 94
        0
1001
ACAD
1000
AcadProxyRoundTripData
1071
      510
1071
   655383
1070
     0
  0
ACAD_PROXY_OBJECT
  5
3E92
330
0
100
AcDbProxyObject
 90
      499
 91
      585
 93
      172
310
00010144105350539393D51154149154D1549591501A
330
2737
 94
        0
1001
ACAD
1000
AcadProxyRoundTripData
1071
      510
1071
   655383
1070
     0
  0
ACAD_PROXY_OBJECT
  5
3E94
330
0
100
AcDbProxyObject
 90
      499
 91
      585
 93
      172
310
00010144105350555513D11253505494905391D1501A
330
2737
 94
        0
1001
ACAD
1000
AcadProxyRoundTripData
1071
      510
1071
   655383
1070
     0
  0
ACAD_PROXY_OBJECT
  5
3E95
330
0
100
AcDbProxyObject
 90
      499
 91
      585
 93
      124
310
00010142D05351561514915191125364
330
2737
 94
        0
1001
ACAD
1000
AcadProxyRoundTripData
1071
      510
1071
   655383
1070
     0
  0
ACAD_PROXY_OBJECT
  5
3E96
330
0
100
AcDbProxyObject
 90
      499
 91
      585
 93
      132
310
00010142D05355105410539393D5115010
330
2737
 94
        0
1001
ACAD
1000
AcadProxyRoundTripData
1071
      510
1071
   655383
1070
     0
  0
ACAD_PROXY_OBJECT
  5
3E97
330
0
100
AcDbProxyObject
 90
      499
 91
      585
 93
      108
310
00010142105350555513D0D31015
330
2737
 94
        0
1001
ACAD
1000
AcadProxyRoundTripData
1071
      510
1071
   655383
1070
     0
  0
ACAD_PROXY_OBJECT
  5
3E98
330
0
100
AcDbProxyObject
 90
      499
 91
      585
 93
      108
310
00010142105350D3119150551055
330
2737
 94
        0
1001
ACAD
1000
AcadProxyRoundTripData
1071
      510
1071
   655383
1070
     0
  0
ACAD_PROXY_OBJECT
  5
3E99
330
0
100
AcDbProxyObject
 90
      499
 91
      585
 93
      108
310
00010142105350D315925155D3F5
330
2737
 94
        0
1001
ACAD
1000
AcadProxyRoundTripData
1071
      510
1071
   655383
1070
     0
  0
ACAD_PROXY_OBJECT
  5
3E9A
330
0
100
AcDbProxyObject
 90
      499
 91
      585
 93
      148
310
0001014350535212511156915493D112535011
330
2737
 94
        0
1001
ACAD
1000
AcadProxyRoundTripData
1071
      510
1071
   655383
1070
     0
  0
ACAD_PROXY_OBJECT
  5
3E9B
330
0
100
AcDbProxyObject
 90
      499
 91
      585
 93
      116
310
00010142905352105510D21254D3E1
330
2737
 94
        0
1001
ACAD
1000
AcadProxyRoundTripData
1071
      510
1071
   655383
1070
     0
  0
ACAD_PROXY_OBJECT
  5
3E9C
330
0
100
AcDbProxyObject
 90
      499
 91
      585
 93
      148
310
00010143905354D25391D31152105513105661
330
2737
 94
        0
1001
ACAD
1000
AcadProxyRoundTripData
1071
      510
1071
   655383
1070
     0
  0
ACAD_PROXY_OBJECT
  5
3E9D
330
0
100
AcDbProxyObject
 90
      499
 91
      585
 93
      124
310
00010142D0535115D1D193111254D423
330
2737
 94
        0
1001
ACAD
1000
AcadProxyRoundTripData
1071
      510
1071
   655383
1070
     0
  0
ACAD_PROXY_OBJECT
  5
3E9E
330
0
100
AcDbProxyObject
 90
      499
 91
      585
 93
      100
310
00010142105350555513D213A2
330
2737
 94
        0
1001
ACAD
1000
AcadProxyRoundTripData
1071
      510
1071
   655383
1070
     0
  0
ACAD_PROXY_OBJECT
  5
3E9F
330
0
100
AcDbProxyObject
 90
      499
 91
      585
 93
      116
310
000101425053521390D3D553951014
330
2737
 94
        0
1001
ACAD
1000
AcadProxyRoundTripData
1071
      510
1071
   655383
1070
     0
  0
ACAD_PROXY_OBJECT
  5
3EA0
330
0
100
AcDbProxyObject
 90
      499
 91
      585
 93
      108
310
0001014210535213941493D29010
330
2737
 94
        0
1001
ACAD
1000
AcadProxyRoundTripData
1071
      510
1071
   655383
1070
     0
  0
ACAD_PROXY_OBJECT
  5
3EA1
330
0
100
AcDbProxyObject
 90
      499
 91
      585
 93
      108
310
0001014210535213951654115070
330
2737
 94
        0
1001
ACAD
1000
AcadProxyRoundTripData
1071
      510
1071
   655383
1070
     0
  0
ACAD_PROXY_OBJECT
  5
3EA2
330
0
100
AcDbProxyObject
 90
      499
 91
      585
 93
      108
310
000101421053521395925155D0F0
330
2737
 94
        0
1001
ACAD
1000
AcadProxyRoundTripData
1071
      510
1071
   655383
1070
     0
  0
ACAD_PROXY_OBJECT
  5
3EA3
330
0
100
AcDbProxyObject
 90
      499
 91
      585
 93
      140
310
00010143505354D150D51253D390D3D41666
330
2737
 94
        0
1001
ACAD
1000
AcadProxyRoundTripData
1071
      510
1071
   655383
1070
     0
  0
ACAD_PROXY_OBJECT
  5
3EA4
330
0
100
AcDbProxyObject
 90
      499
 91
      585
 93
      108
310
00010142105350D3141493D29030
330
2737
 94
        0
1001
ACAD
1000
AcadProxyRoundTripData
1071
      510
1071
   655383
1070
     0
  0
ACAD_PROXY_OBJECT
  5
3EAE
330
0
100
AcDbProxyObject
 90
      499
 91
      585
 93
      116
310
000101425053541051D15311539193
330
2737
 94
        0
1001
ACAD
1000
AcadProxyRoundTripData
1071
      510
1071
   655383
1070
     0
  0
ACAD_PROXY_OBJECT
  5
3EAF
330
0
100
AcDbProxyObject
 90
      499
 91
      585
 93
      108
310
000101421053555312539154D051
330
2737
 94
        0
1001
ACAD
1000
AcadProxyRoundTripData
1071
      510
1071
   655383
1070
     0
  0
ACAD_PROXY_OBJECT
  5
3EB0
330
0
100
AcDbProxyObject
 90
      499
 91
      585
 93
      108
310
000101421053559312539154D031
330
2737
 94
        0
1001
ACAD
1000
AcadProxyRoundTripData
1071
      510
1071
   655383
1070
     0
  0
ACAD_PROXY_OBJECT
  5
3EB1
330
0
100
AcDbProxyObject
 90
      499
 91
      585
 93
      140
310
00010143105354D1911254D41353D1115016
330
2737
 94
        0
1001
ACAD
1000
AcadProxyRoundTripData
1071
      510
1071
   655383
1070
     0
  0
ACAD_PROXY_OBJECT
  5
3EB2
330
0
100
AcDbProxyObject
 90
      499
 91
      585
 93
      172
310
00010142505354119255105391C1C052DC9A6F10440A
330
2737
 94
        0
1001
ACAD
1000
AcadProxyRoundTripData
1071
      509
1071
   655383
1070
     0
  0
ACAD_PROXY_OBJECT
  5
3EB3
330
0
100
AcDbProxyObject
 90
      499
 91
      585
 93
      164
310
000101421053559150D05551C000000000000E03F4
330
2737
 94
        0
1001
ACAD
1000
AcadProxyRoundTripData
1071
      509
1071
   655383
1070
     0
  0
ACAD_PROXY_OBJECT
  5
3EB4
330
0
100
AcDbProxyObject
 90
      499
 91
      585
 93
      180
310
00010142905350931153911513D307B14AE47E17A843F5
330
2737
 94
        0
1001
ACAD
1000
AcadProxyRoundTripData
1071
      509
1071
   655383
1070
     0
  0
ACAD_PROXY_OBJECT
  5
3EB5
330
0
100
AcDbProxyObject
 90
      499
 91
      585
 93
      172
310
0001014250535293D25391D05407B14AE47E17A843F3
330
2737
 94
        0
1001
ACAD
1000
AcadProxyRoundTripData
1071
      509
1071
   655383
1070
     0
  0
ACAD_PROXY_OBJECT
  5
3EB6
330
0
100
AcDbProxyObject
 90
      499
 91
      585
 93
      172
310
000101425053541192551311538000000FC83D797413
330
2737
 94
        0
1001
ACAD
1000
AcadProxyRoundTripData
1071
      509
1071
   655383
1070
     0
  0
ACAD_PROXY_OBJECT
  5
3EB7
330
0
100
AcDbProxyObject
 90
      499
 91
      585
 93
      156
310
00010141D053559150D4D18000000000000E03F9
330
2737
 94
        0
1001
ACAD
1000
AcadProxyRoundTripData
1071
      509
1071
   655383
1070
     0
  0
ACAD_PROXY_OBJECT
  5
3EB8
330
0
100
AcDbProxyObject
 90
      499
 91
      585
 93
      156
310
00010141D05354D19513D309A9999999999993F9
330
2737
 94
        0
1001
ACAD
1000
AcadProxyRoundTripData
1071
      509
1071
   655383
1070
     0
  0
ACAD_PROXY_OBJECT
  5
3EB9
330
0
100
AcDbProxyObject
 90
      499
 91
      585
 93
      172
310
000101425053541192551513D307B14AE47E17A843F3
330
2737
 94
        0
1001
ACAD
1000
AcadProxyRoundTripData
1071
      509
1071
   655383
1070
     0
  0
ACAD_PROXY_OBJECT
  5
3EBA
330
0
100
AcDbProxyObject
 90
      499
 91
      585
 93
      188
310
00010142D05354D151D192551513D307B14AE47E17A843F0
330
2737
 94
        0
1001
ACAD
1000
AcadProxyRoundTripData
1071
      509
1071
   655383
1070
     0
  0
ACAD_PROXY_OBJECT
  5
3EBB
330
0
100
AcDbProxyObject
 90
      499
 91
      585
 93
      148
310
000101419053541311538000000FC83D797414
330
2737
 94
        0
1001
ACAD
1000
AcadProxyRoundTripData
1071
      509
1071
   655383
1070
     0
  0
ACAD_PROXY_OBJECT
  5
3EBC
330
0
100
AcDbProxyObject
 90
      499
 91
      585
 93
      172
310
00010142505354105391D513D301C052DC9A6F104408
330
2737
 94
        0
1001
ACAD
1000
AcadProxyRoundTripData
1071
      509
1071
   655383
1070
     0
  0
ACAD_PROXY_OBJECT
  5
3EBD
330
0
100
AcDbProxyObject
 90
      499
 91
      585
 93
      132
310
0001014114D2569140000000000002440C
330
2737
 94
        0
1001
ACAD
1000
AcadProxyRoundTripData
1071
      509
1071
   655383
1070
     0
  0
ACAD_PROXY_OBJECT
  5
3EBE
330
0
100
AcDbProxyObject
 90
      499
 91
      585
 93
      156
310
00010142905351D4941491519256005034153470
330
2737
 94
        0
1001
ACAD
1000
AcadProxyRoundTripData
1071
      525
1071
   655383
1070
     0
  0
ACAD_PROXY_OBJECT
  5
3EBF
330
0
100
AcDbProxyObject
 90
      499
 91
      585
 93
      314
310
00014080509646973745363616C650000000000003C2FC000000000000F0BF0000003F20F5E5D045
330
2737
 94
        0
1001
ACAD
1000
AcadProxyRoundTripData
1071
      555
1071
   655383
1070
     0
  0
ACAD_PROXY_OBJECT
  5
3EC0
330
0
100
AcDbProxyObject
 90
      499
 91
      585
 93
      322
310
0001408050A65646175526F74617465060B51153EC87E4FC182D4454FB2119C0060B51153EC8465039
330
2737
 94
        0
1001
ACAD
1000
AcadProxyRoundTripData
1071
      555
1071
   655383
1070
     0
  0
ACAD_PROXY_OBJECT
  5
3EC1
330
0
100
AcDbProxyObject
 90
      499
 91
      585
 93
      314
310
00014080509656461755477697374060B51153EC846500000000FC83D797C10000003F20F5E5D050
330
2737
 94
        0
1001
ACAD
1000
AcadProxyRoundTripData
1071
      555
1071
   655383
1070
     0
  0
ACAD_PROXY_OBJECT
  5
3EC2
330
0
100
AcDbProxyObject
 90
      499
 91
      585
 93
      294
310
000140C050A656467654F75747075740144F3B7F635ECB74A140A4817D41BDB1E5B1A5B995
330
2737
 94
        0
1001
ACAD
1000
AcadProxyRoundTripData
1071
      556
1071
   655383
1070
     0
  0
ACAD_PROXY_OBJECT
  5
3EC3
330
0
100
AcDbProxyObject
 90
      499
 91
      585
 93
      154
310
0001404050B6564697450726576696577406407F
330
2737
 94
        0
1001
ACAD
1000
AcadProxyRoundTripData
1071
      557
1071
   655383
1070
     0
  0
ACAD_PROXY_OBJECT
  5
3EC4
330
0
100
AcDbProxyObject
 90
      499
 91
      585
 93
      170
310
0001404050A666C6F77556C696E657342A3A00C0001E
330
2737
 94
        0
1001
ACAD
1000
AcadProxyRoundTripData
1071
      557
1071
   655383
1070
     0
  0
ACAD_PROXY_OBJECT
  5
3EC5
330
0
100
AcDbProxyObject
 90
      499
 91
      585
 93
      170
310
0001404050A666C6F77566C696E657342A3A00C0001E
330
2737
 94
        0
1001
ACAD
1000
AcadProxyRoundTripData
1071
      557
1071
   655383
1070
     0
  0
ACAD_PROXY_OBJECT
  5
3EC6
330
0
100
AcDbProxyObject
 90
      499
 91
      585
 93
      322
310
0001408050A666C7366456E645261640000000000003C2FC000000000000F0BF0000003F20F5E5D079
330
2737
 94
        0
1001
ACAD
1000
AcadProxyRoundTripData
1071
      555
1071
   655383
1070
     0
  0
ACAD_PROXY_OBJECT
  5
3EC7
330
0
100
AcDbProxyObject
 90
      499
 91
      585
 93
      246
310
000140C05086A6E33644D6F64650143E3BA24EB8A134A4817D3585B9D585B0
330
2737
 94
        0
1001
ACAD
1000
AcadProxyRoundTripData
1071
      556
1071
   655383
1070
     0
  0
ACAD_PROXY_OBJECT
  5
3EC8
330
0
100
AcDbProxyObject
 90
      499
 91
      585
 93
      294
310
000140C050A6A6E33644F75747075740144F3B7F635ECB74A140A4817D41BDB1E5B1A5B994
330
2737
 94
        0
1001
ACAD
1000
AcadProxyRoundTripData
1071
      556
1071
   655383
1070
     0
  0
ACAD_PROXY_OBJECT
  5
3EC9
330
0
100
AcDbProxyObject
 90
      499
 91
      585
 93
      306
310
000140805086C656E675065726300000000002016D002D431CEBE2361A3F0000003F20F5E5D065
330
2737
 94
        0
1001
ACAD
1000
AcadProxyRoundTripData
1071
      555
1071
   655383
1070
     0
  0
ACAD_PROXY_OBJECT
  5
3ECA
330
0
100
AcDbProxyObject
 90
      499
 91
      585
 93
      266
310
0001408050B6D61737344656E7369747942D431CEBE2361A3F0000003F20F5E5D07F
330
2737
 94
        0
1001
ACAD
1000
AcadProxyRoundTripData
1071
      555
1071
   655383
1070
     0
  0
ACAD_PROXY_OBJECT
  5
3ECB
330
0
100
AcDbProxyObject
 90
      499
 91
      585
 93
      186
310
000140805096D617373546869636BA0000003F20F5E5D05A
330
2737
 94
        0
1001
ACAD
1000
AcadProxyRoundTripData
1071
      555
1071
   655383
1070
     0
  0
ACAD_PROXY_OBJECT
  5
3ECC
330
0
100
AcDbProxyObject
 90
      499
 91
      585
 93
      230
310
000140C05086D6173735479706501436F2AB64A14CA4817D4DA195B1B3
330
2737
 94
        0
1001
ACAD
1000
AcadProxyRoundTripData
1071
      556
1071
   655383
1070
     0
  0
ACAD_PROXY_OBJECT
  5
3ECD
330
0
100
AcDbProxyObject
 90
      499
 91
      585
 93
      242
310
000140805086F667366446973744000000FC83D797C10000003F20F5E5D075
330
2737
 94
        0
1001
ACAD
1000
AcadProxyRoundTripData
1071
      555
1071
   655383
1070
     0
  0
ACAD_PROXY_OBJECT
  5
3ECE
330
0
100
AcDbProxyObject
 90
      499
 91
      585
 93
      258
310
0001408050A7072696D52616469757342D431CEBE2361A3F0000003F20F5E5D050
330
2737
 94
        0
1001
ACAD
1000
AcadProxyRoundTripData
1071
      555
1071
   655383
1070
     0
  0
ACAD_PROXY_OBJECT
  5
3ECF
330
0
100
AcDbProxyObject
 90
      499
 91
      585
 93
      194
310
0001408050A7072696D546F70526164A0000003F20F5E5D040
330
2737
 94
        0
1001
ACAD
1000
AcadProxyRoundTripData
1071
      555
1071
   655383
1070
     0
  0
ACAD_PROXY_OBJECT
  5
3ED0
330
0
100
AcDbProxyObject
 90
      499
 91
      585
 93
      266
310
0001408050B7072696D5475626552616442D431CEBE2361A3F0000003F20F5E5D07F
330
2737
 94
        0
1001
ACAD
1000
AcadProxyRoundTripData
1071
      555
1071
   655383
1070
     0
  0
ACAD_PROXY_OBJECT
  5
3ED1
330
0
100
AcDbProxyObject
 90
      499
 91
      585
 93
      258
310
0001408050A7072696D4865696768744000000FC83D797C10000003F20F5E5D050
330
2737
 94
        0
1001
ACAD
1000
AcadProxyRoundTripData
1071
      555
1071
   655383
1070
     0
  0
ACAD_PROXY_OBJECT
  5
3ED2
330
0
100
AcDbProxyObject
 90
      499
 91
      585
 93
      250
310
000140805097072696D5374416E678182D4454FB2119C0060B51153EC8465010
330
2737
 94
        0
1001
ACAD
1000
AcadProxyRoundTripData
1071
      555
1071
   655383
1070
     0
  0
ACAD_PROXY_OBJECT
  5
3ED3
330
0
100
AcDbProxyObject
 90
      499
 91
      585
 93
      322
310
0001408050A7072696D456E64416E67060B51153EC846500182D4454FB2119C0060B51153EC8465039
330
2737
 94
        0
1001
ACAD
1000
AcadProxyRoundTripData
1071
      555
1071
   655383
1070
     0
  0
ACAD_PROXY_OBJECT
  5
3ED4
330
0
100
AcDbProxyObject
 90
      499
 91
      585
 93
      242
310
000140805087265765374416E678182D4454FB2119C0060B51153EC8465019
330
2737
 94
        0
1001
ACAD
1000
AcadProxyRoundTripData
1071
      555
1071
   655383
1070
     0
  0
ACAD_PROXY_OBJECT
  5
3ED5
330
0
100
AcDbProxyObject
 90
      499
 91
      585
 93
      314
310
00014080509726576456E64416E67060B51153EC846500182D4454FB2119C0060B51153EC8465010
330
2737
 94
        0
1001
ACAD
1000
AcadProxyRoundTripData
1071
      555
1071
   655383
1070
     0
  0
ACAD_PROXY_OBJECT
  5
3ED6
330
0
100
AcDbProxyObject
 90
      499
 91
      585
 93
      194
310
0001404050C7266736655706174636865734290139C0C0002D
330
2737
 94
        0
1001
ACAD
1000
AcadProxyRoundTripData
1071
      557
1071
   655383
1070
     0
  0
ACAD_PROXY_OBJECT
  5
3ED7
330
0
100
AcDbProxyObject
 90
      499
 91
      585
 93
      194
310
0001404050C7266736656706174636865734290139C0C0002D
330
2737
 94
        0
1001
ACAD
1000
AcadProxyRoundTripData
1071
      557
1071
   655383
1070
     0
  0
ACAD_PROXY_OBJECT
  5
3ED8
330
0
100
AcDbProxyObject
 90
      499
 91
      585
 93
      246
310
000140C0508747562654D6F64650143E3BA24EB8A134A4817D3585B9D585B0
330
2737
 94
        0
1001
ACAD
1000
AcadProxyRoundTripData
1071
      556
1071
   655383
1070
     0
  0
ACAD_PROXY_OBJECT
  5
3ED9
330
0
100
AcDbProxyObject
 90
      499
 91
      585
 93
      274
310
0001408050C747562654469616D6574657242D431CEBE2361A3F0000003F20F5E5D055
330
2737
 94
        0
1001
ACAD
1000
AcadProxyRoundTripData
1071
      555
1071
   655383
1070
     0
  0
ACAD_PROXY_OBJECT
  5
3EDA
330
0
100
AcDbProxyObject
 90
      499
 91
      585
 93
      130
310
00014040509696E746572506F6C79A4057
330
2737
 94
        0
1001
ACAD
1000
AcadProxyRoundTripData
1071
      557
1071
   655383
1070
     0
  0
ACAD_PROXY_OBJECT
  5
3EDB
330
0
100
AcDbProxyObject
 90
      499
 91
      585
 93
      162
310
0001404050D696E746572417567506F696E74A405C
330
2737
 94
        0
1001
ACAD
1000
AcadProxyRoundTripData
1071
      557
1071
   655383
1070
     0
  0
ACAD_PROXY_OBJECT
  5
3EDC
330
0
100
AcDbProxyObject
 90
      499
 91
      585
 93
      238
310
000140C0509696E7465727472696D014365EF257ECA108A4817D09BDD1A3
330
2737
 94
        0
1001
ACAD
1000
AcadProxyRoundTripData
1071
      556
1071
   655383
1070
     0
  0
ACAD_PROXY_OBJECT
  5
3EDD
330
0
100
AcDbProxyObject
 90
      499
 91
      585
 93
      230
310
000140C0509696E7465727479706501433136344A150A4817D51C9A5B5
330
2737
 94
        0
1001
ACAD
1000
AcadProxyRoundTripData
1071
      556
1071
   655383
1070
     0
  0
ACAD_PROXY_OBJECT
  5
3EDE
330
0
100
AcDbProxyObject
 90
      499
 91
      585
 93
      146
310
0001404050A636F726E65727472696D4064063
330
2737
 94
        0
1001
ACAD
1000
AcadProxyRoundTripData
1071
      557
1071
   655383
1070
     0
  0
ACAD_PROXY_OBJECT
  5
3EDF
330
0
100
AcDbProxyObject
 90
      499
 91
      585
 93
      130
310
000140405086F6673666B6565704064046
330
2737
 94
        0
1001
ACAD
1000
AcadProxyRoundTripData
1071
      557
1071
   655383
1070
     0
  0
ACAD_PROXY_OBJECT
  5
3EE0
330
0
100
AcDbProxyObject
 90
      499
 91
      585
 93
      146
310
0001404050A70726F6A4F757470757440A40E3
330
2737
 94
        0
1001
ACAD
1000
AcadProxyRoundTripData
1071
      557
1071
   655383
1070
     0
  0
ACAD_PROXY_OBJECT
  5
3EE1
330
0
100
AcDbProxyObject
 90
      499
 91
      585
 93
      270
310
000140C050D70726F6A446972656374696F6E014372F7AB6C0A124A4817DD92595DC
330
2737
 94
        0
1001
ACAD
1000
AcadProxyRoundTripData
1071
      556
1071
   655383
1070
     0
  0
ACAD_PROXY_OBJECT
  5
3EE2
330
0
100
AcDbProxyObject
 90
      499
 91
      585
 93
      130
310
0001404050870726F6A4B6565704064056
330
2737
 94
        0
1001
ACAD
1000
AcadProxyRoundTripData
1071
      557
1071
   655383
1070
     0
  0
ACAD_PROXY_OBJECT
  5
3EE3
330
0
100
AcDbProxyObject
 90
      499
 91
      585
 93
      278
310
000140C050B70726F6A53706163696E670144237164D2CA13CA4817D3DC1D1A5B585B1
330
2737
 94
        0
1001
ACAD
1000
AcadProxyRoundTripData
1071
      556
1071
   655383
1070
     0
  0
ACAD_PROXY_OBJECT
  5
3EE4
330
0
100
AcDbProxyObject
 90
      499
 91
      585
 93
      250
310
0001408050970726F6A54617065728182D4454FB21F9BF060B51153EC87E4FE5
330
2737
 94
        0
1001
ACAD
1000
AcadProxyRoundTripData
1071
      555
1071
   655383
1070
     0
  0
ACAD_PROXY_OBJECT
  5
3EE5
330
0
100
AcDbProxyObject
 90
      499
 91
      585
 93
      130
310
00014040508647261674B656570406406D
330
2737
 94
        0
1001
ACAD
1000
AcadProxyRoundTripData
1071
      557
1071
   655383
1070
     0
  0
ACAD_PROXY_OBJECT
  5
3EE6
330
0
100
AcDbProxyObject
 90
      499
 91
      585
 93
      302
310
000140C050F647261674F7269656E746174696F6E0143E590243F0A138A4817D39BDC9B585B2
330
2737
 94
        0
1001
ACAD
1000
AcadProxyRoundTripData
1071
      556
1071
   655383
1070
     0
  0
ACAD_PROXY_OBJECT
  5
3EE7
330
0
100
AcDbProxyObject
 90
      499
 91
      585
 93
      286
310
000140C050E647261675472616E736974696F6E0143A3B6A4DE0A10CA4817DCD0D85B195
330
2737
 94
        0
1001
ACAD
1000
AcadProxyRoundTripData
1071
      556
1071
   655383
1070
     0
  0
ACAD_PROXY_OBJECT
  5
3EE8
330
0
100
AcDbProxyObject
 90
      499
 91
      585
 93
      318
310
000140C051061646A757374436F6E74696E7569747901442F746C2F778A14CA4817D4DB5BDBDD1A0
330
2737
 94
        0
1001
ACAD
1000
AcadProxyRoundTripData
1071
      556
1071
   655383
1070
     0
  0
ACAD_PROXY_OBJECT
  5
3EE9
330
0
100
AcDbProxyObject
 90
      499
 91
      585
 93
      138
310
0001404050A61646A7573744B656570A4067
330
2737
 94
        0
1001
ACAD
1000
AcadProxyRoundTripData
1071
      557
1071
   655383
1070
     0
  0
ACAD_PROXY_OBJECT
  5
3EEA
330
0
100
AcDbProxyObject
 90
      499
 91
      585
 93
      250
310
0001408050972756C65576964746842D431CEBE2361A3F0000003F20F5E5D064
330
2737
 94
        0
1001
ACAD
1000
AcadProxyRoundTripData
1071
      555
1071
   655383
1070
     0
  0
ACAD_PROXY_OBJECT
  5
3EEB
330
0
100
AcDbProxyObject
 90
      499
 91
      585
 93
      274
310
0001408050C616E616C797A65447261667421D139D28615ED8FE060B51153EC842500D
330
2737
 94
        0
1001
ACAD
1000
AcadProxyRoundTripData
1071
      555
1071
   655383
1070
     0
  0
ACAD_PROXY_OBJECT
  5
3EEC
330
0
100
AcDbProxyObject
 90
      499
 91
      585
 93
      210
310
0001404050F616E616C797A654E756D4C696E65734163FDFC00006
330
2737
 94
        0
1001
ACAD
1000
AcadProxyRoundTripData
1071
      557
1071
   655383
1070
     0
  0
ACAD_PROXY_OBJECT
  5
3EED
330
0
100
AcDbProxyObject
 90
      499
 91
      585
 93
      202
310
00014040512616E616C797A65526F746174654C696E6573A4040
330
2737
 94
        0
1001
ACAD
1000
AcadProxyRoundTripData
1071
      557
1071
   655383
1070
     0
  0
ACAD_PROXY_OBJECT
  5
3EEE
330
0
100
AcDbProxyObject
 90
      499
 91
      585
 93
      210
310
00014040513616E616C797A65446973706C61794C696E6573A4046
330
2737
 94
        0
1001
ACAD
1000
AcadProxyRoundTripData
1071
      557
1071
   655383
1070
     0
  0
ACAD_PROXY_OBJECT
  5
3EEF
330
0
100
AcDbProxyObject
 90
      499
 91
      585
 93
      258
310
00014040519616E616C797A655472616E736C7563656E7453757266616365A4042
330
2737
 94
        0
1001
ACAD
1000
AcadProxyRoundTripData
1071
      557
1071
   655383
1070
     0
  0
ACAD_PROXY_OBJECT
  5
3EF9
330
0
100
AcDbProxyObject
 90
      499
 91
      585
 93
      698
310
0001000000009AA6A9AA4051E576564205365702030352030373A34343A333520323030372028555443290141CD4B8C4B8D0B8CC0518576564204A616E2033302030383A33393A303820323030380141CD4B8C4B8D0B8CFD
330
2737
330
3EFA
330
3EFB
330
3EFD
330
0
 94
        0
1001
ACAD
1000
AcadProxyRoundTripData
1071
      563
1071
   655383
1070
     0
  0
ACAD_PROXY_OBJECT
  5
3EFA
330
0
100
AcDbProxyObject
 90
      499
 91
      585
 93
       70
310
0001AAA80820000003
330
2737
330
3EFA
330
3EFA
 94
        0
1001
ACAD
1000
AcadProxyRoundTripData
1071
      564
1071
   655383
1070
     0
  0
ACAD_PROXY_OBJECT
  5
3EFB
330
0
100
AcDbProxyObject
 90
      499
 91
      585
 93
       48
310
00010000000011
330
2737
330
0
330
3EFC
330
0
330
0
 94
        0
1001
ACAD
1000
AcadProxyRoundTripData
1071
      565
1071
   655383
1070
     0
  0
ACAD_PROXY_OBJECT
  5
3EFC
330
0
100
AcDbProxyObject
 90
      499
 91
      585
 93
       40
310
000100AAAA00
330
2737
330
0
 94
        0
1001
ACAD
1000
AcadProxyRoundTripData
1071
      566
1071
   655383
1070
     0
  0
ACAD_PROXY_OBJECT
  5
3EFE
330
0
100
AcDbProxyObject
 90
      499
 91
      585
 93
      124
310
00010142905350D3D39114D414D69050
330
2737
 94
        0
1001
ACAD
1000
AcadProxyRoundTripData
1071
      510
1071
   655383
1070
     0
  0
ACAD_PROXY_OBJECT
  5
3EFF
330
0
100
AcDbProxyObject
 90
      499
 91
      585
 93
      124
310
000101429053549553115353D1115010
330
2737
 94
        0
1001
ACAD
1000
AcadProxyRoundTripData
1071
      510
1071
   655383
1070
     0
  0
ACAD_PROXY_OBJECT
  5
3F00
330
0
100
AcDbProxyObject
 90
      499
 91
      585
 93
      108
310
00010142105354D2D353D1115011
330
2737
 94
        0
1001
ACAD
1000
AcadProxyRoundTripData
1071
      510
1071
   655383
1070
     0
  0
ACAD_PROXY_OBJECT
  5
3F01
330
0
100
AcDbProxyObject
 90
      499
 91
      585
 93
      140
310
000101435053511253511254D41353D11160
330
2737
 94
        0
1001
ACAD
1000
AcadProxyRoundTripData
1071
      510
1071
   655383
1070
     0
  0
ACAD_PROXY_OBJECT
  5
3F02
330
0
100
AcDbProxyObject
 90
      499
 91
      585
 93
      180
310
00010142905354D2D05391D513D3000000000000010400
330
2737
 94
        0
1001
ACAD
1000
AcadProxyRoundTripData
1071
      509
1071
   655383
1070
     0
  0
ACAD_PROXY_OBJECT
  5
3F03
330
0
100
AcDbProxyObject
 90
      499
 91
      585
 93
      164
310
00010142505354D2D4D516531140505434F4E542A1
330
2737
 94
        0
1001
ACAD
1000
AcadProxyRoundTripData
1071
      525
1071
   655383
1070
     0
  0
ACAD_PROXY_OBJECT
  5
3F04
330
0
100
AcDbProxyObject
 90
      499
 91
      585
 93
      108
310
00010142105350D3511112535010
330
2737
 94
        0
1001
ACAD
1000
AcadProxyRoundTripData
1071
      510
1071
   655383
1070
     0
  0
ACAD_PROXY_OBJECT
  5
3F05
330
0
100
AcDbProxyObject
 90
      499
 91
      585
 93
      108
310
00010142105350D3D35414D59010
330
2737
 94
        0
1001
ACAD
1000
AcadProxyRoundTripData
1071
      510
1071
   655383
1070
     0
  0
ACAD_PROXY_OBJECT
  5
3F06
330
0
100
AcDbProxyObject
 90
      499
 91
      585
 93
      164
310
0001014290535410549514D4119600504CADFB0C21
330
2737
 94
        0
1001
ACAD
1000
AcadProxyRoundTripData
1071
      525
1071
   655383
1070
     0
  0
ACAD_PROXY_OBJECT
  5
3F07
330
0
100
AcDbProxyObject
 90
      499
 91
      585
 93
      220
310
0001014350535513D3D31093D11654119600508C2B0D9CEDEC3DEA83
330
2737
 94
        0
1001
ACAD
1000
AcadProxyRoundTripData
1071
      525
1071
   655383
1070
     0
  0
ACAD_PROXY_OBJECT
  5
3F08
330
0
100
AcDbProxyObject
 90
      499
 91
      585
 93
      116
310
000101425053511254D410D3D39014
330
2737
 94
        0
1001
ACAD
1000
AcadProxyRoundTripData
1071
      510
1071
   655383
1070
     0
  0
ACAD_PROXY_OBJECT
  5
3F09
330
0
100
AcDbProxyObject
 90
      499
 91
      585
 93
      108
310
00010142105350D3D39114D41010
330
2737
 94
        0
1001
ACAD
1000
AcadProxyRoundTripData
1071
      510
1071
   655383
1070
     0
  0
ACAD_PROXY_OBJECT
  5
3F0A
330
0
100
AcDbProxyObject
 90
      499
 91
      585
 93
      124
310
0001014290535490511114D414D69191
330
2737
 94
        0
1001
ACAD
1000
AcadProxyRoundTripData
1071
      510
1071
   655383
1070
     0
  0
ACAD_PROXY_OBJECT
  5
3F0C
330
0
100
AcDbProxyObject
 90
      499
 91
      585
 93
     3100
310
0001419078050A544852555F4452494C4C0142D09312539117D1149253130050A544852555F43424F52450142D09312539117D0D093D4914050A544852555F4353494E4B0142D09312539117D0D4D25392D0641E01449EC94958C80949505351125048151214955F4051C7B252563202525414D4449412058202525414D444
310
55020444545507D014E5EC94958C80949505351125048151214955F57141ED0D093D49148094958C80949505350D112504816080949505350D091115408111151541F405437B252563202525414D4449412058202525414D44455020444545507D5C507B43424F524520252563202525414D434449412058202525414D4342
310
44455020444545507D014DDEC94958C80949505351125048151214955F57141ED0D4D25392C8094958C80949505350D112504816080949505350D4D05391C949591F405417B252563202525414D4449412058202525414D44455020444545507D5C507B4353494E4B20252563202525414D434449412058202525414D43534
310
14E472525647DD
330
2737
 94
        0
1001
ACAD
1000
AcadProxyRoundTripData
1071
      568
1071
   655383
1070
     0
  0
ACAD_PROXY_OBJECT
  5
3F0E
330
0
100
AcDbProxyObject
 90
      499
 91
      585
 93
      140
310
00010143105354D554141490D3D313D49A61
330
2737
 94
        0
1001
ACAD
1000
AcadProxyRoundTripData
1071
      510
1071
   655383
1070
     0
  0
ACAD_PROXY_OBJECT
  5
3F13
330
0
100
AcDbProxyObject
 90
      499
 91
      585
 93
      132
310
00010142D05050555513D4D3D31591501A
330
2737
 94
        0
1001
ACAD
1000
AcadProxyRoundTripData
1071
      510
1071
   655383
1070
     0
  0
ACAD_PROXY_OBJECT
  5
3F14
330
0
100
AcDbProxyObject
 90
      499
 91
      585
 93
      156
310
00010143905050555513D054D4D1535093115010
330
2737
 94
        0
1001
ACAD
1000
AcadProxyRoundTripData
1071
      510
1071
   655383
1070
     0
  0
ACAD_PROXY_OBJECT
  5
3F15
330
0
100
AcDbProxyObject
 90
      499
 91
      585
 93
      148
310
00010143505055925155D49154D513D4915010
330
2737
 94
        0
1001
ACAD
1000
AcadProxyRoundTripData
1071
      510
1071
   655383
1070
     0
  0
ACAD_PROXY_OBJECT
  5
3F16
330
0
100
AcDbProxyObject
 90
      499
 91
      585
 93
      124
310
00010142D050525394D15495105094E4
330
2737
 94
        0
1001
ACAD
1000
AcadProxyRoundTripData
1071
      510
1071
   655383
1070
     0
  0
ACAD_PROXY_OBJECT
  5
3F17
330
0
100
AcDbProxyObject
 90
      499
 91
      585
 93
      148
310
00010143505054D0D153915554111055115010
330
2737
 94
        0
1001
ACAD
1000
AcadProxyRoundTripData
1071
      510
1071
   655383
1070
     0
  0
ACAD_PROXY_OBJECT
  5
3F18
330
0
100
AcDbProxyObject
 90
      499
 91
      585
 93
      172
310
00010143105054D5509054D4D3541196005035355422
330
2737
 94
        0
1001
ACAD
1000
AcadProxyRoundTripData
1071
      525
1071
   655383
1070
     0
  0
ACAD_PROXY_OBJECT
  5
3F19
330
0
100
AcDbProxyObject
 90
      499
 91
      585
 93
      172
310
00010142905054D0D15391541196005055343454E452
330
2737
 94
        0
1001
ACAD
1000
AcadProxyRoundTripData
1071
      525
1071
   655383
1070
     0
  0
ACAD_PROXY_OBJECT
  5
3F1A
330
0
100
AcDbProxyObject
 90
      499
 91
      585
 93
      148
310
00010143505350555513D313D0D2D4D0D39014
330
2737
 94
        0
1001
ACAD
1000
AcadProxyRoundTripData
1071
      510
1071
   655383
1070
     0
  0
ACAD_PROXY_OBJECT
  5
3F1F
330
0
100
AcDbProxyObject
 90
      499
 91
      585
 93
       32
310
0001000000
330
2737
340
3F1C
330
3F21
330
3F1C
 94
        0
1001
ACAD
1000
AcadProxyRoundTripData
1071
      574
1071
   655383
1070
     0
  0
ACAD_PROXY_OBJECT
  5
3F20
330
0
100
AcDbProxyObject
 90
      499
 91
      585
 93
       18
310
0001A8
330
2737
 94
        0
1001
ACAD
1000
AcadProxyRoundTripData
1071
      575
1071
   655383
1070
     0
  0
ACAD_PROXY_OBJECT
  5
3F21
330
0
100
AcDbProxyObject
 90
      499
 91
      585
 93
      191
310
00010143CC0C0C4B4C0C0C4813508E0C0D8D10D050055401
330
2737
330
3F1F
330
3F20
 94
        0
1001
ACAD
1000
AcadProxyRoundTripData
1071
      576
1071
   655383
1070
     0
  0
ACAD_PROXY_OBJECT
  5
3F22
330
0
100
AcDbProxyObject
 90
      499
 91
      585
 93
       40
310
000100AAAA00
330
2737
330
3F21
 94
        0
1001
ACAD
1000
AcadProxyRoundTripData
1071
      577
1071
   655383
1070
     0
  0
ACAD_PROXY_OBJECT
  5
3F23
330
0
100
AcDbProxyObject
 90
      499
 91
      585
 93
      108
310
000190140A000000000000AAAAA6
330
2737
330
3F24
330
3F24
330
3F24
330
3F24
330
3F24
330
0
 94
        0
1001
ACAD
1000
AcadProxyRoundTripData
1071
      578
1071
   655383
1070
     0
  0
ACAD_PROXY_OBJECT
  5
3F24
330
0
100
AcDbProxyObject
 90
      499
 91
      585
 93
       51
310
00010000AAAA98
330
2737
330
3F23
330
3F21
 94
        0
1001
ACAD
1000
AcadProxyRoundTripData
1071
      579
1071
   655383
1070
     0
  0
DICTIONARY
  5
274D
102
{ACAD_REACTORS
330
274C
102
}
330
274C
100
AcDbDictionary
  3
DWGSETTINGS
350
274E
  3
FEM
350
351D
  3
SHAFT
350
2821
  3
TRANSSETTINGS
350
274F
  0
ACAD_PROXY_OBJECT
  5
2758
102
{ACAD_REACTORS
330
274C
102
}
330
274C
100
AcDbProxyObject
 90
      499
 91
      585
 93
    18950
310
411014A90130404C1073F7FFFFFE404C50131438FDFFFFFF90132404C9053F7FFFFFE404CD0133418FDFFFFFF90134404D1033F7FFFFFE404D5013540CFDFFFFFF90136404D9023F7FFFFFE404DD0137410FDFFFFFF90138404E1013F7FFFFFE408CD05023341418FDFFFFFF9023741408DD05043F7FFFFFE408C905023241
310
41CFDFFFFFF9023441408D105033F7FFFFFE404E501397F4FDFFFFFF4110249504092541073F7FFFFFE408C13902304E41CFDFFFFFF902314E408C5390E3F7FFFFFE408C93902324E414FDFFFFFF902334E408CD39063F7FFFFFE408D13902344E40CFDFFFFFF902354E408D539033F7FFFFFE408D93902364E408FDFFFFFF
310
902374E408DD39043F7FFFFFE408E13902384E404FDFFFFFF90333414E40CCD0539063F7FFFFFE40CDD05390337414E410FDFFFFFF90332414E40CC90539073F7FFFFFE40CD105390334414E40CFDFFFFFF902394E408E539FD3F7FFFFFD0440D2541390349504E41CFDFFFFFF9044B6C696E4112D312539013F7FFFFFD094
310
1125B999BD04494E464F410FDFFFFFF425055261686D3241549052134C9013F7FFFFFD094154985A1B4CD055241484D33408FDFFFFFF425055261686D3541549052134D5073F7FFFFFD0941159A595DD0456494557404FDFFFFFF42506426568696E64419091521253911FD3F7FFFFFD0D415514905253105414D5F545240D
310
194250348494441905357D212511074650940D59254D06414D5F56495341D324250650415244494D42505357D410549112535034650941949151911253509414D5F52454644494D4111942581411051111310135404FFFFFFFF41105315149013441CFFFFFFFF411091531250134CFFFFFFFF411092139590139CFFFFFFFF4
310
15092139594D06424548494E44CFFFFFFFF41109312511023441CFFFFFFFF411093D0541023441CFFFFFFFF411093D48C9055241484D32CFFFFFFFF411093D48CD055241484D33CFFFFFFFF411093D48D5055241484D35CFFFFFFFF411093D48DD055241484D3541CFFFFFFFF41109410541023441CFFFFFFFF41109411561
310
023441CFFFFFFFF411095111250135CFFFFFFFF4110D0530C90134CFFFFFFFF4110D0530CD0134408FFFFFFFF4110D0530D5013441CFFFFFFFF4110D0530DD0134414FFFFFFFF4110D153939023741CFFFFFFFF4110D15395D0137CFFFFFFFF4110D312539044B4C494ECFFFFFFFF4110D3D38C50130CFFFFFFFF4110D3D38
310
C90131CFFFFFFFF4110D3D38CD0132CFFFFFFFF4110D3D38D10132CFFFFFFFF411111549410134CFFFFFFFF411111551050134CFFFFFFFF4111125051D0135CFFFFFFFF411112531250135CFFFFFFFF4151125513CC9013540CFFFFFFFF4151125513CCD0135408FFFFFFFF411112551610135CFFFFFFFF411112561310135
310
CFFFFFFFF41115613541023441CFFFFFFFF411191535390138CFFFFFFFF4151915354139013840CFFFFFFFF4151915354D41023441CFFFFFFFF4151915354D5102344140CFFFFFFFF41519153559390132CFFFFFFFF4151915355951013240CFFFFFFFF411193105510130CFFFFFFFF41119490549023441CFFFFFFFF4111D
310
4931250135CFFFFFFFF4111D593125023441CFFFFFFFF4112105510D0138CFFFFFFFF41121251139023341CFFFFFFFF4112125115D0133CFFFFFFFF411213125390134CFFFFFFFF411213D0D39023741CFFFFFFFF411213D0D5D0137CFFFFFFFF4112539193D04494E464FCFFFFFFFF411310511250134CFFFFFFFF4113115
310
05110135CFFFFFFFF419397D0511113102354E404FFFFFFFF419397D0921395902394ECFFFFFFFF419397D0D3D38C502304ECFFFFFFFF419397D0D3D38C902314ECFFFFFFFF419397D0D3D38CD02324ECFFFFFFFF419397D0D3D38D102324ECFFFFFFFF419397D0D1539390337414ECFFFFFFFF419397D0D15395D02374ECF
310
FFFFFFF419397D1125312502354ECFFFFFFFF419397D1125516102354E408FFFFFFFF419397D1125613102354ECFFFFFFFF419397D2105510D02384ECFFFFFFFF419397D212511390333414ECFFFFFFFF419397D2125115D02334ECFFFFFFFF419397D391D25410349504ECFFFFFFFF419397D412105390334414ECFFFFFFF
310
F419397D413D4D3102354ECFFFFFFFF419397D510D3D3902304ECFFFFFFFF419397D5121312502344ECFFFFFFFF419397D5131153902304ECFFFFFFFF419397D516150CD02364ECFFFFFFFF419397D594131250332414ECFFFFFFFF411391D2541024950CFFFFFFFF411410530C9055241484D32CFFFFFFFF411410530CD05
310
5241484D33CFFFFFFFF411410530D5055241484D35CFFFFFFFF411410530DD055241484D3541CFFFFFFFF41141210539023441CFFFFFFFF411413D4D310135CFFFFFFFF411413D4D39013641CFFFFFFFF419413D4D4915190136414FFFFFFFF411413D4D610135408FFFFFFFF411414D150D023441CFFFFFFFF411490D1D39
310
023741CFFFFFFFF411490D1D5D0137CFFFFFFFF411491911250134CFFFFFFFF41149455149013441CFFFFFFFF411494D093D0134CFFFFFFFF4114D09492D0134CFFFFFFFF4114D0D15390137CFFFFFFFF4114D150D510134CFFFFFFFF4114D153139023741CFFFFFFFF4114D15315D0137CFFFFFFFF4114D4D654D0130CFFF
310
FFFFF4114D513125013441CFFFFFFFF4114D6508C50135CFFFFFFFF4114D6508C90135CFFFFFFFF4114D6508CD0136CFFFFFFFF4114D6508D5013541CFFFFFFFF4114D653539023741CFFFFFFFF4114D65355D0137CFFFFFFFF411510D3D390130CFFFFFFFF411512131250134CFFFFFFFF411512550C9055241484D32CFFF
310
FFFFF411512550CD055241484D33CFFFFFFFF411512550D5055241484D35CFFFFFFFF411512550DD055241484D3541CFFFFFFFF411513115390130CFFFFFFFF41151492D39023741CFFFFFFFF41151492D5D0137CFFFFFFFF411514931250134CFFFFFFFF411516150C50136408FFFFFFFF411516150C90136408FFFFFFFF4
310
11516150CD0136CFFFFFFFF411516150D5013641CFFFFFFFF411516150DD013641CFFFFFFFF4115925155D0456494557CFFFFFFFF41159413125023241CFFFFFFFF411692569050134CFFFFFFFF411112535410650415244494DCFFFFFFFF411112535490652454644494DCFFFFFFFF419397D3115051102354ECFFFFFFFF4
310
11354D6535013540923415514905253105545241494CCFFFFFFFF4115915112103484944CFFFFFFFF4115915115903564953CFFFFFFFFAA9FDA429014650248D0346504465054C906465074C90E4C91E519FD8
340
14
340
14
340
14
340
2784
340
14
340
14
340
14
340
120B
340
14
340
2785
340
1672
340
120B
340
2786
340
14
340
14
340
14
340
14
340
14
340
2784
340
14
340
14
340
14
340
120B
340
14
340
2785
340
1672
340
120B
340
2786
340
14
340
14
340
14
340
14
340
14
340
14
340
14
340
14
340
14
340
14
340
2759
340
14
340
14
340
14
340
13
340
2785
340
13
340
13
340
13
340
13
340
13
340
13
340
13
340
13
340
14
340
13
340
13
340
13
340
13
340
13
340
13
340
13
340
13
340
13
340
13
340
13
340
13
340
13
340
13
340
13
340
13
340
13
340
13
340
13
340
13
340
14
340
13
340
13
340
13
340
13
340
14
340
13
340
13
340
13
340
13
340
13
340
13
340
13
340
13
340
13
340
13
340
13
340
13
340
13
340
13
340
13
340
13
340
13
340
13
340
13
340
13
340
13
340
13
340
13
340
13
340
13
340
14
340
13
340
13
340
13
340
13
340
13
340
13
340
13
340
13
340
13
340
13
340
13
340
13
340
13
340
13
340
13
340
13
340
14
340
13
340
13
340
13
340
13
340
14
340
13
340
13
340
13
340
13
340
1672
340
13
340
13
340
14
340
13
340
13
340
13
340
13
340
2785
340
13
340
13
340
14
340
13
340
13
340
13
340
13
340
13
340
13
340
13
340
13
340
14
340
13
340
13
340
13
340
13
340
13
340
13
340
13
340
13
340
13
340
13
340
13
340
2789
340
13
340
13
340
13
340
13
340
13
340
13
340
13
 94
        0
1001
ACAD
1000
AcadProxyRoundTripData
1071
      527
1071
   655383
1070
     0
  0
ACAD_PROXY_OBJECT
  5
2790
102
{ACAD_REACTORS
330
278B
102
}
330
278B
100
AcDbProxyObject
 90
      499
 91
      585
 93
      253
310
43D1444494D454E53494F4E2C414D44545F2A5F44494D404A9012A404A9012AF
 94
        0
1001
ACAD
1000
AcadProxyRoundTripData
1071
      541
1071
   655383
1070
     0
  0
ACAD_PROXY_OBJECT
  5
278F
102
{ACAD_REACTORS
330
278B
102
}
330
278B
100
AcDbProxyObject
 90
      499
 91
      585
 93
      181
310
43D012A42D05357D191504B505357CA9012A404A9012AC
 94
        0
1001
ACAD
1000
AcadProxyRoundTripData
1071
      541
1071
   655383
1070
     0
  0
ACAD_PROXY_OBJECT
  5
278C
102
{ACAD_REACTORS
330
278B
102
}
330
278B
100
AcDbProxyObject
 90
      499
 91
      585
 93
      133
310
43D054841544348404A9012A404A9012A9
 94
        0
1001
ACAD
1000
AcadProxyRoundTripData
1071
      541
1071
   655383
1070
     0
  0
ACAD_PROXY_OBJECT
  5
278D
102
{ACAD_REACTORS
330
278B
102
}
330
278B
100
AcDbProxyObject
 90
      499
 91
      585
 93
      549
310
43D044C494E4549CE0B0E138B0A8B4E0B0A8B4E138B105357CE0B105357CE138B0A8B505357CE0B0A8B505357CE139012A404A910494E534552542C535444504152543244C
 94
        0
1001
ACAD
1000
AcadProxyRoundTripData
1071
      541
1071
   655383
1070
     0
  0
ACAD_PROXY_OBJECT
  5
2791
102
{ACAD_REACTORS
330
278B
102
}
330
278B
100
AcDbProxyObject
 90
      499
 91
      585
 93
      181
310
43D0341524341105357CD5012A404C906494E534552545
 94
        0
1001
ACAD
1000
AcadProxyRoundTripData
1071
      541
1071
   655383
1070
     0
  0
ACAD_PROXY_OBJECT
  5
278E
102
{ACAD_REACTORS
330
278B
102
}
330
278B
100
AcDbProxyObject
 90
      499
 91
      585
 93
     1053
310
43D7841434D46434652414D452C41434D444154554D5441524745542C41434D444154554D49442C41434D57454C4453594D2C41434D5355524653594D2C41434D4645415449442C41434D504152545245462C41434D42414C4C4F4F4E2C414D44544544474553594D2C414D47534352455743414C435441424C45404A9012A
310
404A9012AF
 94
        0
1001
ACAD
1000
AcadProxyRoundTripData
1071
      541
1071
   655383
1070
     0
  0
LAYER_INDEX
  5
44A3
102
{ACAD_REACTORS
330
44A2
102
}
330
44A2
100
AcDbIndex
 40
2457218.785115833
100
AcDbLayerIndex
  8
0
360
44A4
 90
        0
  8
最小図面
360
44A5
 90
       56
  8
文字
360
44A6
 90
        0
  8
枠
360
44A7
 90
        4
  8
DEFPOINTS
360
44A8
 90
        0
  8
5
360
44A9
 90
       14
  0
ACAD_PROXY_OBJECT
  5
2752
102
{ACAD_REACTORS
330
2751
102
}
330
2751
100
AcDbProxyObject
 90
      499
 91
      585
 93
      139
310
057356C1D51406406AA8FFFFFFFF0A8A4044
330
18
330
0
330
0
 94
        0
1001
ACAD
1000
AcadProxyRoundTripData
1071
      524
1071
   655383
1070
     0
  0
ACAD_PROXY_OBJECT
  5
2757
102
{ACAD_REACTORS
330
2756
102
}
330
2756
100
AcDbProxyObject
 90
      499
 91
      585
 93
     1927
310
5440000000000000C40D0349534F405901409020000000000000310322286A1682DAC8E88AC8CECAA6E8C8812028720B1B6A9BAB9332A32BC3A29BA3220480A1282C6DA8C868CA6E8C88120286A0B1B6ABB2B63234B733A9BA3220480A1082C6DA92C8A6E8C88120285A0B1B6A230BA3AB6A9BA3220480A1282C6DA849E9AA
310
6E8C8812028820B6B23A2232BA30B4B629BCB6A9BA3220480A2282DAC8E8A6CAC6E8D2DEDCA6F2DAA6E8C88120288A0B6B23A21B2B73A32B92634B732A9BA3220480A1682C682DACE98C2F2A6E8C88120285A0B1A0B6B3A234B6A9BA3220480A1A82C682DACEA8D2E8D8CAA6E8C881203205
340
2762
360
2763
360
2764
360
2765
360
2766
360
2767
360
2768
360
2769
360
276A
360
276B
360
276C
360
2772
360
2773
360
277F
 94
        0
1001
ACAD
1000
AcadProxyRoundTripData
1071
      526
1071
   655383
1070
     0
  0
ACAD_PROXY_OBJECT
  5
274E
102
{ACAD_REACTORS
330
274D
102
}
330
274D
100
AcDbProxyObject
 90
      499
 91
      585
 93
     2506
310
4050B44574753455454494E4753A1286829C8E82A4A482B282A106660F8686AF86C608321A2A720A723A0A849A1ABE1C983E18999AA0C868A9C889282940000000000000488083A1A2A72224A0A9A0A8418983E19183E199820E868A9C8892A6A894000000000000010808321A2A72622A7250000000000000122020C868A9
310
C9E8C8C940000000000000488084A1A624A720A92920ACA0A82199B971AA108698929C8AA8B2A082A0AB098929C8A84A1A624A722AA2CA822A0A82AC2624A722A1288AE8EAAA68682988A94283A620A9AA27A12520A80982109A82968AAC928AAE9FA04832829A1A0A622830020000419491559254D2505404C1055343414C
310
4541503313A35425512535154D5105354128055655C858099CD050756455253494F4E4150531352E3030441ED115D1D4D15515125391D4D153911F49
 94
        0
1001
ACAD
1000
AcadProxyRoundTripData
1071
      522
1071
   655383
1070
     0
  0
ACAD_PROXY_OBJECT
  5
351D
102
{ACAD_REACTORS
330
274D
102
}
330
274D
100
AcDbProxyObject
 90
      499
 91
      585
 93
      411
310
4050346454D21092DCC6E486DECACC942842630BCA3B937BAB820A8320A6AFA322A0A20F688AE8EA68AA8A8929C8EA68A9C88FB9
 94
        0
1001
ACAD
1000
AcadProxyRoundTripData
1071
      522
1071
   655383
1070
     0
  0
ACAD_PROXY_OBJECT
  5
2821
102
{ACAD_REACTORS
330
274D
102
}
330
274D
100
AcDbProxyObject
 90
      499
 91
      585
 93
      513
310
40505536861667421292DCE8CAE4E4EAE0E89FC84A634B3B43A2634B732A7F21A98D2CED0E898D2DCCAACD2CAEE9FC883DA22BA3A9A2AA2A24A723A9A2A7223E80
 94
        0
1001
ACAD
1000
AcadProxyRoundTripData
1071
      522
1071
   655383
1070
     0
  0
ACAD_PROXY_OBJECT
  5
274F
102
{ACAD_REACTORS
330
274D
102
}
330
274D
100
AcDbProxyObject
 90
      499
 91
      585
 93
      852
310
4050D5452414E5353455454494E4753A2488A482AE929C8EA8A4829CA69882A8929E9C0C00800050D4F524947494E414C4C595F4F4E0600400008529A7AAA921A2A620A723A0A81A52827212AAA0A48AA68AA4AC8A0C0080001107B44574753455454494E4753454E447D8
 94
        0
1001
ACAD
1000
AcadProxyRoundTripData
1071
      522
1071
   655383
1070
     0
  0
IDBUFFER
  5
44A4
330
0
100
AcDbIdBuffer
  0
IDBUFFER
  5
44A5
330
0
100
AcDbIdBuffer
330
2E4
330
2E5
330
3911
330
39BB
330
3F57
330
3F58
330
3F59
330
3F5A
330
3F5D
330
3F5E
330
3F5F
330
3F60
330
3F61
330
3F62
330
3F65
330
3F6F
330
3F73
330
3F74
330
3F75
330
3F76
330
3F78
330
3F79
330
3F7A
330
3F7B
330
3F7C
330
3F7D
330
3F7E
330
3F82
330
3F83
330
3F84
330
3F88
330
3F8C
330
3F8E
330
3F92
330
3F97
330
3F9D
330
3F9E
330
3FA0
330
3FA5
330
3FA7
330
3FAB
330
3FAC
330
3FAD
330
3FAE
330
3FB0
330
3FB1
330
3FB4
330
3FB5
330
3FB6
330
412E
330
412F
330
4130
330
4132
330
4159
330
415A
330
43E5
  0
IDBUFFER
  5
44A6
330
0
100
AcDbIdBuffer
  0
IDBUFFER
  5
44A7
330
0
100
AcDbIdBuffer
330
46D9
330
4494
330
449A
330
44A0
  0
IDBUFFER
  5
44A8
330
0
100
AcDbIdBuffer
  0
IDBUFFER
  5
44A9
330
0
100
AcDbIdBuffer
330
3F56
330
3F80
330
3F85
330
3F86
330
3F90
330
3FB2
330
4199
330
424B
330
43FD
330
43FE
330
4401
330
4402
330
442B
330
4438
  0
ACAD_PROXY_OBJECT
  5
2763
330
2757
100
AcDbProxyObject
 90
      499
 91
      585
 93
       12
310
5454
 94
        0
1001
ACAD
1000
AcadProxyRoundTripData
1071
      528
1071
   655383
1070
     0
  0
ACAD_PROXY_OBJECT
  5
2764
330
2757
100
AcDbProxyObject
 90
      499
 91
      585
 93
       96
310
546A0E80A0280A0280A0280F00
 94
        0
1001
ACAD
1000
AcadProxyRoundTripData
1071
      529
1071
   655383
1070
     0
  0
ACAD_PROXY_OBJECT
  5
2765
330
2757
100
AcDbProxyObject
 90
      499
 91
      585
 93
      272
310
5450E4050140501405014050140501405014050140D01405012C000000000000004000
340
276D
 94
        0
1001
ACAD
1000
AcadProxyRoundTripData
1071
      530
1071
   655383
1070
     0
  0
ACAD_PROXY_OBJECT
  5
2766
330
2757
100
AcDbProxyObject
 90
      499
 91
      585
 93
      496
310
5468666666666667A67E199999999999E99FD22405014050140501405014050140501405014050140501405014050140501405014050140501405014050100
340
276E
 94
        0
1001
ACAD
1000
AcadProxyRoundTripData
1071
      531
1071
   655383
1070
     0
  0
ACAD_PROXY_OBJECT
  5
2767
330
2757
100
AcDbProxyObject
 90
      499
 91
      585
 93
       10
310
5444
 94
        0
1001
ACAD
1000
AcadProxyRoundTripData
1071
      532
1071
   655383
1070
     0
  0
ACAD_PROXY_OBJECT
  5
2768
330
2757
100
AcDbProxyObject
 90
      499
 91
      585
 93
      223
310
546290EA22A7D90F49F8000000000000108140000000000000420204
340
276F
340
2770
 94
        0
1001
ACAD
1000
AcadProxyRoundTripData
1071
      533
1071
   655383
1070
     0
  0
ACAD_PROXY_OBJECT
  5
2769
330
2757
100
AcDbProxyObject
 90
      499
 91
      585
 93
    12067
310
5450E411255115350141236025B690140501406901000000000000091013347454E545241434F2C4A504E2C302C8D8096DA2C47454E54524154582C25732C2847454E4D53472067656E6477672032323229406901206A2A8B280A0921292F9480A0480A0280C808000000000000488099A3A2A72A2920A1A79625282716181
310
6484A4BE51623A2A72A2920AA2C1612B9961423A2A726A9A39033B2B7323BB39019191994A034809044E414D454050496BC914F4051C40640A80000000000004E404CD1D15395149050D3CB1294138B0C0B25AF2453CB11D15395149055160B095CCB0A11D1539354D1C819D95B991DD9C80C8C8D8A50190B3D424C4F434B3
310
A4E414D4540482A222A9A1A92028248704B5F2028EA03207400000000004028A02668E8A9CA8A482869E5894A09C58605921C12D7C588E8A9CA8A482A8B0584AE658508E8A9C9AA68E40CECADCC8EECE4064626E5280D2024214D51053911054911014122D2E29A50147501904A000000000000125013347454E545241434F
310
2C4A504E2C302C8B4B8A692C47454E54524154582C25732C2847454E4D53472067656E64776720323138294069012109A82A88AA492829880A091BBD2F7E80A3A80C82D0000000000000728099A3A2A72A2920A1A79625282716181646EF4BDF9623A2A72A2920AA2C1612B9961423A2A726A9A39033B2B7323BB390191918
310
94A034809044E4F544540504928D8B4C4051D40641A80000000000003E404CD1D15395149050D3CB1294138B0C0B24A362D30B11D15395149055160B095CCB0A11D1539354D1C819D95B991DD9C80C8C8D4A5012404832B22A72227A92028366EF6EE06F582028EA0320F40000000000001F2026A8E8A9CA8A482869E5894A
310
09C5860599BBDBB81BD60588E8A9CA8A482A8B0584AE658508E8A9C9AA68E40CECADCC8EECE406464685280920241911154D0D48C90141A43825AF880C90147501908A000000000020145013447454E545241434F2C4A504E2C302C90E096BE20322C47454E54524154582C25732C2847454E4D53472067656E64776720333
310
629404901212A6A8829C8882A4886480A0D169714D2406480A3A80C84D000000000000092809AA3A2A72A2920A1A79625282716181645A5C53490191623A2A72A2920AA2C1612B9961423A2A726A9A39033B2B7323BB39019191814A024809094D4154455249414C32405068DDE97BF20324051D40642A8713D0AD7A370454
310
04D11D15395149050D3CB1294138B0C0B2377A5EFC80C8B11D15395149055160B095CCB0A11D1539354D1C819D95B991DD9C80D0C0A50124048226A0A9A9A0282475FCBE52028EA028121681A040000000000001F202648E8A9CA8A482869E5894A09C5860591D7F2F94588E8A9CA8A482A8B0584AE658508E8A9C9AA68E40
310
CECADCC8EECE406864528092024154149250D150141226FE29A501475014090C409020000000000000F9013247454E545241434F2C4A504E2C302C89BF8A692C47454E54524154582C25732C2847454E4D53472067656E6477672034332940490120688929A80A0921432C8080A3A80A0486A068100000000000007C809923
310
A2A72A2920A1A7962528271618164850CB201623A2A72A2920AA2C1612B9961423A2A726A9A39033B2B7323BB3901A1A14A0248090E445020000000000000510107004060000000000000F9000000000000003E4041CF4F125511534F9014060000000000000F9000000000000003E4041CF4F125511534F90140600000000
310
00000D100000000000000344041CF4F125511534F9014060000000000000D100000000000000344041CF4F125511534F90140A4040000000000003E400000000000000F901073D3C4954454D3E405063D3C5154593E4050180000000000003E400000000000000F901073D3C4954454D3E406404000000000000003E400000
310
000000000F90000000000000008202068220681A048120280C882148448820348520348452028521485214814000000000000F0BF0000000000003C2FD01409073373333333333B0FCCDCCCCCCCCCCEC3F000000000000031012034164050341105901A0000000000000620204812034
340
0
340
0
 94
        0
1001
ACAD
1000
AcadProxyRoundTripData
1071
      534
1071
   655383
1070
     0
  0
ACAD_PROXY_OBJECT
  5
276A
330
2757
100
AcDbProxyObject
 90
      499
 91
      585
 93
      798
310
5444000000000000144048CF4F11115510525317D3105091530F880A0F11115510525317D05094D4D0D053114F8A51141C9A9999999999B93F26A666666666724FC000000000000E03F4000000000000004000000000000005100000000000000244041C
340
14
340
2762
 94
        0
1001
ACAD
1000
AcadProxyRoundTripData
1071
      535
1071
   655383
1070
     0
  0
ACAD_PROXY_OBJECT
  5
276B
330
2757
100
AcDbProxyObject
 90
      499
 91
      585
 93
      679
310
5440B00000000000002880959E9E29A2A1AA24A7A72FA620A122A62FA324A929AA1F169E29A2A1AA24A7A72FA620A122A62FA620A9AA1F00000000000004880FF41C88A0E000000000000122000000000000002880
340
22
340
2762
 94
        0
1001
ACAD
1000
AcadProxyRoundTripData
1071
      536
1071
   655383
1070
     0
  0
ACAD_PROXY_OBJECT
  5
276C
330
2757
100
AcDbProxyObject
 90
      499
 91
      585
 93
      151
310
54680000000000000840A3D0A5723F0BD1F200
 94
        0
1001
ACAD
1000
AcadProxyRoundTripData
1071
      537
1071
   655383
1070
     0
  0
ACAD_PROXY_OBJECT
  5
2772
330
2757
100
AcDbProxyObject
 90
      499
 91
      585
 93
       20
310
545018
340
2758
 94
        0
1001
ACAD
1000
AcadProxyRoundTripData
1071
      538
1071
   655383
1070
     0
  0
ACAD_PROXY_OBJECT
  5
2773
330
2757
100
AcDbProxyObject
 90
      499
 91
      585
 93
      250
310
545010000000000000A1000000000000002440408F0F9023C3E409A0DCFFFF88
340
1212
340
0
340
0
340
1211
340
1210
340
2780
340
2781
340
2782
340
2783
 94
        0
1001
ACAD
1000
AcadProxyRoundTripData
1071
      539
1071
   655383
1070
     0
  0
ACAD_PROXY_OBJECT
  5
277F
330
2757
100
AcDbProxyObject
 90
      499
 91
      585
 93
     6922
310
5459740D254D3D0649534F5F4133429254D3D7D5125513115051349534F5F42525F5265766973696F6E6C69737446111413478342028323937783834316D6D2920421254D3D7D04D1E0D11141327835202835393478323130326D6D29421254D3D7D04C9E0D51141337837202834323078323038306D6D29421254D3D7D04C
310
DE0DD1141347839202832393778313839326D6D29421254D3D7D04D1E0E50E41312028353934783834316D6D29419254D3D7D04C51141327834202835393478313638326D6D29421254D3D7D04C9E0D11141347838202832393778313638326D6D29421254D3D7D04D1E0E10E41332028323937783432306D6D29419254D3D
310
7D04CD104130202838343078313138396D6D2920419254D3D7D04C11141347835202832393778313035316D6D29421254D3D7D04D1E0D51141347836202832393778313236316D6D29421254D3D7D04D1E0D91141347837202832393778313437316D6D29421254D3D7D04D1E0DD1141327833202835393478313236316D6D
310
29421254D3D7D04C9E0CD1141337834202834323078313138396D6D29421254D3D7D04CDE0D110413478332028323937783633306D6D29421254D3D7D04D1E0CD1141337835202834323078313438366D6D29421254D3D7D04CDE0D51141337836202834323078313738336D6D29421254D3D7D04CDE0D9104133783320283
310
43230783839316D6D29421254D3D7D04CDE0CD0E41322028343230783539346D6D29419254D3D7D04C9124130783220283131383978313638326D6D29421254D3D7D04C1E0C90E41342028323937783231306D6D29419254D3D7D04D1124130783320283131383978323532336D6D29421254D3D7D04C1E0CD114131783420
310
2838343178323337386D6D29421254D3D7D04C5E0D11141317833202838343178313738336D6D29421254D3D7D04C5E0CD02431254D3C82557247A25E4C81050A49534F5F5449544C4541431254D3C82557247A25E4C81090A49534F5F5449544C45424110B979A97F0D8BDC45F424C5F44D254D3D7D09317D4995D9A5CDA5
310
BDB9B1A5CDD10B979A97F0D8BDC45F544C5F44D254D3D7D51317D4995D9A5CDA5BDB9B1A5CDD10B979A97F0D8BDC45F42525F44D254D3D7D09497D4995D9A5CDA5BDB9B1A5CDD10B979A97F0D8BDC45F54525F44D254D3D7D51497D4995D9A5CDA5BDB9B1A5CDD0C
 94
        0
1001
ACAD
1000
AcadProxyRoundTripData
1071
      540
1071
   655383
1070
     0
  0
ENDSEC
  0
EOF
